  0
SECTION
  2
HEADER
  9
$ACADVER
  1
AC1015
  9
$ACADMAINTVER
 70
     6
  9
$DWGCODEPAGE
  3
ANSI_1252
  9
$INSBASE
 10
0.0
 20
0.0
 30
0.0
  9
$EXTMIN
 10
5077.011171247676
 20
12815.22655648776
 30
0.0
  9
$EXTMAX
 10
5487.011171247676
 20
13101.22655648776
 30
0.0
  9
$LIMMIN
 10
0.0
 20
0.0
  9
$LIMMAX
 10
12.0
 20
9.0
  9
$ORTHOMODE
 70
     0
  9
$REGENMODE
 70
     1
  9
$FILLMODE
 70
     1
  9
$QTEXTMODE
 70
     0
  9
$MIRRTEXT
 70
     1
  9
$LTSCALE
 40
1.0
  9
$ATTMODE
 70
     1
  9
$TEXTSIZE
 40
0.2
  9
$TRACEWID
 40
0.05
  9
$TEXTSTYLE
  7
Standard
  9
$CLAYER
  8
0
  9
$CELTYPE
  6
ByLayer
  9
$CECOLOR
 62
   256
  9
$CELTSCALE
 40
1.0
  9
$DISPSILH
 70
     0
  9
$DIMSCALE
 40
1.0
  9
$DIMASZ
 40
0.18
  9
$DIMEXO
 40
0.0625
  9
$DIMDLI
 40
0.38
  9
$DIMRND
 40
0.0
  9
$DIMDLE
 40
0.0
  9
$DIMEXE
 40
0.18
  9
$DIMTP
 40
0.0
  9
$DIMTM
 40
0.0
  9
$DIMTXT
 40
0.18
  9
$DIMCEN
 40
0.09
  9
$DIMTSZ
 40
0.0
  9
$DIMTOL
 70
     0
  9
$DIMLIM
 70
     0
  9
$DIMTIH
 70
     1
  9
$DIMTOH
 70
     1
  9
$DIMSE1
 70
     0
  9
$DIMSE2
 70
     0
  9
$DIMTAD
 70
     0
  9
$DIMZIN
 70
     0
  9
$DIMBLK
  1

  9
$DIMASO
 70
     1
  9
$DIMSHO
 70
     1
  9
$DIMPOST
  1

  9
$DIMAPOST
  1

  9
$DIMALT
 70
     0
  9
$DIMALTD
 70
     2
  9
$DIMALTF
 40
25.4
  9
$DIMLFAC
 40
1.0
  9
$DIMTOFL
 70
     0
  9
$DIMTVP
 40
0.0
  9
$DIMTIX
 70
     0
  9
$DIMSOXD
 70
     0
  9
$DIMSAH
 70
     0
  9
$DIMBLK1
  1

  9
$DIMBLK2
  1

  9
$DIMSTYLE
  2
Standard
  9
$DIMCLRD
 70
     0
  9
$DIMCLRE
 70
     0
  9
$DIMCLRT
 70
     0
  9
$DIMTFAC
 40
1.0
  9
$DIMGAP
 40
0.09
  9
$DIMJUST
 70
     0
  9
$DIMSD1
 70
     0
  9
$DIMSD2
 70
     0
  9
$DIMTOLJ
 70
     1
  9
$DIMTZIN
 70
     0
  9
$DIMALTZ
 70
     0
  9
$DIMALTTZ
 70
     0
  9
$DIMUPT
 70
     0
  9
$DIMDEC
 70
     4
  9
$DIMTDEC
 70
     4
  9
$DIMALTU
 70
     2
  9
$DIMALTTD
 70
     2
  9
$DIMTXSTY
  7
Standard
  9
$DIMAUNIT
 70
     0
  9
$DIMADEC
 70
     0
  9
$DIMALTRND
 40
0.0
  9
$DIMAZIN
 70
     0
  9
$DIMDSEP
 70
    46
  9
$DIMATFIT
 70
     3
  9
$DIMFRAC
 70
     0
  9
$DIMLDRBLK
  1

  9
$DIMLUNIT
 70
     2
  9
$DIMLWD
 70
    -2
  9
$DIMLWE
 70
    -2
  9
$DIMTMOVE
 70
     0
  9
$LUNITS
 70
     2
  9
$LUPREC
 70
     4
  9
$SKETCHINC
 40
0.1
  9
$FILLETRAD
 40
0.5
  9
$AUNITS
 70
     0
  9
$AUPREC
 70
     0
  9
$MENU
  1
.
  9
$ELEVATION
 40
0.0
  9
$PELEVATION
 40
0.0
  9
$THICKNESS
 40
0.0
  9
$LIMCHECK
 70
     0
  9
$CHAMFERA
 40
0.5
  9
$CHAMFERB
 40
0.5
  9
$CHAMFERC
 40
1.0
  9
$CHAMFERD
 40
0.0
  9
$SKPOLY
 70
     0
  9
$TDCREATE
 40
2457060.461115474
  9
$TDUCREATE
 40
2457060.419448808
  9
$TDUPDATE
 40
2457060.461115486
  9
$TDUUPDATE
 40
2457060.419448819
  9
$TDINDWG
 40
0.0000000116
  9
$TDUSRTIMER
 40
0.0000000116
  9
$USRTIMER
 70
     1
  9
$ANGBASE
 50
0.0
  9
$ANGDIR
 70
     0
  9
$PDMODE
 70
     0
  9
$PDSIZE
 40
0.0
  9
$PLINEWID
 40
0.0
  9
$SPLFRAME
 70
     0
  9
$SPLINETYPE
 70
     6
  9
$SPLINESEGS
 70
     8
  9
$HANDSEED
  5
2BC
  9
$SURFTAB1
 70
     6
  9
$SURFTAB2
 70
     6
  9
$SURFTYPE
 70
     6
  9
$SURFU
 70
     6
  9
$SURFV
 70
     6
  9
$UCSBASE
  2

  9
$UCSNAME
  2

  9
$UCSORG
 10
0.0
 20
0.0
 30
0.0
  9
$UCSXDIR
 10
1.0
 20
0.0
 30
0.0
  9
$UCSYDIR
 10
0.0
 20
1.0
 30
0.0
  9
$UCSORTHOREF
  2

  9
$UCSORTHOVIEW
 70
     0
  9
$UCSORGTOP
 10
0.0
 20
0.0
 30
0.0
  9
$UCSORGBOTTOM
 10
0.0
 20
0.0
 30
0.0
  9
$UCSORGLEFT
 10
0.0
 20
0.0
 30
0.0
  9
$UCSORGRIGHT
 10
0.0
 20
0.0
 30
0.0
  9
$UCSORGFRONT
 10
0.0
 20
0.0
 30
0.0
  9
$UCSORGBACK
 10
0.0
 20
0.0
 30
0.0
  9
$PUCSBASE
  2

  9
$PUCSNAME
  2

  9
$PUCSORG
 10
0.0
 20
0.0
 30
0.0
  9
$PUCSXDIR
 10
1.0
 20
0.0
 30
0.0
  9
$PUCSYDIR
 10
0.0
 20
1.0
 30
0.0
  9
$PUCSORTHOREF
  2

  9
$PUCSORTHOVIEW
 70
     0
  9
$PUCSORGTOP
 10
0.0
 20
0.0
 30
0.0
  9
$PUCSORGBOTTOM
 10
0.0
 20
0.0
 30
0.0
  9
$PUCSORGLEFT
 10
0.0
 20
0.0
 30
0.0
  9
$PUCSORGRIGHT
 10
0.0
 20
0.0
 30
0.0
  9
$PUCSORGFRONT
 10
0.0
 20
0.0
 30
0.0
  9
$PUCSORGBACK
 10
0.0
 20
0.0
 30
0.0
  9
$USERI1
 70
     0
  9
$USERI2
 70
     0
  9
$USERI3
 70
     0
  9
$USERI4
 70
     0
  9
$USERI5
 70
     0
  9
$USERR1
 40
18.0
  9
$USERR2
 40
0.0
  9
$USERR3
 40
0.0
  9
$USERR4
 40
0.0
  9
$USERR5
 40
0.0
  9
$WORLDVIEW
 70
     1
  9
$SHADEDGE
 70
     3
  9
$SHADEDIF
 70
    70
  9
$TILEMODE
 70
     1
  9
$MAXACTVP
 70
    64
  9
$PINSBASE
 10
0.0
 20
0.0
 30
0.0
  9
$PLIMCHECK
 70
     0
  9
$PEXTMIN
 10
1.00000000000000E+20
 20
1.00000000000000E+20
 30
1.00000000000000E+20
  9
$PEXTMAX
 10
-1.00000000000000E+20
 20
-1.00000000000000E+20
 30
-1.00000000000000E+20
  9
$PLIMMIN
 10
0.0
 20
0.0
  9
$PLIMMAX
 10
12.0
 20
9.0
  9
$UNITMODE
 70
     0
  9
$VISRETAIN
 70
     1
  9
$PLINEGEN
 70
     0
  9
$PSLTSCALE
 70
     1
  9
$TREEDEPTH
 70
  3020
  9
$CMLSTYLE
  2
Standard
  9
$CMLJUST
 70
     0
  9
$CMLSCALE
 40
1.0
  9
$PROXYGRAPHICS
 70
     1
  9
$MEASUREMENT
 70
     1
  9
$CELWEIGHT
370
    -1
  9
$ENDCAPS
280
     0
  9
$JOINSTYLE
280
     0
  9
$LWDISPLAY
290
     0
  9
$INSUNITS
 70
     1
  9
$HYPERLINKBASE
  1

  9
$STYLESHEET
  1

  9
$XEDIT
290
     1
  9
$CEPSNTYPE
380
     0
  9
$PSTYLEMODE
290
     1
  9
$FINGERPRINTGUID
  2
{75285593-82AD-4A70-9C00-F61189056ED5}
  9
$VERSIONGUID
  2
{FAEB1C32-E019-11D5-929B-00C0DF256EC4}
  9
$EXTNAMES
290
     1
  9
$PSVPSCALE
 40
0.0
  9
$OLESTARTUP
290
     0
  0
ENDSEC
  0
SECTION
  2
CLASSES
  0
CLASS
  1
ACDBDICTIONARYWDFLT
  2
AcDbDictionaryWithDefault
  3
ObjectDBX Classes
 90
        0
280
     0
281
     0
  0
CLASS
  1
VISUALSTYLE
  2
AcDbVisualStyle
  3
ObjectDBX Classes
 90
     4095
280
     0
281
     0
  0
CLASS
  1
MATERIAL
  2
AcDbMaterial
  3
ObjectDBX Classes
 90
     1153
280
     0
281
     0
  0
CLASS
  1
SCALE
  2
AcDbScale
  3
ObjectDBX Classes
 90
     1153
280
     0
281
     0
  0
CLASS
  1

  2
exOdDbCircle
  3

 90
        0
280
     0
281
     1
  0
CLASS
  1

  2
exOdDbSpline
  3

 90
        0
280
     0
281
     1
  0
CLASS
  1

  2
exOdDbPolyline
  3

 90
        0
280
     0
281
     1
  0
CLASS
  1
DICTIONARYVAR
  2
AcDbDictionaryVar
  3
ObjectDBX Classes
 90
        0
280
     0
281
     0
  0
CLASS
  1
ACDBPLACEHOLDER
  2
AcDbPlaceHolder
  3
ObjectDBX Classes
 90
        0
280
     0
281
     0
  0
CLASS
  1
LAYOUT
  2
AcDbLayout
  3
ObjectDBX Classes
 90
        0
280
     0
281
     0
  0
ENDSEC
  0
SECTION
  2
TABLES
  0
TABLE
  2
VPORT
  5
8
330
0
100
AcDbSymbolTable
 70
     1
  0
VPORT
  5
29
330
8
100
AcDbSymbolTableRecord
100
AcDbViewportTableRecord
  2
*Active
 70
     0
 10
0.0
 20
0.0
 11
1.0
 21
1.0
 12
5282.011171247676
 22
12958.22655648776
 13
0.0
 23
0.0
 14
0.5
 24
0.5
 15
0.5
 25
0.5
 16
0.0
 26
0.0
 36
1.0
 17
0.0
 27
0.0
 37
0.0
 40
314.6
 41
1.60267857142857
 42
50.0
 43
0.0
 44
0.0
 50
0.0
 51
0.0
 71
     0
 72
   100
 73
     1
 74
     3
 75
     0
 76
     0
 77
     0
 78
     0
281
     0
 65
     1
110
0.0
120
0.0
130
0.0
111
1.0
121
0.0
131
0.0
112
0.0
122
1.0
132
0.0
 79
     0
146
0.0
  0
ENDTAB
  0
TABLE
  2
LTYPE
  5
5
330
0
100
AcDbSymbolTable
 70
     8
  0
LTYPE
  5
14
330
5
100
AcDbSymbolTableRecord
100
AcDbLinetypeTableRecord
  2
ByBlock
 70
     0
  3

 72
    65
 73
     0
 40
0.0
  0
LTYPE
  5
15
330
5
100
AcDbSymbolTableRecord
100
AcDbLinetypeTableRecord
  2
ByLayer
 70
     0
  3

 72
    65
 73
     0
 40
0.0
  0
LTYPE
  5
16
330
5
100
AcDbSymbolTableRecord
100
AcDbLinetypeTableRecord
  2
Continuous
 70
     0
  3
Solid line
 72
    65
 73
     0
 40
0.0
  0
LTYPE
  5
3F
330
5
100
AcDbSymbolTableRecord
100
AcDbLinetypeTableRecord
  2
DASHED
 70
     0
  3
Dashed
 72
    65
 73
     2
 40
15.0
 49
7.0
 74
     0
 49
-8.0
 74
     0
  0
LTYPE
  5
40
330
5
100
AcDbSymbolTableRecord
100
AcDbLinetypeTableRecord
  2
DOTTED
 70
     0
  3
Dotted
 72
    65
 73
     2
 40
1.0
 49
0.0
 74
     0
 49
-1.0
 74
     0
  0
LTYPE
  5
41
330
5
100
AcDbSymbolTableRecord
100
AcDbLinetypeTableRecord
  2
DOT_CENTER
 70
     0
  3
Dot_Center
 72
    65
 73
     4
 40
14.0
 49
12.0
 74
     0
 49
-1.0
 74
     0
 49
0.0
 74
     0
 49
-1.0
 74
     0
  0
LTYPE
  5
42
330
5
100
AcDbSymbolTableRecord
100
AcDbLinetypeTableRecord
  2
LONG_DASHED
 70
     0
  3
Long_Dashed
 72
    65
 73
     2
 40
15.0
 49
10.0
 74
     0
 49
-5.0
 74
     0
  0
LTYPE
  5
43
330
5
100
AcDbSymbolTableRecord
100
AcDbLinetypeTableRecord
  2
DASH_CENTER
 70
     0
  3
Dash_Center
 72
    65
 73
     4
 40
14.0
 49
11.0
 74
     0
 49
-1.0
 74
     0
 49
1.0
 74
     0
 49
-1.0
 74
     0
  0
LTYPE
  5
44
330
5
100
AcDbSymbolTableRecord
100
AcDbLinetypeTableRecord
  2
PHANTOM
 70
     0
  3
Phantom
 72
    65
 73
     6
 40
13.0
 49
10.0
 74
     0
 49
-1.0
 74
     0
 49
0.0
 74
     0
 49
-1.0
 74
     0
 49
0.0
 74
     0
 49
-1.0
 74
     0
  0
LTYPE
  5
45
330
5
100
AcDbSymbolTableRecord
100
AcDbLinetypeTableRecord
  2
CENTER_DASH_DASH
 70
     0
  3
Center_Dash_Dash
 72
    65
 73
     6
 40
14.0
 49
9.0
 74
     0
 49
-1.0
 74
     0
 49
1.0
 74
     0
 49
-1.0
 74
     0
 49
1.0
 74
     0
 49
-1.0
 74
     0
  0
ENDTAB
  0
TABLE
  2
LAYER
  5
2
330
0
100
AcDbSymbolTable
 70
     3
  0
LAYER
  5
10
330
2
100
AcDbSymbolTableRecord
100
AcDbLayerTableRecord
  2
0
 70
     0
 62
     7
  6
Continuous
370
    -3
390
F
  0
LAYER
  5
46
330
2
100
AcDbSymbolTableRecord
100
AcDbLayerTableRecord
  2
1
 70
     0
 62
     7
  6
Continuous
370
    -3
390
F
  0
LAYER
  5
47
330
2
100
AcDbSymbolTableRecord
100
AcDbLayerTableRecord
  2
Ceiling_Bracket
 70
     0
 62
     7
  6
Continuous
370
    -3
390
F
  0
ENDTAB
  0
TABLE
  2
STYLE
  5
3
330
0
100
AcDbSymbolTable
 70
     8
  0
STYLE
  5
11
330
3
100
AcDbSymbolTableRecord
100
AcDbTextStyleTableRecord
  2
Standard
 70
     0
 40
0.0
 41
1.0
 50
0.0
 71
     0
 42
0.2
  3
txt
  4

  0
STYLE
  5
123
330
3
100
AcDbSymbolTableRecord
100
AcDbTextStyleTableRecord
  2
CONVERTER_11
 70
     0
 40
0.0
 41
0.99
 50
0.0
 71
     0
 42
0.2
  3
txt.shx
  4

  0
STYLE
  5
132
330
3
100
AcDbSymbolTableRecord
100
AcDbTextStyleTableRecord
  2
CONVERTER_12
 70
     0
 40
0.0
 41
0.81
 50
0.0
 71
     0
 42
0.2
  3
txt.shx
  4

  0
STYLE
  5
134
330
3
100
AcDbSymbolTableRecord
100
AcDbTextStyleTableRecord
  2
CONVERTER_13
 70
     0
 40
0.0
 41
0.9
 50
0.0
 71
     0
 42
0.2
  3
txt.shx
  4

  0
STYLE
  5
137
330
3
100
AcDbSymbolTableRecord
100
AcDbTextStyleTableRecord
  2
CONVERTER_14
 70
     0
 40
0.0
 41
0.72
 50
0.0
 71
     0
 42
0.2
  3
txt.shx
  4

  0
STYLE
  5
144
330
3
100
AcDbSymbolTableRecord
100
AcDbTextStyleTableRecord
  2
CONVERTER_15
 70
     0
 40
0.0
 41
0.66696267749507
 50
0.0
 71
     0
 42
0.2
  3
txt.shx
  4

  0
STYLE
  5
147
330
3
100
AcDbSymbolTableRecord
100
AcDbTextStyleTableRecord
  2
CONVERTER_16
 70
     0
 40
0.0
 41
0.54
 50
0.0
 71
     0
 42
0.2
  3
txt.shx
  4

  0
STYLE
  5
183
330
3
100
AcDbSymbolTableRecord
100
AcDbTextStyleTableRecord
  2
CONVERTER_17
 70
     0
 40
0.0
 41
0.765
 50
0.0
 71
     0
 42
0.2
  3
txt.shx
  4

  0
ENDTAB
  0
TABLE
  2
VIEW
  5
6
330
0
100
AcDbSymbolTable
 70
     0
  0
ENDTAB
  0
TABLE
  2
UCS
  5
7
330
0
100
AcDbSymbolTable
 70
     0
  0
ENDTAB
  0
TABLE
  2
APPID
  5
9
330
0
100
AcDbSymbolTable
 70
     1
  0
APPID
  5
12
330
9
100
AcDbSymbolTableRecord
100
AcDbRegAppTableRecord
  2
ACAD
 70
     0
  0
ENDTAB
  0
TABLE
  2
DIMSTYLE
  5
A
330
0
100
AcDbSymbolTable
 70
    12
100
AcDbDimStyleTable
  0
DIMSTYLE
105
27
330
A
100
AcDbSymbolTableRecord
100
AcDbDimStyleTableRecord
  2
Standard
 70
     0
340
11
  0
DIMSTYLE
105
204
102
{ACAD_REACTORS
330
205
102
}
330
A
100
AcDbSymbolTableRecord
100
AcDbDimStyleTableRecord
  2
ME10_DIM_10
 70
     0
 41
3.5
 42
0.0
 44
2.0
 73
     0
 74
     0
 77
     1
 78
     8
140
3.5
147
2.0
172
     1
173
     1
174
     1
175
     1
176
     3
177
     3
178
     4
271
     2
340
134
  0
DIMSTYLE
105
211
102
{ACAD_REACTORS
330
212
102
}
330
A
100
AcDbSymbolTableRecord
100
AcDbDimStyleTableRecord
  2
ME10_DIM_11
 70
     0
 41
3.5
 42
0.0
 44
2.0
 73
     0
 74
     0
 77
     1
 78
     8
140
3.5
147
2.0
172
     1
173
     1
174
     1
175
     1
176
     3
177
     3
178
     4
271
     2
340
134
  0
DIMSTYLE
105
21D
102
{ACAD_REACTORS
330
21E
102
}
330
A
100
AcDbSymbolTableRecord
100
AcDbDimStyleTableRecord
  2
ME10_DIM_12
 70
     0
 41
3.5
 42
0.0
 44
2.0
 73
     0
 74
     0
 77
     1
 78
     8
140
3.5
147
2.0
172
     1
173
     1
174
     1
175
     1
176
     3
177
     3
178
     4
271
     2
340
134
  0
DIMSTYLE
105
228
102
{ACAD_REACTORS
330
229
102
}
330
A
100
AcDbSymbolTableRecord
100
AcDbDimStyleTableRecord
  2
ME10_DIM_13
 70
     0
 41
3.5
 42
0.0
 44
2.0
 73
     0
 74
     0
 77
     1
 78
     8
140
3.5
147
2.0
172
     1
173
     1
174
     1
175
     1
176
     3
177
     3
178
     4
271
     2
340
134
  0
DIMSTYLE
105
233
102
{ACAD_REACTORS
330
234
102
}
330
A
100
AcDbSymbolTableRecord
100
AcDbDimStyleTableRecord
  2
ME10_DIM_14
 70
     0
 41
3.5
 42
0.0
 44
2.0
 73
     0
 74
     0
 77
     1
 78
     8
140
3.5
147
2.0
172
     1
173
     1
174
     1
175
     1
176
     3
177
     3
178
     4
271
     2
340
134
  0
DIMSTYLE
105
23E
102
{ACAD_REACTORS
330
23F
102
}
330
A
100
AcDbSymbolTableRecord
100
AcDbDimStyleTableRecord
  2
ME10_DIM_15
 70
     0
 41
3.5
 42
0.0
 44
2.0
 73
     0
 74
     0
 77
     1
 78
     8
140
3.5
147
2.0
172
     1
173
     1
174
     1
175
     1
176
     3
177
     3
178
     4
271
     2
340
134
  0
DIMSTYLE
105
24A
102
{ACAD_REACTORS
330
24B
102
}
330
A
100
AcDbSymbolTableRecord
100
AcDbDimStyleTableRecord
  2
ME10_DIM_16
 70
     0
 41
3.5
 42
0.0
 44
2.0
 73
     0
 74
     0
 77
     1
 78
     8
140
3.5
147
2.0
172
     1
173
     1
174
     1
175
     1
176
     3
177
     3
178
     4
271
     2
340
134
  0
DIMSTYLE
105
255
102
{ACAD_REACTORS
330
256
102
}
330
A
100
AcDbSymbolTableRecord
100
AcDbDimStyleTableRecord
  2
ME10_DIM_17
 70
     0
 41
3.5
 42
0.0
 44
2.0
 73
     0
 74
     0
 77
     1
 78
     8
140
3.5
147
2.0
172
     1
173
     1
174
     1
175
     1
176
     3
177
     3
178
     4
271
     2
340
134
  0
DIMSTYLE
105
260
102
{ACAD_REACTORS
330
261
102
}
330
A
100
AcDbSymbolTableRecord
100
AcDbDimStyleTableRecord
  2
ME10_DIM_18
 70
     0
 41
3.5
 42
0.0
 44
2.0
 73
     0
 74
     0
 77
     1
 78
     8
140
3.5
147
2.0
172
     1
173
     1
174
     1
175
     1
176
     3
177
     3
178
     4
271
     2
340
134
  0
DIMSTYLE
105
283
102
{ACAD_REACTORS
330
284
102
}
330
A
100
AcDbSymbolTableRecord
100
AcDbDimStyleTableRecord
  2
ME10_DIM_19
 70
     0
 41
3.5
 42
0.0
 44
2.0
 73
     0
 74
     0
 77
     1
 78
     8
140
3.5
147
2.0
172
     1
173
     1
174
     1
175
     1
176
     3
177
     3
178
     4
271
     0
340
134
  0
DIMSTYLE
105
28E
102
{ACAD_REACTORS
330
28F
102
}
330
A
100
AcDbSymbolTableRecord
100
AcDbDimStyleTableRecord
  2
ME10_DIM_20
 70
     0
 41
3.5
 42
0.0
 44
2.0
 73
     0
 74
     0
 77
     1
 78
     8
140
3.5
147
2.0
172
     1
173
     1
174
     1
175
     1
176
     3
177
     3
178
     4
271
     0
340
134
  0
ENDTAB
  0
TABLE
  2
BLOCK_RECORD
  5
1
330
0
100
AcDbSymbolTable
 70
    17
  0
BLOCK_RECORD
  5
1F
330
1
100
AcDbSymbolTableRecord
100
AcDbBlockTableRecord
  2
*Model_Space
340
22
  0
BLOCK_RECORD
  5
1B
330
1
100
AcDbSymbolTableRecord
100
AcDbBlockTableRecord
  2
*Paper_Space
340
1E
  0
BLOCK_RECORD
  5
23
330
1
100
AcDbSymbolTableRecord
100
AcDbBlockTableRecord
  2
*Paper_Space0
340
26
  0
BLOCK_RECORD
  5
48
330
1
100
AcDbSymbolTableRecord
100
AcDbBlockTableRecord
  2
a3kl
340
0
102
{BLKREFS
331
6E
102
}
  0
BLOCK_RECORD
  5
4B
330
1
100
AcDbSymbolTableRecord
100
AcDbBlockTableRecord
  2
Rahmen
340
0
102
{BLKREFS
331
71
102
}
  0
BLOCK_RECORD
  5
1FB
330
1
100
AcDbSymbolTableRecord
100
AcDbBlockTableRecord
  2
*D3
340
0
  0
BLOCK_RECORD
  5
206
330
1
100
AcDbSymbolTableRecord
100
AcDbBlockTableRecord
  2
*D4
340
0
  0
BLOCK_RECORD
  5
213
330
1
100
AcDbSymbolTableRecord
100
AcDbBlockTableRecord
  2
*D5
340
0
  0
BLOCK_RECORD
  5
21F
330
1
100
AcDbSymbolTableRecord
100
AcDbBlockTableRecord
  2
*D6
340
0
  0
BLOCK_RECORD
  5
22A
330
1
100
AcDbSymbolTableRecord
100
AcDbBlockTableRecord
  2
*D7
340
0
  0
BLOCK_RECORD
  5
235
330
1
100
AcDbSymbolTableRecord
100
AcDbBlockTableRecord
  2
*D8
340
0
  0
BLOCK_RECORD
  5
240
330
1
100
AcDbSymbolTableRecord
100
AcDbBlockTableRecord
  2
*D9
340
0
  0
BLOCK_RECORD
  5
24C
330
1
100
AcDbSymbolTableRecord
100
AcDbBlockTableRecord
  2
*D10
340
0
  0
BLOCK_RECORD
  5
257
330
1
100
AcDbSymbolTableRecord
100
AcDbBlockTableRecord
  2
*D11
340
0
  0
BLOCK_RECORD
  5
262
330
1
100
AcDbSymbolTableRecord
100
AcDbBlockTableRecord
  2
*D12
340
0
102
{BLKREFS
331
268
102
}
  0
BLOCK_RECORD
  5
269
330
1
100
AcDbSymbolTableRecord
100
AcDbBlockTableRecord
  2
*D13
340
0
102
{BLKREFS
331
26F
102
}
  0
BLOCK_RECORD
  5
270
330
1
100
AcDbSymbolTableRecord
100
AcDbBlockTableRecord
  2
*D14
340
0
102
{BLKREFS
331
279
102
}
  0
BLOCK_RECORD
  5
27A
330
1
100
AcDbSymbolTableRecord
100
AcDbBlockTableRecord
  2
*D15
340
0
  0
BLOCK_RECORD
  5
285
330
1
100
AcDbSymbolTableRecord
100
AcDbBlockTableRecord
  2
*D16
340
0
  0
ENDTAB
  0
ENDSEC
  0
SECTION
  2
BLOCKS
  0
BLOCK
  5
20
330
1F
100
AcDbEntity
  8
0
100
AcDbBlockBegin
  2
*Model_Space
 70
     0
 10
0.0
 20
0.0
 30
0.0
  3
*Model_Space
  1

  0
ENDBLK
  5
21
330
1F
100
AcDbEntity
  8
0
100
AcDbBlockEnd
  0
BLOCK
  5
1C
330
1B
100
AcDbEntity
 67
     1
  8
0
100
AcDbBlockBegin
  2
*Paper_Space
 70
     0
 10
0.0
 20
0.0
 30
0.0
  3
*Paper_Space
  1

  0
ENDBLK
  5
1D
330
1B
100
AcDbEntity
 67
     1
  8
0
100
AcDbBlockEnd
  0
BLOCK
  5
24
330
23
100
AcDbEntity
  8
0
100
AcDbBlockBegin
  2
*Paper_Space0
 70
     0
 10
0.0
 20
0.0
 30
0.0
  3
*Paper_Space0
  1

  0
ENDBLK
  5
25
330
23
100
AcDbEntity
  8
0
100
AcDbBlockEnd
  0
BLOCK
  5
49
330
48
100
AcDbEntity
  8
0
100
AcDbBlockBegin
  2
a3kl
 70
     0
 10
5077.011171247676
 20
12815.22655648776
 30
0.0
  3
a3kl
  1

  0
LINE
  5
72
330
48
100
AcDbEntity
  8
0
  6
Continuous
 62
     3
100
AcDbLine
 10
5282.011171247676
 20
12820.22655648776
 30
0.0
 11
5308.011171247676
 21
12820.22655648776
 31
0.0
  0
LINE
  5
73
330
48
100
AcDbEntity
  8
1
  6
Continuous
 62
     3
100
AcDbLine
 10
5282.011171247676
 20
12820.22655648776
 30
0.0
 11
5282.011171247676
 21
12815.22655648776
 31
0.0
  0
LINE
  5
74
330
48
100
AcDbEntity
  8
0
  6
Continuous
 62
     3
100
AcDbLine
 10
5230.811220247676
 20
12820.22655648776
 30
0.0
 11
5282.011171247676
 21
12820.22655648776
 31
0.0
  0
LINE
  5
75
330
48
100
AcDbEntity
  8
1
  6
Continuous
 62
     3
100
AcDbLine
 10
5230.811220247676
 20
12820.22655648776
 30
0.0
 11
5230.811220247676
 21
12815.22655648776
 31
0.0
  0
LINE
  5
76
330
48
100
AcDbEntity
  8
0
  6
Continuous
 62
     3
100
AcDbLine
 10
5219.511171247676
 20
12820.22655648776
 30
0.0
 11
5230.811220247676
 21
12820.22655648776
 31
0.0
  0
LINE
  5
77
330
48
100
AcDbEntity
  8
0
  6
Continuous
 62
     3
100
AcDbLine
 10
5077.011171247676
 20
12863.02660548776
 30
0.0
 11
5082.011171247676
 21
12863.02660548776
 31
0.0
  0
LINE
  5
78
330
48
100
AcDbEntity
  8
0
  6
Continuous
 62
     3
100
AcDbLine
 10
5082.011171247676
 20
12910.82653248776
 30
0.0
 11
5077.011171247676
 21
12910.82653248776
 31
0.0
  0
LINE
  5
79
330
48
100
AcDbEntity
  8
0
  6
Continuous
 62
     3
100
AcDbLine
 10
5077.011171247676
 20
12958.62658048776
 30
0.0
 11
5082.011171247676
 21
12958.62658048776
 31
0.0
  0
LINE
  5
7A
330
48
100
AcDbEntity
  8
0
  6
Continuous
 62
     3
100
AcDbLine
 10
5082.011171247676
 20
13006.42662948776
 30
0.0
 11
5077.011171247676
 21
13006.42662948776
 31
0.0
  0
LINE
  5
7B
330
48
100
AcDbEntity
  8
0
  6
Continuous
 62
     3
100
AcDbLine
 10
5077.011171247676
 20
13054.22655648776
 30
0.0
 11
5082.011171247676
 21
13054.22655648776
 31
0.0
  0
LINE
  5
7C
330
48
100
AcDbEntity
  8
0
  6
Continuous
 62
     3
100
AcDbLine
 10
5128.311220247676
 20
13101.22655648776
 30
0.0
 11
5128.311220247676
 21
13096.22655648776
 31
0.0
  0
LINE
  5
7D
330
48
100
AcDbEntity
  8
0
  6
Continuous
 62
     3
100
AcDbLine
 10
5179.511171247676
 20
13096.22655648776
 30
0.0
 11
5179.511171247676
 21
13101.22655648776
 31
0.0
  0
LINE
  5
7E
330
48
100
AcDbEntity
  8
0
  6
Continuous
 62
     3
100
AcDbLine
 10
5230.811220247676
 20
13101.22655648776
 30
0.0
 11
5230.811220247676
 21
13096.22655648776
 31
0.0
  0
LINE
  5
7F
330
48
100
AcDbEntity
  8
0
  6
Continuous
 62
     3
100
AcDbLine
 10
5282.011171247676
 20
13096.22655648776
 30
0.0
 11
5282.011171247676
 21
13101.22655648776
 31
0.0
  0
LINE
  5
80
330
48
100
AcDbEntity
  8
0
  6
Continuous
 62
     3
100
AcDbLine
 10
5333.311220247676
 20
13101.22655648776
 30
0.0
 11
5333.311220247676
 21
13096.22655648776
 31
0.0
  0
LINE
  5
81
330
48
100
AcDbEntity
  8
0
  6
Continuous
 62
     3
100
AcDbLine
 10
5384.511171247676
 20
13096.22655648776
 30
0.0
 11
5384.511171247676
 21
13101.22655648776
 31
0.0
  0
LINE
  5
82
330
48
100
AcDbEntity
  8
0
  6
Continuous
 62
     3
100
AcDbLine
 10
5435.711122247676
 20
13101.22655648776
 30
0.0
 11
5435.711122247676
 21
13096.22655648776
 31
0.0
  0
LINE
  5
83
330
48
100
AcDbEntity
  8
0
  6
Continuous
 62
     3
100
AcDbLine
 10
5482.011171247676
 20
13054.22655648776
 30
0.0
 11
5487.011171247676
 21
13054.22655648776
 31
0.0
  0
LINE
  5
84
330
48
100
AcDbEntity
  8
0
  6
Continuous
 62
     3
100
AcDbLine
 10
5482.011171247676
 20
13006.42662948776
 30
0.0
 11
5487.011171247676
 21
13006.42662948776
 31
0.0
  0
LINE
  5
85
330
48
100
AcDbEntity
  8
0
  6
Continuous
 62
     3
100
AcDbLine
 10
5482.011171247676
 20
12958.62658048776
 30
0.0
 11
5487.011171247676
 21
12958.62658048776
 31
0.0
  0
LINE
  5
86
330
48
100
AcDbEntity
  8
0
  6
Continuous
 62
     3
100
AcDbLine
 10
5482.011171247676
 20
12910.82653248776
 30
0.0
 11
5487.011171247676
 21
12910.82653248776
 31
0.0
  0
LINE
  5
87
330
48
100
AcDbEntity
  8
0
  6
Continuous
 62
     3
100
AcDbLine
 10
5482.011171247676
 20
12858.22655648776
 30
0.0
 11
5482.011171247676
 21
13096.22655648776
 31
0.0
  0
LINE
  5
88
330
48
100
AcDbEntity
  8
0
  6
Continuous
 62
     3
100
AcDbLine
 10
5482.011171247676
 20
13096.22655648776
 30
0.0
 11
5082.011171247676
 21
13096.22655648776
 31
0.0
  0
LINE
  5
89
330
48
100
AcDbEntity
  8
0
  6
Continuous
 62
     3
100
AcDbLine
 10
5082.011171247676
 20
13096.22655648776
 30
0.0
 11
5082.011171247676
 21
12836.72655648776
 31
0.0
  0
LINE
  5
8A
330
48
100
AcDbEntity
  8
0
  6
Continuous
 62
     3
100
AcDbLine
 10
5092.011171247676
 20
12836.72655648776
 30
0.0
 11
5092.011171247676
 21
13096.22655648776
 31
0.0
  0
LINE
  5
8B
330
48
100
AcDbEntity
  8
0
  6
Continuous
 62
     2
100
AcDbLine
 10
5077.011171247676
 20
12815.22655648776
 30
0.0
 11
5077.011171247676
 21
13101.22655648776
 31
0.0
  0
LINE
  5
8C
330
48
100
AcDbEntity
  8
0
  6
Continuous
 62
     2
100
AcDbLine
 10
5077.011171247676
 20
13101.22655648776
 30
0.0
 11
5092.011171247676
 21
13101.22655648776
 31
0.0
  0
LINE
  5
8D
330
48
100
AcDbEntity
  8
1
  6
Continuous
 62
     2
100
AcDbLine
 10
5077.011171247676
 20
12815.22655648776
 30
0.0
 11
5308.011171247676
 21
12815.22655648776
 31
0.0
  0
LINE
  5
8E
330
48
100
AcDbEntity
  8
0
  6
Continuous
 62
     2
100
AcDbLine
 10
5092.011171247676
 20
13101.22655648776
 30
0.0
 11
5487.011171247676
 21
13101.22655648776
 31
0.0
  0
LINE
  5
8F
330
48
100
AcDbEntity
  8
0
  6
Continuous
 62
     2
100
AcDbLine
 10
5487.011171247676
 20
13101.22655648776
 30
0.0
 11
5487.011171247676
 21
12815.22655648776
 31
0.0
  0
LINE
  5
90
330
48
100
AcDbEntity
  8
0
  6
Continuous
 62
     1
100
AcDbLine
 10
5308.011171247676
 20
12815.22655648776
 30
0.0
 11
5308.011171247676
 21
12858.22655648776
 31
0.0
  0
LINE
  5
91
330
48
100
AcDbEntity
  8
0
  6
Continuous
 62
     3
100
AcDbLine
 10
5313.511171247676
 20
12815.22655648776
 30
0.0
 11
5313.511171247676
 21
12858.22655648776
 31
0.0
  0
LINE
  5
92
330
48
100
AcDbEntity
  8
0
  6
Continuous
 62
     1
100
AcDbLine
 10
5355.011171247676
 20
12821.09322315301
 30
0.0
 11
5355.011171247676
 21
12815.22655648776
 31
0.0
  0
LINE
  5
93
330
48
100
AcDbEntity
  8
0
  6
Continuous
 62
     1
100
AcDbLine
 10
5390.011171247676
 20
12828.22655648776
 30
0.0
 11
5373.011171247676
 21
12828.22655648776
 31
0.0
  0
LINE
  5
94
330
48
100
AcDbEntity
  8
0
  6
Continuous
 62
     1
100
AcDbLine
 10
5373.011171247676
 20
12828.22655648776
 30
0.0
 11
5355.011171247676
 21
12828.22655648776
 31
0.0
  0
LINE
  5
95
330
48
100
AcDbEntity
  8
0
  6
Continuous
 62
     1
100
AcDbLine
 10
5405.011171247676
 20
12835.05988977776
 30
0.0
 11
5432.011171247676
 21
12835.05988977776
 31
0.0
  0
LINE
  5
96
330
48
100
AcDbEntity
  8
0
  6
Continuous
 62
     1
100
AcDbLine
 10
5405.011171247676
 20
12841.22655648776
 30
0.0
 11
5487.011171247676
 21
12841.22655648776
 31
0.0
  0
LINE
  5
97
330
48
100
AcDbEntity
  8
0
  6
Continuous
 62
     1
100
AcDbLine
 10
5405.011171247676
 20
12841.22655648776
 30
0.0
 11
5405.011171247676
 21
12820.72655648776
 31
0.0
  0
LINE
  5
98
330
48
100
AcDbEntity
  8
0
  6
Continuous
 62
     1
100
AcDbLine
 10
5405.011171247676
 20
12828.22655648776
 30
0.0
 11
5390.011171247676
 21
12828.22655648776
 31
0.0
  0
LINE
  5
99
330
48
100
AcDbEntity
  8
0
  6
Continuous
 62
     1
100
AcDbLine
 10
5396.011171247676
 20
12841.22655648776
 30
0.0
 11
5355.011171247676
 21
12841.22655648776
 31
0.0
  0
LINE
  5
9A
330
48
100
AcDbEntity
  8
0
  6
Continuous
 62
     7
100
AcDbLine
 10
5361.071168018266
 20
12854.09738867811
 30
0.0
 11
5361.071168018266
 21
12853.98565563924
 31
0.0
  0
LINE
  5
9B
330
48
100
AcDbEntity
  8
0
  6
Continuous
 62
     7
100
AcDbLine
 10
5369.171234194228
 20
12855.44776359745
 30
0.0
 11
5366.169780285087
 21
12855.44776359745
 31
0.0
  0
LINE
  5
9C
330
48
100
AcDbEntity
  8
0
  6
Continuous
 62
     7
100
AcDbLine
 10
5367.404384692547
 20
12853.69014061363
 30
0.0
 11
5369.306365353904
 21
12855.00955646888
 31
0.0
  0
LINE
  5
9D
330
48
100
AcDbEntity
  8
0
  6
Continuous
 62
     7
100
AcDbLine
 10
5369.248673064728
 20
12853.69014061363
 30
0.0
 11
5367.404384692547
 21
12853.69014061363
 31
0.0
  0
LINE
  5
9E
330
48
100
AcDbEntity
  8
0
  6
Continuous
 62
     7
100
AcDbLine
 10
5369.306365353904
 20
12853.33091156288
 30
0.0
 11
5369.306365353904
 21
12853.63259381166
 31
0.0
  0
LINE
  5
9F
330
48
100
AcDbEntity
  8
0
  6
Continuous
 62
     7
100
AcDbLine
 10
5366.169780285087
 20
12853.27336476091
 30
0.0
 11
5369.248673064728
 21
12853.27336476091
 31
0.0
  0
LINE
  5
A0
330
48
100
AcDbEntity
  8
0
  6
Continuous
 62
     7
100
AcDbLine
 10
5366.112087995911
 20
12853.74014061363
 30
0.0
 11
5366.112087995911
 21
12853.33091156288
 31
0.0
  0
LINE
  5
A1
330
48
100
AcDbEntity
  8
0
  6
Continuous
 62
     7
100
AcDbLine
 10
5368.050546266974
 20
12855.05926516661
 30
0.0
 11
5366.112087995911
 21
12853.74014061363
 31
0.0
  0
LINE
  5
A2
330
48
100
AcDbEntity
  8
0
  6
Continuous
 62
     7
100
AcDbLine
 10
5366.169780285087
 20
12855.05926516661
 30
0.0
 11
5368.050546266974
 21
12855.05926516661
 31
0.0
  0
LINE
  5
A3
330
48
100
AcDbEntity
  8
0
  6
Continuous
 62
     7
100
AcDbLine
 10
5366.112087995911
 20
12855.39007130827
 30
0.0
 11
5366.112087995911
 21
12855.11695745579
 31
0.0
  0
LINE
  5
A4
330
48
100
AcDbEntity
  8
0
  6
Continuous
 62
     7
100
AcDbLine
 10
5363.218215260577
 20
12854.60487156541
 30
0.0
 11
5363.218215260577
 21
12855.0029219406
 31
0.0
  0
LINE
  5
A5
330
48
100
AcDbEntity
  8
0
  6
Continuous
 62
     7
100
AcDbLine
 10
5365.590529598082
 20
12854.54852833939
 30
0.0
 11
5363.275920775862
 21
12854.54852833939
 31
0.0
  0
LINE
  5
A6
330
48
100
AcDbEntity
  8
0
  6
Continuous
 62
     7
100
AcDbLine
 10
5365.590529598082
 20
12854.20550657914
 30
0.0
 11
5365.590529598082
 21
12854.54852833939
 31
0.0
  0
LINE
  5
A7
330
48
100
AcDbEntity
  8
0
  6
Continuous
 62
     7
100
AcDbLine
 10
5363.275920775862
 20
12854.20550657914
 30
0.0
 11
5365.590529598082
 21
12854.20550657914
 31
0.0
  0
LINE
  5
A8
330
48
100
AcDbEntity
  8
0
  6
Continuous
 62
     7
100
AcDbLine
 10
5365.590529598082
 20
12853.69014061363
 30
0.0
 11
5363.275920775862
 21
12853.69014061363
 31
0.0
  0
LINE
  5
A9
330
48
100
AcDbEntity
  8
0
  6
Continuous
 62
     7
100
AcDbLine
 10
5365.590529598082
 20
12853.27399961416
 30
0.0
 11
5365.590529598082
 21
12853.69014061363
 31
0.0
  0
LINE
  5
AA
330
48
100
AcDbEntity
  8
0
  6
Continuous
 62
     7
100
AcDbLine
 10
5362.511306165705
 20
12853.27399961416
 30
0.0
 11
5365.590529598082
 21
12853.27399961416
 31
0.0
  0
LINE
  5
AB
330
48
100
AcDbEntity
  8
0
  6
Continuous
 62
     7
100
AcDbLine
 10
5362.373622366917
 20
12855.31007979866
 30
0.0
 11
5362.373622366917
 21
12853.41168341295
 31
0.0
  0
LINE
  5
AC
330
48
100
AcDbEntity
  8
0
  6
Continuous
 62
     7
100
AcDbLine
 10
5365.590529598082
 20
12855.44776359745
 30
0.0
 11
5362.511306165705
 21
12855.44776359745
 31
0.0
  0
LINE
  5
AD
330
48
100
AcDbEntity
  8
0
  6
Continuous
 62
     7
100
AcDbLine
 10
5365.590529598082
 20
12855.05926516661
 30
0.0
 11
5365.590529598082
 21
12855.44776359745
 31
0.0
  0
LINE
  5
AE
330
48
100
AcDbEntity
  8
0
  6
Continuous
 62
     7
100
AcDbLine
 10
5363.275920775862
 20
12855.05926516661
 30
0.0
 11
5365.590529598082
 21
12855.05926516661
 31
0.0
  0
LINE
  5
AF
330
48
100
AcDbEntity
  8
0
  6
Continuous
 62
     7
100
AcDbLine
 10
5360.258066491072
 20
12854.49852833939
 30
0.0
 11
5360.258066491072
 21
12854.15550657914
 31
0.0
  0
LINE
  5
B0
330
48
100
AcDbEntity
  8
0
  6
Continuous
 62
     7
100
AcDbLine
 10
5361.864205537509
 20
12854.49852833939
 30
0.0
 11
5360.258066491072
 21
12854.49852833939
 31
0.0
  0
LINE
  5
B1
330
48
100
AcDbEntity
  8
0
  6
Continuous
 62
     7
100
AcDbLine
 10
5361.864205537509
 20
12853.7388312288
 30
0.0
 11
5361.864205537509
 21
12854.49852833939
 31
0.0
  0
LINE
  5
B2
330
48
100
AcDbEntity
  8
0
  6
Continuous
 62
     7
100
AcDbLine
 10
5361.255804505402
 20
12855.44776359745
 30
0.0
 11
5359.278765673235
 21
12855.44776359745
 31
0.0
  0
LINE
  5
B3
330
48
100
AcDbEntity
  8
0
  6
Continuous
 62
     7
100
AcDbLine
 10
5361.864205537509
 20
12854.79057144779
 30
0.0
 11
5361.864205537509
 21
12854.97828961841
 31
0.0
  0
LINE
  5
B4
330
48
100
AcDbEntity
  8
0
  6
Continuous
 62
     7
100
AcDbLine
 10
5361.070334773373
 20
12854.79057144779
 30
0.0
 11
5361.864205537509
 21
12854.79057144779
 31
0.0
  0
LINE
  5
B5
330
48
100
AcDbEntity
  8
0
  6
Continuous
 62
     7
100
AcDbLine
 10
5361.070334773373
 20
12854.87061586184
 30
0.0
 11
5361.070334773373
 21
12854.79057144779
 31
0.0
  0
LINE
  5
B6
330
48
100
AcDbEntity
  8
0
  6
Continuous
 62
     7
100
AcDbLine
 10
5360.258066491072
 20
12854.15550657914
 30
0.0
 11
5361.011703430431
 21
12854.15550657914
 31
0.0
  0
LINE
  5
B7
330
48
100
AcDbEntity
  8
0
  6
Continuous
 62
     7
100
AcDbLine
 10
5357.842846654694
 20
12855.67125839398
 30
0.0
 11
5357.842846654694
 21
12853.04586245323
 31
0.0
  0
LINE
  5
B8
330
48
100
AcDbEntity
  8
0
  6
Continuous
 62
     7
100
AcDbLine
 10
5373.694047788596
 20
12855.80777829514
 30
0.0
 11
5357.979366555855
 21
12855.80777829514
 31
0.0
  0
LINE
  5
B9
330
48
100
AcDbEntity
  8
0
  6
Continuous
 62
     7
100
AcDbLine
 10
5373.830567689756
 20
12853.04586245323
 30
0.0
 11
5373.830567689756
 21
12855.67125839398
 31
0.0
  0
LINE
  5
BA
330
48
100
AcDbEntity
  8
0
  6
Continuous
 62
     7
100
AcDbLine
 10
5356.984406024498
 20
12852.95552812607
 30
0.0
 11
5356.984406024498
 21
12855.76159272114
 31
0.0
  0
LINE
  5
BB
330
48
100
AcDbEntity
  8
0
  6
Continuous
 62
     7
100
AcDbLine
 10
5374.079774042953
 20
12852.48474476221
 30
0.0
 11
5357.593640301499
 21
12852.48474476221
 31
0.0
  0
LINE
  5
BC
330
48
100
AcDbEntity
  8
0
  6
Continuous
 62
     7
100
AcDbLine
 10
5374.689008319952
 20
12855.76159272114
 30
0.0
 11
5374.689008319952
 21
12852.95552812607
 31
0.0
  0
LINE
  5
BD
330
48
100
AcDbEntity
  8
0
  6
Continuous
 62
     7
100
AcDbLine
 10
5357.593640301499
 20
12856.23237608501
 30
0.0
 11
5374.079774042953
 21
12856.23237608501
 31
0.0
  0
LINE
  5
BE
330
48
100
AcDbEntity
  8
0
  6
Continuous
 62
     7
100
AcDbLine
 10
5373.694047788596
 20
12852.90934255207
 30
0.0
 11
5357.979366555855
 21
12852.90934255207
 31
0.0
  0
LINE
  5
BF
330
48
100
AcDbEntity
  8
0
  6
Continuous
 62
     7
100
AcDbLine
 10
5359.65670174916
 20
12855.00802191233
 30
0.0
 11
5360.932029347445
 21
12855.00802191233
 31
0.0
  0
LINE
  5
C0
330
48
100
AcDbEntity
  8
0
  6
Continuous
 62
     7
100
AcDbLine
 10
5359.65670174916
 20
12853.74871250258
 30
0.0
 11
5360.935044900387
 21
12853.74871250258
 31
0.0
  0
LINE
  5
C1
330
48
100
AcDbEntity
  8
0
  6
Continuous
 62
     7
100
AcDbLine
 10
5359.514494620959
 20
12854.87003391303
 30
0.0
 11
5359.514494620959
 21
12853.88670050189
 31
0.0
  0
LINE
  5
C2
330
48
100
AcDbEntity
  8
0
  6
Continuous
 62
     7
100
AcDbLine
 10
5358.670364641128
 20
12854.97828961841
 30
0.0
 11
5358.670364641128
 21
12853.7388312288
 31
0.0
  0
LINE
  5
C3
330
48
100
AcDbEntity
  8
0
  6
Continuous
 62
     7
100
AcDbLine
 10
5359.278765673235
 20
12853.26935724977
 30
0.0
 11
5361.255804505402
 21
12853.26935724977
 31
0.0
  0
LINE
  5
C4
330
48
100
AcDbEntity
  8
0
  6
Continuous
 62
     7
100
AcDbLine
 10
5363.218215260577
 20
12853.74648383965
 30
0.0
 11
5363.218215260577
 21
12854.14916335312
 31
0.0
  0
LINE
  5
C5
330
48
100
AcDbEntity
  8
0
  6
Continuous
 62
     7
100
AcDbLine
 10
5370.630722139709
 20
12854.60487156541
 30
0.0
 11
5370.630722139709
 21
12855.0029219406
 31
0.0
  0
LINE
  5
C6
330
48
100
AcDbEntity
  8
0
  6
Continuous
 62
     7
100
AcDbLine
 10
5373.003036477214
 20
12854.54852833939
 30
0.0
 11
5370.688427654995
 21
12854.54852833939
 31
0.0
  0
LINE
  5
C7
330
48
100
AcDbEntity
  8
0
  6
Continuous
 62
     7
100
AcDbLine
 10
5373.003036477214
 20
12854.20550657914
 30
0.0
 11
5373.003036477214
 21
12854.54852833939
 31
0.0
  0
LINE
  5
C8
330
48
100
AcDbEntity
  8
0
  6
Continuous
 62
     7
100
AcDbLine
 10
5370.688427654995
 20
12854.20550657914
 30
0.0
 11
5373.003036477214
 21
12854.20550657914
 31
0.0
  0
LINE
  5
C9
330
48
100
AcDbEntity
  8
0
  6
Continuous
 62
     7
100
AcDbLine
 10
5373.003036477214
 20
12853.69014061363
 30
0.0
 11
5370.688427654995
 21
12853.69014061363
 31
0.0
  0
LINE
  5
CA
330
48
100
AcDbEntity
  8
0
  6
Continuous
 62
     7
100
AcDbLine
 10
5373.003036477214
 20
12853.27399961416
 30
0.0
 11
5373.003036477214
 21
12853.69014061363
 31
0.0
  0
LINE
  5
CB
330
48
100
AcDbEntity
  8
0
  6
Continuous
 62
     7
100
AcDbLine
 10
5369.923813044838
 20
12853.27399961416
 30
0.0
 11
5373.003036477214
 21
12853.27399961416
 31
0.0
  0
LINE
  5
CC
330
48
100
AcDbEntity
  8
0
  6
Continuous
 62
     7
100
AcDbLine
 10
5369.786129246048
 20
12855.31007979866
 30
0.0
 11
5369.786129246048
 21
12853.41168341295
 31
0.0
  0
LINE
  5
CD
330
48
100
AcDbEntity
  8
0
  6
Continuous
 62
     7
100
AcDbLine
 10
5373.003036477214
 20
12855.44776359745
 30
0.0
 11
5369.923813044838
 21
12855.44776359745
 31
0.0
  0
LINE
  5
CE
330
48
100
AcDbEntity
  8
0
  6
Continuous
 62
     7
100
AcDbLine
 10
5373.003036477214
 20
12855.05926516661
 30
0.0
 11
5373.003036477214
 21
12855.44776359745
 31
0.0
  0
LINE
  5
CF
330
48
100
AcDbEntity
  8
0
  6
Continuous
 62
     7
100
AcDbLine
 10
5370.688427654995
 20
12855.05926516661
 30
0.0
 11
5373.003036477214
 21
12855.05926516661
 31
0.0
  0
LINE
  5
D0
330
48
100
AcDbEntity
  8
0
  6
Continuous
 62
     7
100
AcDbLine
 10
5370.630722139709
 20
12853.74648383965
 30
0.0
 11
5370.630722139709
 21
12854.14916335312
 31
0.0
  0
LINE
  5
D1
330
48
100
AcDbEntity
  8
0
  6
Continuous
 62
     7
100
AcDbLine
 10
5369.306365353904
 20
12855.00955646888
 30
0.0
 11
5369.306365353904
 21
12855.30857202219
 31
0.0
  0
LINE
  5
D2
330
48
100
AcDbEntity
  8
0
  6
Continuous
 62
     1
100
AcDbLine
 10
5396.011171247676
 20
12854.20289474917
 30
0.0
 11
5396.011171247676
 21
12846.22655648776
 31
0.0
  0
LINE
  5
D3
330
48
100
AcDbEntity
  8
0
  6
Continuous
 62
     1
100
AcDbLine
 10
5308.011171247676
 20
12815.22655648776
 30
0.0
 11
5308.011171247676
 21
12858.22655648776
 31
0.0
  0
LINE
  5
D4
330
48
100
AcDbEntity
  8
0
  6
Continuous
 62
     1
100
AcDbLine
 10
5432.011171247676
 20
12815.22655648776
 30
0.0
 11
5432.011171247676
 21
12820.72655648776
 31
0.0
  0
LINE
  5
D5
330
48
100
AcDbEntity
  8
0
  6
Continuous
 62
     1
100
AcDbLine
 10
5355.011171247676
 20
12858.22655648776
 30
0.0
 11
5355.011171247676
 21
12846.22655648776
 31
0.0
  0
LINE
  5
D6
330
48
100
AcDbEntity
  8
0
  6
Continuous
 62
     1
100
AcDbLine
 10
5487.011171247676
 20
12828.22655648776
 30
0.0
 11
5432.011171247676
 21
12828.22655648776
 31
0.0
  0
LINE
  5
D7
330
48
100
AcDbEntity
  8
0
  6
Continuous
 62
     1
100
AcDbLine
 10
5396.011171247676
 20
12858.22655648776
 30
0.0
 11
5396.011171247676
 21
12854.20289474917
 31
0.0
  0
LINE
  5
D8
330
48
100
AcDbEntity
  8
0
  6
Continuous
 62
     1
100
AcDbLine
 10
5396.011171247676
 20
12841.22655648776
 30
0.0
 11
5405.011171247676
 21
12841.22655648776
 31
0.0
  0
LINE
  5
D9
330
48
100
AcDbEntity
  8
0
  6
Continuous
 62
     1
100
AcDbLine
 10
5396.011171247676
 20
12858.22655648776
 30
0.0
 11
5308.011171247676
 21
12858.22655648776
 31
0.0
  0
LINE
  5
DA
330
48
100
AcDbEntity
  8
0
  6
Continuous
 62
     3
100
AcDbLine
 10
5355.011171247676
 20
12821.72655648776
 30
0.0
 11
5405.011171247676
 21
12821.72655648776
 31
0.0
  0
LINE
  5
DB
330
48
100
AcDbEntity
  8
0
  6
Continuous
 62
     1
100
AcDbLine
 10
5355.011171247676
 20
12845.22655648776
 30
0.0
 11
5355.011171247676
 21
12845.32714536673
 31
0.0
  0
LINE
  5
DC
330
48
100
AcDbEntity
  8
0
  6
Continuous
 62
     1
100
AcDbLine
 10
5396.011171247676
 20
12858.22655648776
 30
0.0
 11
5487.011171247676
 21
12858.22655648776
 31
0.0
  0
LINE
  5
DD
330
48
100
AcDbEntity
  8
0
  6
Continuous
 62
     2
100
AcDbLine
 10
5487.011171247676
 20
12858.22655648776
 30
0.0
 11
5487.011171247676
 21
12815.22655648776
 31
0.0
  0
LINE
  5
DE
330
48
100
AcDbEntity
  8
0
  6
Continuous
 62
     1
100
AcDbLine
 10
5432.011171247676
 20
12828.19322306776
 30
0.0
 11
5405.011171247676
 21
12828.19322306776
 31
0.0
  0
LINE
  5
DF
330
48
100
AcDbEntity
  8
0
  6
Continuous
 62
     3
100
AcDbLine
 10
5390.011171247676
 20
12828.22655648776
 30
0.0
 11
5390.011171247676
 21
12841.22656272069
 31
0.0
  0
LINE
  5
E0
330
48
100
AcDbEntity
  8
0
  6
Continuous
 62
     3
100
AcDbLine
 10
5373.011171247676
 20
12828.22655648776
 30
0.0
 11
5373.011171247676
 21
12841.22655648776
 31
0.0
  0
LINE
  5
E1
330
48
100
AcDbEntity
  8
0
  6
Continuous
 62
     3
100
AcDbLine
 10
5355.011171247676
 20
12836.82655648776
 30
0.0
 11
5405.011171247676
 21
12836.82655648776
 31
0.0
  0
LINE
  5
E2
330
48
100
AcDbEntity
  8
0
  6
Continuous
 62
     3
100
AcDbLine
 10
5405.011171247676
 20
12832.52655648776
 30
0.0
 11
5355.011171247676
 21
12832.52655648776
 31
0.0
  0
LINE
  5
E3
330
48
100
AcDbEntity
  8
0
  6
Continuous
 62
     3
100
AcDbLine
 10
5341.011171247676
 20
12815.22655648776
 30
0.0
 11
5341.011171247676
 21
12858.22655648776
 31
0.0
  0
LINE
  5
E4
330
48
100
AcDbEntity
  8
0
  6
Continuous
 62
     3
100
AcDbLine
 10
5333.011171247676
 20
12815.22655648776
 30
0.0
 11
5333.011171247676
 21
12858.22655648776
 31
0.0
  0
LINE
  5
E5
330
48
100
AcDbEntity
  8
0
  6
Continuous
 62
     3
100
AcDbLine
 10
5321.011171247676
 20
12815.22655648776
 30
0.0
 11
5321.011171247676
 21
12858.22655648776
 31
0.0
  0
LINE
  5
E6
330
48
100
AcDbEntity
  8
0
  6
Continuous
 62
     3
100
AcDbLine
 10
5308.011171247676
 20
12853.92655348776
 30
0.0
 11
5355.011171247676
 21
12853.92655348776
 31
0.0
  0
LINE
  5
E7
330
48
100
AcDbEntity
  8
0
  6
Continuous
 62
     3
100
AcDbLine
 10
5355.011171247676
 20
12849.62655048776
 30
0.0
 11
5308.011171247676
 21
12849.62655048776
 31
0.0
  0
LINE
  5
E8
330
48
100
AcDbEntity
  8
0
  6
Continuous
 62
     3
100
AcDbLine
 10
5308.011171247676
 20
12845.32654748776
 30
0.0
 11
5355.011171247676
 21
12845.32654748776
 31
0.0
  0
LINE
  5
E9
330
48
100
AcDbEntity
  8
0
  6
Continuous
 62
     3
100
AcDbLine
 10
5355.011171247676
 20
12841.02654448776
 30
0.0
 11
5308.011171247676
 21
12841.02654448776
 31
0.0
  0
LINE
  5
EA
330
48
100
AcDbEntity
  8
0
  6
Continuous
 62
     3
100
AcDbLine
 10
5308.011171247676
 20
12836.72655648776
 30
0.0
 11
5355.011171247676
 21
12836.72655648776
 31
0.0
  0
LINE
  5
EB
330
48
100
AcDbEntity
  8
0
  6
Continuous
 62
     3
100
AcDbLine
 10
5355.011171247676
 20
12832.42655348776
 30
0.0
 11
5308.011171247676
 21
12832.42655348776
 31
0.0
  0
LINE
  5
EC
330
48
100
AcDbEntity
  8
0
  6
Continuous
 62
     3
100
AcDbLine
 10
5308.011171247676
 20
12828.12655048776
 30
0.0
 11
5355.011171247676
 21
12828.12655048776
 31
0.0
  0
LINE
  5
ED
330
48
100
AcDbEntity
  8
0
  6
Continuous
 62
     3
100
AcDbLine
 10
5355.011171247676
 20
12823.82654748776
 30
0.0
 11
5308.011171247676
 21
12823.82654748776
 31
0.0
  0
LINE
  5
EE
330
48
100
AcDbEntity
  8
0
  6
Continuous
 62
     4
100
AcDbLine
 10
5308.011171247676
 20
12819.52655948776
 30
0.0
 11
5355.011171247676
 21
12819.52655948776
 31
0.0
  0
LINE
  5
EF
330
48
100
AcDbEntity
  8
0
  6
Continuous
 62
     2
100
AcDbLine
 10
5487.011171247676
 20
12815.22655648776
 30
0.0
 11
5308.011171247676
 21
12815.22655648776
 31
0.0
  0
LINE
  5
F0
330
48
100
AcDbEntity
  8
0
  6
Continuous
 62
     1
100
AcDbLine
 10
5355.011171247676
 20
12846.22655648776
 30
0.0
 11
5396.011171247676
 21
12846.22655648776
 31
0.0
  0
LINE
  5
F1
330
48
100
AcDbEntity
  8
0
  6
Continuous
 62
     1
100
AcDbLine
 10
5396.011171247676
 20
12846.22655648776
 30
0.0
 11
5396.011171247676
 21
12841.22655648776
 31
0.0
  0
LINE
  5
F2
330
48
100
AcDbEntity
  8
0
  6
Continuous
 62
     1
100
AcDbLine
 10
5355.011171247676
 20
12846.22655648776
 30
0.0
 11
5355.011171247676
 21
12821.09322315301
 31
0.0
  0
LINE
  5
F3
330
48
100
AcDbEntity
  8
1
  6
Continuous
 62
     1
100
AcDbLine
 10
5405.011171247676
 20
12820.72655648776
 30
0.0
 11
5432.011171247676
 21
12820.72655648776
 31
0.0
  0
LINE
  5
F4
330
48
100
AcDbEntity
  8
0
  6
Continuous
 62
     1
100
AcDbLine
 10
5405.011171247676
 20
12820.72655648776
 30
0.0
 11
5405.011171247676
 21
12815.22655648776
 31
0.0
  0
LINE
  5
F5
330
48
100
AcDbEntity
  8
0
  6
Continuous
 62
     1
100
AcDbLine
 10
5432.011171247676
 20
12820.72655648776
 30
0.0
 11
5432.011171247676
 21
12841.22655648776
 31
0.0
  0
LINE
  5
F6
330
48
100
AcDbEntity
  8
1
  6
Continuous
 62
     4
100
AcDbLine
 10
5410.044472319764
 20
12818.97655648776
 30
0.0
 11
5417.044472319764
 21
12819.97655648776
 31
0.0
  0
LINE
  5
F7
330
48
100
AcDbEntity
  8
1
  6
Continuous
 62
     4
100
AcDbLine
 10
5417.044472319764
 20
12819.97655648776
 30
0.0
 11
5417.044472319764
 21
12815.97655648776
 31
0.0
  0
LINE
  5
F8
330
48
100
AcDbEntity
  8
1
  6
Continuous
 62
     4
100
AcDbLine
 10
5417.044472319764
 20
12815.97655648776
 30
0.0
 11
5410.044472319764
 21
12816.97655648776
 31
0.0
  0
LINE
  5
F9
330
48
100
AcDbEntity
  8
1
  6
Continuous
 62
     4
100
AcDbLine
 10
5410.044472319764
 20
12816.97655648776
 30
0.0
 11
5410.044472319764
 21
12818.97655648776
 31
0.0
  0
LINE
  5
FA
330
48
100
AcDbEntity
  8
1
  6
DOT_CENTER
 62
     7
100
AcDbLine
 10
5409.331630214057
 20
12817.97655648776
 30
0.0
 11
5417.729281382985
 21
12817.97655648776
 31
0.0
  0
LINE
  5
FB
330
48
100
AcDbEntity
  8
1
  6
DOT_CENTER
 62
     7
100
AcDbLine
 10
5421.437335145888
 20
12817.97655648776
 30
0.0
 11
5426.590439272275
 21
12817.97655648776
 31
0.0
  0
LINE
  5
FC
330
48
100
AcDbEntity
  8
1
  6
DOT_CENTER
 62
     7
100
AcDbLine
 10
5423.945724456087
 20
12815.55405400087
 30
0.0
 11
5423.945724456087
 21
12820.43450711528
 31
0.0
  0
LINE
  5
FD
330
48
100
AcDbEntity
  8
0
  6
Continuous
 62
     1
100
AcDbLine
 10
5308.011171247676
 20
12815.22655648776
 30
0.0
 11
5308.011171247676
 21
12858.22655648776
 31
0.0
  0
ARC
  5
FE
330
48
100
AcDbEntity
  8
0
  6
Continuous
 62
     7
100
AcDbCircle
 10
5357.979366555855
 20
12855.67125839398
 30
0.0
 40
0.1365199011597724
100
AcDbArc
 50
90.0
 51
180.0
  0
ARC
  5
FF
330
48
100
AcDbEntity
  8
0
  6
Continuous
 62
     7
100
AcDbCircle
 10
5357.979366555855
 20
12853.04586245323
 30
0.0
 40
0.1365199011615914
100
AcDbArc
 50
180.0
 51
270.0
  0
ARC
  5
100
330
48
100
AcDbEntity
  8
0
  6
Continuous
 62
     7
100
AcDbCircle
 10
5373.694047788596
 20
12855.67125839398
 30
0.0
 40
0.1365199011597724
100
AcDbArc
 50
0.0
 51
90.0
  0
ARC
  5
101
330
48
100
AcDbEntity
  8
0
  6
Continuous
 62
     7
100
AcDbCircle
 10
5373.694047788596
 20
12853.04586245323
 30
0.0
 40
0.1365199011597724
100
AcDbArc
 50
270.0
 51
0.0
  0
ARC
  5
102
330
48
100
AcDbEntity
  8
0
  6
Continuous
 62
     7
100
AcDbCircle
 10
5361.011703430431
 20
12854.09602638884
 30
0.0
 40
0.0594801903022484
100
AcDbArc
 50
1.31237393253565
 51
90.0
  0
ARC
  5
103
330
48
100
AcDbEntity
  8
0
  6
Continuous
 62
     7
100
AcDbCircle
 10
5363.275114263388
 20
12854.60542431101
 30
0.0
 40
0.0569016875718707
100
AcDbArc
 50
180.5565825804758
 51
270.8121254433028
  0
ARC
  5
104
330
48
100
AcDbEntity
  8
0
  6
Continuous
 62
     7
100
AcDbCircle
 10
5363.275114263388
 20
12855.00236919499
 30
0.0
 40
0.0569016875758071
100
AcDbArc
 50
89.18787455669714
 51
179.4434174085352
  0
ARC
  5
105
330
48
100
AcDbEntity
  8
0
  6
Continuous
 62
     7
100
AcDbCircle
 10
5363.275114263388
 20
12854.14861060752
 30
0.0
 40
0.0569016875739883
100
AcDbArc
 50
89.18787455667118
 51
179.4434174195242
  0
ARC
  5
106
330
48
100
AcDbEntity
  8
0
  6
Continuous
 62
     7
100
AcDbCircle
 10
5363.275114263388
 20
12853.74703658525
 30
0.0
 40
0.0569016875718707
100
AcDbArc
 50
180.5565825804758
 51
270.8121254433028
  0
ARC
  5
107
330
48
100
AcDbEntity
  8
0
  6
Continuous
 62
     7
100
AcDbCircle
 10
5370.687621142521
 20
12854.60542431101
 30
0.0
 40
0.0569016875727801
100
AcDbArc
 50
180.556582580467
 51
270.8121254442186
  0
ARC
  5
108
330
48
100
AcDbEntity
  8
0
  6
Continuous
 62
     7
100
AcDbCircle
 10
5370.687621142521
 20
12855.00236919499
 30
0.0
 40
0.05690168757582
100
AcDbArc
 50
89.18787455578143
 51
179.4434174085441
  0
ARC
  5
109
330
48
100
AcDbEntity
  8
0
  6
Continuous
 62
     7
100
AcDbCircle
 10
5370.687621142521
 20
12854.14861060752
 30
0.0
 40
0.0569016875740012
100
AcDbArc
 50
89.18787455575549
 51
179.4434174195331
  0
ARC
  5
10A
330
48
100
AcDbEntity
  8
0
  6
Continuous
 62
     7
100
AcDbCircle
 10
5370.687621142521
 20
12853.74703658525
 30
0.0
 40
0.0569016875727801
100
AcDbArc
 50
180.556582580467
 51
270.8121254442186
  0
ARC
  5
10B
330
48
100
AcDbEntity
  8
0
  6
Continuous
 62
     7
100
AcDbCircle
 10
5366.169780285087
 20
12855.39007130827
 30
0.0
 40
0.057692289181432
100
AcDbArc
 50
90.0
 51
180.0
  0
ARC
  5
10C
330
48
100
AcDbEntity
  8
0
  6
Continuous
 62
     7
100
AcDbCircle
 10
5366.169780285087
 20
12855.11695745579
 30
0.0
 40
0.057692289175975
100
AcDbArc
 50
180.0
 51
270.0
  0
ARC
  5
10D
330
48
100
AcDbEntity
  8
0
  6
Continuous
 62
     7
100
AcDbCircle
 10
5366.169707541485
 20
12853.33098430649
 30
0.0
 40
0.0576195914929117
100
AcDbArc
 50
180.0723348237758
 51
270.0723348147228
  0
ARC
  5
10E
330
48
100
AcDbEntity
  8
0
  6
Continuous
 62
     7
100
AcDbCircle
 10
5369.24874580833
 20
12853.33098430649
 30
0.0
 40
0.0576195915001761
100
AcDbArc
 50
269.9276651852772
 51
359.9276651762242
  0
ARC
  5
10F
330
48
100
AcDbEntity
  8
0
  6
Continuous
 62
     7
100
AcDbCircle
 10
5369.24874580833
 20
12853.63252106806
 30
0.0
 40
0.0576195914928979
100
AcDbArc
 50
0.07233481292319
 51
90.07233481473881
  0
CIRCLE
  5
110
330
48
100
AcDbEntity
  8
1
  6
Continuous
 62
     4
100
AcDbCircle
 10
5423.945724456087
 20
12817.97655648776
 30
0.0
 40
1.0
  0
CIRCLE
  5
111
330
48
100
AcDbEntity
  8
1
  6
Continuous
 62
     4
100
AcDbCircle
 10
5423.945724456087
 20
12817.97655648776
 30
0.0
 40
2.0
  0
SPLINE
  5
112
330
48
100
AcDbEntity
  8
0
  6
Continuous
 62
     7
100
AcDbSpline
210
0.0
220
0.0
230
1.0
 70
     8
 71
     3
 72
    13
 73
     9
 74
     7
 42
0.0000000001
 43
0.0000000001
 44
0.00000001
 40
0.0
 40
0.0
 40
0.0
 40
0.0
 40
0.160194710955826
 40
0.3210951627360139
 40
0.4607710778838256
 40
0.6002079329845049
 40
0.7244156662367711
 40
0.8468166043927735
 40
0.8468166043927735
 40
0.8468166043927735
 40
0.8468166043927735
 10
5357.593640301499
 20
12856.23237608501
 30
0.0
 10
5357.540136061841
 20
12856.22913511885
 30
0.0
 10
5357.432891868586
 20
12856.22263890839
 30
0.0
 10
5357.285993970821
 20
12856.17184348994
 30
0.0
 10
5357.159034007782
 20
12856.09608352778
 30
0.0
 10
5357.064164891667
 20
12855.99910279714
 30
0.0
 10
5356.998729653426
 20
12855.88489599573
 30
0.0
 10
5356.989157189706
 20
12855.80249256791
 30
0.0
 10
5356.984406024498
 20
12855.76159272114
 30
0.0
 11
5357.593640301499
 21
12856.23237608501
 31
0.0
 11
5357.434341283021
 21
12856.21545958034
 31
0.0
 11
5357.281834772543
 21
12856.16416903887
 31
0.0
 11
5357.16269173716
 21
12856.09126980436
 31
0.0
 11
5357.065429170644
 21
12855.99135669353
 31
0.0
 11
5357.006598901964
 21
12855.88196491831
 31
0.0
 11
5356.984406024498
 21
12855.76159272114
 31
0.0
  0
SPLINE
  5
113
330
48
100
AcDbEntity
  8
0
  6
Continuous
 62
     7
100
AcDbSpline
210
0.0
220
0.0
230
1.0
 70
     8
 71
     3
 72
    13
 73
     9
 74
     7
 42
0.0000000001
 43
0.0000000001
 44
0.00000001
 40
0.0
 40
0.0
 40
0.0
 40
0.0
 40
0.160194710955826
 40
0.3210951627360139
 40
0.4607710778819268
 40
0.6002079329839096
 40
0.7244156662345738
 40
0.846816604381632
 40
0.846816604381632
 40
0.846816604381632
 40
0.846816604381632
 10
5357.593640301499
 20
12852.48474476221
 30
0.0
 10
5357.54013606184
 20
12852.48798572837
 30
0.0
 10
5357.432891868585
 20
12852.49448193883
 30
0.0
 10
5357.285993970825
 20
12852.54527735729
 30
0.0
 10
5357.15903400778
 20
12852.62103731943
 30
0.0
 10
5357.06416489167
 20
12852.71801805009
 30
0.0
 10
5356.998729653427
 20
12852.83222485149
 30
0.0
 10
5356.989157189706
 20
12852.9146282793
 30
0.0
 10
5356.984406024498
 20
12852.95552812607
 30
0.0
 11
5357.593640301499
 21
12852.48474476221
 31
0.0
 11
5357.434341283021
 21
12852.50166126688
 31
0.0
 11
5357.281834772543
 21
12852.55295180835
 31
0.0
 11
5357.16269173716
 21
12852.62585104286
 31
0.0
 11
5357.065429170644
 21
12852.72576415369
 31
0.0
 11
5357.006598901964
 21
12852.83515592891
 31
0.0
 11
5356.984406024498
 21
12852.95552812607
 31
0.0
  0
SPLINE
  5
114
330
48
100
AcDbEntity
  8
0
  6
Continuous
 62
     7
100
AcDbSpline
210
0.0
220
0.0
230
1.0
 70
     8
 71
     3
 72
    13
 73
     9
 74
     7
 42
0.0000000001
 43
0.0000000001
 44
0.00000001
 40
0.0
 40
0.0
 40
0.0
 40
0.0
 40
0.160194710955826
 40
0.3210951627351519
 40
0.4607710778795133
 40
0.6002079329827649
 40
0.7244156662325675
 40
0.8468166043796257
 40
0.8468166043796257
 40
0.8468166043796257
 40
0.8468166043796257
 10
5374.079774042953
 20
12852.48474476221
 30
0.0
 10
5374.133278282612
 20
12852.48798572837
 30
0.0
 10
5374.240522475868
 20
12852.49448193884
 30
0.0
 10
5374.387420373628
 20
12852.54527735729
 30
0.0
 10
5374.514380336671
 20
12852.62103731943
 30
0.0
 10
5374.609249452783
 20
12852.71801805008
 30
0.0
 10
5374.674684691023
 20
12852.83222485149
 30
0.0
 10
5374.684257154744
 20
12852.91462827931
 30
0.0
 10
5374.689008319952
 20
12852.95552812607
 30
0.0
 11
5374.079774042953
 21
12852.48474476221
 31
0.0
 11
5374.239073061432
 21
12852.50166126688
 31
0.0
 11
5374.391579571909
 21
12852.55295180835
 31
0.0
 11
5374.510722607291
 21
12852.62585104286
 31
0.0
 11
5374.607985173808
 21
12852.72576415369
 31
0.0
 11
5374.666815442486
 21
12852.83515592891
 31
0.0
 11
5374.689008319952
 21
12852.95552812607
 31
0.0
  0
SPLINE
  5
115
330
48
100
AcDbEntity
  8
0
  6
Continuous
 62
     7
100
AcDbSpline
210
0.0
220
0.0
230
1.0
 70
     8
 71
     3
 72
    13
 73
     9
 74
     7
 42
0.0000000001
 43
0.0000000001
 44
0.00000001
 40
0.0
 40
0.0
 40
0.0
 40
0.0
 40
0.160194710955826
 40
0.3210951627351519
 40
0.460771077881412
 40
0.6002079329833602
 40
0.7244156662347648
 40
0.8468166043907672
 40
0.8468166043907672
 40
0.8468166043907672
 40
0.8468166043907672
 10
5374.079774042953
 20
12856.23237608501
 30
0.0
 10
5374.133278282612
 20
12856.22913511885
 30
0.0
 10
5374.240522475868
 20
12856.22263890839
 30
0.0
 10
5374.387420373629
 20
12856.17184348993
 30
0.0
 10
5374.514380336668
 20
12856.09608352778
 30
0.0
 10
5374.609249452787
 20
12855.99910279714
 30
0.0
 10
5374.674684691024
 20
12855.88489599572
 30
0.0
 10
5374.684257154744
 20
12855.80249256791
 30
0.0
 10
5374.689008319952
 20
12855.76159272114
 30
0.0
 11
5374.079774042953
 21
12856.23237608501
 31
0.0
 11
5374.239073061432
 21
12856.21545958034
 31
0.0
 11
5374.391579571909
 21
12856.16416903887
 31
0.0
 11
5374.510722607291
 21
12856.09126980436
 31
0.0
 11
5374.607985173808
 21
12855.99135669353
 31
0.0
 11
5374.666815442486
 21
12855.88196491831
 31
0.0
 11
5374.689008319952
 21
12855.76159272114
 31
0.0
  0
SPLINE
  5
116
330
48
100
AcDbEntity
  8
0
  6
Continuous
 62
     7
100
AcDbSpline
210
0.0
220
0.0
230
1.0
 70
     8
 71
     3
 72
    13
 73
     9
 74
     7
 42
0.0000000001
 43
0.0000000001
 44
0.00000001
 40
0.0
 40
0.0
 40
0.0
 40
0.0
 40
0.1486423989483101
 40
0.2982382234593326
 40
0.4390496453763764
 40
0.5790300758279843
 40
0.7141201510122147
 40
0.8476890380289669
 40
0.8476890380289669
 40
0.8476890380289669
 40
0.8476890380289669
 10
5359.278765673235
 20
12855.44776359745
 30
0.0
 10
5359.229132887452
 20
12855.44491495008
 30
0.0
 10
5359.129548960107
 20
12855.43919938347
 30
0.0
 10
5358.988744331719
 20
12855.39469714488
 30
0.0
 10
5358.860685651149
 20
12855.32777250478
 30
0.0
 10
5358.757411683417
 20
12855.23303995226
 30
0.0
 10
5358.686009115319
 20
12855.11272326122
 30
0.0
 10
5358.675559743877
 20
12855.02293136085
 30
0.0
 10
5358.670364641128
 20
12854.97828961841
 30
0.0
 11
5359.278765673235
 21
12855.44776359745
 31
0.0
 11
5359.130845524688
 21
12855.43312828335
 31
0.0
 11
5358.98771190992
 21
12855.38963484666
 31
0.0
 11
5358.863913838041
 21
12855.32253869222
 31
0.0
 11
5358.761439630413
 21
12855.22717854498
 31
0.0
 11
5358.694970442141
 21
12855.10957252718
 31
0.0
 11
5358.670364641128
 21
12854.97828961841
 31
0.0
  0
SPLINE
  5
117
330
48
100
AcDbEntity
  8
0
  6
Continuous
 62
     7
100
AcDbSpline
210
0.0
220
0.0
230
1.0
 70
     8
 71
     3
 72
    13
 73
     9
 74
     7
 42
0.0000000001
 43
0.0000000001
 44
0.00000001
 40
0.0
 40
0.0
 40
0.0
 40
0.0
 40
0.1486423989483101
 40
0.2982382234602028
 40
0.4390496453780461
 40
0.5790300758289881
 40
0.714120151012771
 40
0.8476890380295232
 40
0.8476890380295232
 40
0.8476890380295232
 40
0.8476890380295232
 10
5361.255804505402
 20
12855.44776359745
 30
0.0
 10
5361.305437291187
 20
12855.44491495008
 30
0.0
 10
5361.405021218532
 20
12855.43919938348
 30
0.0
 10
5361.545825846916
 20
12855.39469714488
 30
0.0
 10
5361.673884527489
 20
12855.32777250479
 30
0.0
 10
5361.777158495222
 20
12855.23303995225
 30
0.0
 10
5361.848561063318
 20
12855.11272326122
 30
0.0
 10
5361.85901043476
 20
12855.02293136085
 30
0.0
 10
5361.864205537509
 20
12854.97828961841
 30
0.0
 11
5361.255804505402
 21
12855.44776359745
 31
0.0
 11
5361.403724653949
 21
12855.43312828335
 31
0.0
 11
5361.546858268718
 21
12855.38963484666
 31
0.0
 11
5361.670656340598
 21
12855.32253869222
 31
0.0
 11
5361.773130548225
 21
12855.22717854498
 31
0.0
 11
5361.839599736496
 21
12855.10957252718
 31
0.0
 11
5361.864205537509
 21
12854.97828961841
 31
0.0
  0
SPLINE
  5
118
330
48
100
AcDbEntity
  8
0
  6
Continuous
 62
     7
100
AcDbSpline
210
0.0
220
0.0
230
1.0
 70
     8
 71
     3
 72
    13
 73
     9
 74
     7
 42
0.0000000001
 43
0.0000000001
 44
0.00000001
 40
0.0
 40
0.0
 40
0.0
 40
0.0
 40
0.1486423989479519
 40
0.2982382234593157
 40
0.4390496453780258
 40
0.5790300758314462
 40
0.7141201510136456
 40
0.8476890380214585
 40
0.8476890380214585
 40
0.8476890380214585
 40
0.8476890380214585
 10
5361.255804505402
 20
12853.26935724977
 30
0.0
 10
5361.305437291185
 20
12853.27220589714
 30
0.0
 10
5361.40502121853
 20
12853.27792146374
 30
0.0
 10
5361.545825846921
 20
12853.32242370233
 30
0.0
 10
5361.673884527488
 20
12853.38934834243
 30
0.0
 10
5361.777158495223
 20
12853.48408089497
 30
0.0
 10
5361.848561063316
 20
12853.604397586
 30
0.0
 10
5361.85901043476
 20
12853.69418948636
 30
0.0
 10
5361.864205537509
 20
12853.7388312288
 30
0.0
 11
5361.255804505402
 21
12853.26935724977
 31
0.0
 11
5361.403724653949
 21
12853.28399256387
 31
0.0
 11
5361.546858268718
 21
12853.32748600055
 31
0.0
 11
5361.670656340598
 21
12853.394582155
 31
0.0
 11
5361.773130548225
 21
12853.48994230224
 31
0.0
 11
5361.839599736496
 21
12853.60754832004
 31
0.0
 11
5361.864205537509
 21
12853.7388312288
 31
0.0
  0
SPLINE
  5
119
330
48
100
AcDbEntity
  8
0
  6
Continuous
 62
     7
100
AcDbSpline
210
0.0
220
0.0
230
1.0
 70
     8
 71
     3
 72
    13
 73
     9
 74
     7
 42
0.0000000001
 43
0.0000000001
 44
0.00000001
 40
0.0
 40
0.0
 40
0.0
 40
0.0
 40
0.0328394650078281
 40
0.0655975995956388
 40
0.1022664447861648
 40
0.1389211607524212
 40
0.1782532813525347
 40
0.2177267691545458
 40
0.2177267691545458
 40
0.2177267691545458
 40
0.2177267691545458
 10
5359.65670174916
 20
12855.00802191233
 30
0.0
 10
5359.645718857523
 20
12855.00716175752
 30
0.0
 10
5359.623780274547
 20
12855.00544357816
 30
0.0
 10
5359.592067205495
 20
12854.99168531024
 30
0.0
 10
5359.56254770351
 20
12854.97191277095
 30
0.0
 10
5359.536438231298
 20
12854.94451638509
 30
0.0
 10
5359.517967333422
 20
12854.90964078661
 30
0.0
 10
5359.51565357531
 20
12854.8832519836
 30
0.0
 10
5359.514494620959
 20
12854.87003391303
 30
0.0
 11
5359.65670174916
 21
12855.00802191233
 31
0.0
 11
5359.624153217257
 21
12855.0036603148
 31
0.0
 11
5359.593771920666
 21
12854.99140991893
 31
0.0
 11
5359.563396632025
 21
12854.97086859357
 31
0.0
 11
5359.538328070087
 21
12854.94412657784
 31
0.0
 11
5359.520554039566
 21
12854.90903954962
 31
0.0
 11
5359.514494620959
 21
12854.87003391303
 31
0.0
  0
SPLINE
  5
11A
330
48
100
AcDbEntity
  8
0
  6
Continuous
 62
     7
100
AcDbSpline
210
0.0
220
0.0
230
1.0
 70
     8
 71
     3
 72
    13
 73
     9
 74
     7
 42
0.0000000001
 43
0.0000000001
 44
0.00000001
 40
0.0
 40
0.0
 40
0.0
 40
0.0
 40
0.1486423989479519
 40
0.2982382234584455
 40
0.439049645376356
 40
0.5790300758304422
 40
0.714120151013089
 40
0.8476890380209019
 40
0.8476890380209019
 40
0.8476890380209019
 40
0.8476890380209019
 10
5359.278765673235
 20
12853.26935724977
 30
0.0
 10
5359.229132887451
 20
12853.27220589714
 30
0.0
 10
5359.129548960105
 20
12853.27792146374
 30
0.0
 10
5358.988744331721
 20
12853.32242370233
 30
0.0
 10
5358.860685651149
 20
12853.38934834243
 30
0.0
 10
5358.757411683418
 20
12853.48408089496
 30
0.0
 10
5358.686009115318
 20
12853.604397586
 30
0.0
 10
5358.675559743879
 20
12853.69418948636
 30
0.0
 10
5358.670364641128
 20
12853.7388312288
 30
0.0
 11
5359.278765673235
 21
12853.26935724977
 31
0.0
 11
5359.130845524688
 21
12853.28399256387
 31
0.0
 11
5358.98771190992
 21
12853.32748600055
 31
0.0
 11
5358.863913838041
 21
12853.394582155
 31
0.0
 11
5358.761439630413
 21
12853.48994230224
 31
0.0
 11
5358.694970442141
 21
12853.60754832004
 31
0.0
 11
5358.670364641128
 21
12853.7388312288
 31
0.0
  0
SPLINE
  5
11B
330
48
100
AcDbEntity
  8
0
  6
Continuous
 62
     7
100
AcDbSpline
210
0.0
220
0.0
230
1.0
 70
     8
 71
     3
 72
    13
 73
     9
 74
     7
 42
0.0000000001
 43
0.0000000001
 44
0.00000001
 40
0.0
 40
0.0
 40
0.0
 40
0.0
 40
0.0328394650078281
 40
0.0655975995956388
 40
0.1022664447831079
 40
0.1389211607493643
 40
0.1782532813527232
 40
0.2177267691655189
 40
0.2177267691655189
 40
0.2177267691655189
 40
0.2177267691655189
 10
5359.65670174916
 20
12853.74871250258
 30
0.0
 10
5359.645718857522
 20
12853.74957265739
 30
0.0
 10
5359.623780274545
 20
12853.75129083675
 30
0.0
 10
5359.5920672055
 20
12853.76504910467
 30
0.0
 10
5359.562547703507
 20
12853.78482164395
 30
0.0
 10
5359.536438231296
 20
12853.81221802982
 30
0.0
 10
5359.517967333422
 20
12853.8470936283
 30
0.0
 10
5359.515653575309
 20
12853.87348243131
 30
0.0
 10
5359.514494620959
 20
12853.88670050189
 30
0.0
 11
5359.65670174916
 21
12853.74871250258
 31
0.0
 11
5359.624153217257
 21
12853.75307410011
 31
0.0
 11
5359.593771920666
 21
12853.76532449598
 31
0.0
 11
5359.563396632025
 21
12853.78586582134
 31
0.0
 11
5359.538328070087
 21
12853.81260783706
 31
0.0
 11
5359.520554039566
 21
12853.84769486529
 31
0.0
 11
5359.514494620959
 21
12853.88670050189
 31
0.0
  0
SPLINE
  5
11C
330
48
100
AcDbEntity
  8
0
  6
Continuous
 62
     7
100
AcDbSpline
210
0.0
220
0.0
230
1.0
 70
     8
 71
     3
 72
    14
 73
    10
 74
     8
 42
0.0000000001
 43
0.0000000001
 44
0.00000001
 40
0.0
 40
0.0
 40
0.0
 40
0.0
 40
0.0375510748553325
 40
0.0754042334901704
 40
0.1094159352413691
 40
0.1434580761279052
 40
0.1709669697110809
 40
0.2205583987526401
 40
0.3151356117030798
 40
0.3151356117030798
 40
0.3151356117030798
 40
0.3151356117030798
 10
5360.935044900387
 20
12853.74871250258
 30
0.0
 10
5360.94759574009
 20
12853.74945445901
 30
0.0
 10
5360.972798386118
 20
12853.75094434063
 30
0.0
 10
5361.007366990494
 20
12853.76491970759
 30
0.0
 10
5361.034862957268
 20
12853.78754527477
 30
0.0
 10
5361.054441477517
 20
12853.81327934649
 30
0.0
 10
5361.066785646954
 20
12853.84869043154
 30
0.0
 10
5361.069945780465
 20
12853.90622232925
 30
0.0
 10
5361.070683838782
 20
12853.95418878476
 30
0.0
 10
5361.071168018266
 20
12853.98565563924
 30
0.0
 11
5360.935044900387
 21
12853.74871250258
 31
0.0
 11
5360.972355273477
 21
12853.75295741514
 31
0.0
 11
5361.007457849317
 21
12853.76712324685
 31
0.0
 11
5361.033924441497
 21
12853.78848478599
 31
0.0
 11
5361.054013754383
 21
12853.81596726885
 31
0.0
 11
5361.06342357833
 21
12853.84181672609
 31
0.0
 11
5361.068891036412
 21
12853.89110583986
 31
0.0
 11
5361.071168018266
 21
12853.98565563924
 31
0.0
  0
SPLINE
  5
11D
330
48
100
AcDbEntity
  8
0
  6
Continuous
 62
     7
100
AcDbSpline
210
0.0
220
0.0
230
1.0
 70
     8
 71
     3
 72
    13
 73
     9
 74
     7
 42
0.0000000001
 43
0.0000000001
 44
0.00000001
 40
0.0
 40
0.0
 40
0.0
 40
0.0
 40
0.0303249383624868
 40
0.0604417851174034
 40
0.0959479298120027
 40
0.1315593707304434
 40
0.1736623627995341
 40
0.2160932553475784
 40
0.2160932553475784
 40
0.2160932553475784
 40
0.2160932553475784
 10
5361.070334773373
 20
12854.87061586184
 30
0.0
 10
5361.069661594242
 20
12854.88075505057
 30
0.0
 10
5361.068319855376
 20
12854.90096385229
 30
0.0
 10
5361.056618494425
 20
12854.93115456602
 30
0.0
 10
5361.038592542202
 20
12854.95990909896
 30
0.0
 10
5361.011487649826
 20
12854.98674254031
 30
0.0
 10
5360.974527152506
 20
12855.00491598407
 30
0.0
 10
5360.946231867548
 20
12855.00698392911
 30
0.0
 10
5360.932029347445
 20
12855.00802191233
 30
0.0
 11
5361.070334773373
 21
12854.87061586184
 31
0.0
 11
5361.066797474203
 21
12854.90073378676
 31
0.0
 11
5361.056500262948
 21
12854.92903558703
 31
0.0
 11
5361.037523974233
 21
12854.95904536507
 31
0.0
 11
5361.011928274291
 21
12854.98380490603
 31
0.0
 11
5360.974059959846
 21
12855.00220742494
 31
0.0
 11
5360.932029347445
 21
12855.00802191233
 31
0.0
  0
SPLINE
  5
11E
330
48
100
AcDbEntity
  8
0
  6
Continuous
 62
     7
100
AcDbSpline
210
0.0
220
0.0
230
1.0
 70
     8
 71
     3
 72
    13
 73
     9
 74
     7
 42
0.0000000001
 43
0.0000000001
 44
0.00000001
 40
0.0
 40
0.0
 40
0.0
 40
0.0
 40
0.0381152522463403
 40
0.0763355512003863
 40
0.112754876876557
 40
0.1486421571401673
 40
0.1827729054994997
 40
0.2174479487789936
 40
0.2174479487789936
 40
0.2174479487789936
 40
0.2174479487789936
 10
5362.511306165705
 20
12855.44776359745
 30
0.0
 10
5362.498554247264
 20
12855.44679542428
 30
0.0
 10
5362.473015265738
 20
12855.44485640962
 30
0.0
 10
5362.438139932079
 20
12855.42909537212
 30
0.0
 10
5362.408590033352
 20
12855.40673674156
 30
0.0
 10
5362.386286312042
 20
12855.37837832642
 30
0.0
 10
5362.374987686782
 20
12855.34464802093
 30
0.0
 10
5362.374079867337
 20
12855.32166314744
 30
0.0
 10
5362.373622366917
 20
12855.31007979866
 30
0.0
 11
5362.511306165705
 21
12855.44776359745
 31
0.0
 11
5362.473531141095
 21
12855.44268226204
 31
0.0
 11
5362.438403850727
 21
12855.42762023285
 31
0.0
 11
5362.409508178671
 21
12855.40545252166
 31
0.0
 11
5362.387787530077
 21
12855.37688487721
 31
0.0
 11
5362.376650199856
 21
12855.34462239344
 31
0.0
 11
5362.373622366917
 21
12855.31007979866
 31
0.0
  0
SPLINE
  5
11F
330
48
100
AcDbEntity
  8
0
  6
Continuous
 62
     7
100
AcDbSpline
210
0.0
220
0.0
230
1.0
 70
     8
 71
     3
 72
    13
 73
     9
 74
     7
 42
0.0000000001
 43
0.0000000001
 44
0.00000001
 40
0.0
 40
0.0
 40
0.0
 40
0.0
 40
0.0381152522465828
 40
0.0763355512006288
 40
0.1127548768779067
 40
0.1486421571444129
 40
0.1827729054951482
 40
0.2174479487764542
 40
0.2174479487764542
 40
0.2174479487764542
 40
0.2174479487764542
 10
5362.511306165705
 20
12853.27399961416
 30
0.0
 10
5362.498554247265
 20
12853.27496778734
 30
0.0
 10
5362.473015265738
 20
12853.276906802
 30
0.0
 10
5362.438139932076
 20
12853.29266783949
 30
0.0
 10
5362.408590033352
 20
12853.31502647006
 30
0.0
 10
5362.386286312043
 20
12853.34338488519
 30
0.0
 10
5362.374987686782
 20
12853.37711519069
 30
0.0
 10
5362.374079867337
 20
12853.40010006417
 30
0.0
 10
5362.373622366917
 20
12853.41168341295
 30
0.0
 11
5362.511306165705
 21
12853.27399961416
 31
0.0
 11
5362.473531141095
 21
12853.27908094957
 31
0.0
 11
5362.438403850727
 21
12853.29414297877
 31
0.0
 11
5362.409508178671
 21
12853.31631068995
 31
0.0
 11
5362.387787530077
 21
12853.34487833441
 31
0.0
 11
5362.376650199856
 21
12853.37714081817
 31
0.0
 11
5362.373622366917
 21
12853.41168341295
 31
0.0
  0
SPLINE
  5
120
330
48
100
AcDbEntity
  8
0
  6
Continuous
 62
     7
100
AcDbSpline
210
0.0
220
0.0
230
1.0
 70
     8
 71
     3
 72
    13
 73
     9
 74
     7
 42
0.0000000001
 43
0.0000000001
 44
0.00000001
 40
0.0
 40
0.0
 40
0.0
 40
0.0
 40
0.0381152522472416
 40
0.0763355512012877
 40
0.1127548768774584
 40
0.1486421571410687
 40
0.1827729055004011
 40
0.2174479487799744
 40
0.2174479487799744
 40
0.2174479487799744
 40
0.2174479487799744
 10
5369.923813044838
 20
12855.44776359745
 30
0.0
 10
5369.911061126397
 20
12855.44679542428
 30
0.0
 10
5369.885522144871
 20
12855.44485640962
 30
0.0
 10
5369.850646811212
 20
12855.42909537211
 30
0.0
 10
5369.821096912487
 20
12855.40673674156
 30
0.0
 10
5369.798793191172
 20
12855.37837832642
 30
0.0
 10
5369.787494565919
 20
12855.34464802093
 30
0.0
 10
5369.78658674647
 20
12855.32166314745
 30
0.0
 10
5369.786129246048
 20
12855.31007979866
 30
0.0
 11
5369.923813044838
 21
12855.44776359745
 31
0.0
 11
5369.886038020228
 21
12855.44268226204
 31
0.0
 11
5369.85091072986
 21
12855.42762023285
 31
0.0
 11
5369.822015057804
 21
12855.40545252166
 31
0.0
 11
5369.80029440921
 21
12855.37688487721
 31
0.0
 11
5369.789157078989
 21
12855.34462239344
 31
0.0
 11
5369.786129246048
 21
12855.31007979866
 31
0.0
  0
SPLINE
  5
121
330
48
100
AcDbEntity
  8
0
  6
Continuous
 62
     7
100
AcDbSpline
210
0.0
220
0.0
230
1.0
 70
     8
 71
     3
 72
    13
 73
     9
 74
     7
 42
0.0000000001
 43
0.0000000001
 44
0.00000001
 40
0.0
 40
0.0
 40
0.0
 40
0.0
 40
0.0381152522474841
 40
0.0763355512015302
 40
0.1127548768788081
 40
0.1486421571453143
 40
0.1827729054960496
 40
0.217447948777435
 40
0.217447948777435
 40
0.217447948777435
 40
0.217447948777435
 10
5369.923813044838
 20
12853.27399961416
 30
0.0
 10
5369.911061126397
 20
12853.27496778733
 30
0.0
 10
5369.885522144871
 20
12853.276906802
 30
0.0
 10
5369.850646811211
 20
12853.29266783949
 30
0.0
 10
5369.821096912484
 20
12853.31502647006
 30
0.0
 10
5369.798793191177
 20
12853.34338488519
 30
0.0
 10
5369.787494565914
 20
12853.37711519069
 30
0.0
 10
5369.786586746469
 20
12853.40010006417
 30
0.0
 10
5369.786129246048
 20
12853.41168341295
 30
0.0
 11
5369.923813044838
 21
12853.27399961416
 31
0.0
 11
5369.886038020228
 21
12853.27908094957
 31
0.0
 11
5369.85091072986
 21
12853.29414297877
 31
0.0
 11
5369.822015057804
 21
12853.31631068995
 31
0.0
 11
5369.80029440921
 21
12853.34487833441
 31
0.0
 11
5369.789157078989
 21
12853.37714081817
 31
0.0
 11
5369.786129246048
 21
12853.41168341295
 31
0.0
  0
SPLINE
  5
122
330
48
100
AcDbEntity
  8
0
  6
Continuous
 62
     7
100
AcDbSpline
210
0.0
220
0.0
230
1.0
 70
     8
 71
     3
 72
    13
 73
     9
 74
     7
 42
0.0000000001
 43
0.0000000001
 44
0.00000001
 40
0.0
 40
0.0
 40
0.0
 40
0.0
 40
0.0353323702741662
 40
0.0704203827981183
 40
0.1027084056784023
 40
0.1352293371717318
 40
0.174011121579936
 40
0.2125287438796122
 40
0.2125287438796122
 40
0.2125287438796122
 40
0.2125287438796122
 10
5369.306365353904
 20
12855.30857202219
 30
0.0
 10
5369.305479159757
 20
12855.3203939276
 30
0.0
 10
5369.303712900357
 20
12855.34395597841
 30
0.0
 10
5369.289256767684
 20
12855.37572246182
 30
0.0
 10
5369.2685690413
 20
12855.40209387074
 30
0.0
 10
5369.242311483647
 20
12855.4246028062
 30
0.0
 10
5369.210018054334
 20
12855.44357098609
 30
0.0
 10
5369.184132660781
 20
12855.44636924791
 30
0.0
 10
5369.171234194228
 20
12855.44776359745
 30
0.0
 11
5369.306365353904
 21
12855.30857202219
 31
0.0
 11
5369.301656275363
 21
12855.34358917468
 31
0.0
 11
5369.287650409112
 21
12855.37576065791
 31
0.0
 11
5369.267871152192
 21
12855.40128118724
 31
0.0
 11
5369.24329649315
 21
12855.42258135433
 31
0.0
 11
5369.209146233336
 21
12855.44096032483
 31
0.0
 11
5369.171234194228
 21
12855.44776359745
 31
0.0
  0
TEXT
  5
124
330
48
100
AcDbEntity
  8
0
 62
     3
100
AcDbText
 10
5078.011171247676
 20
12845.22655648776
 30
0.0
 40
1.798828
  1
A
 41
0.99
  7
CONVERTER_11
100
AcDbText
  0
TEXT
  5
125
330
48
100
AcDbEntity
  8
0
 62
     3
100
AcDbText
 10
5078.011171247676
 20
12887.22655648776
 30
0.0
 40
1.798828
  1
B
 41
0.99
  7
CONVERTER_11
100
AcDbText
  0
TEXT
  5
126
330
48
100
AcDbEntity
  8
0
 62
     3
100
AcDbText
 10
5078.011171247676
 20
12932.22655648776
 30
0.0
 40
1.798828
  1
C
 41
0.99
  7
CONVERTER_11
100
AcDbText
  0
TEXT
  5
127
330
48
100
AcDbEntity
  8
0
 62
     3
100
AcDbText
 10
5078.011171247676
 20
12977.22655648776
 30
0.0
 40
1.798828
  1
D
 41
0.99
  7
CONVERTER_11
100
AcDbText
  0
TEXT
  5
128
330
48
100
AcDbEntity
  8
0
 62
     3
100
AcDbText
 10
5078.011171247676
 20
13022.22655648776
 30
0.0
 40
1.798828
  1
E
 41
0.99
  7
CONVERTER_11
100
AcDbText
  0
TEXT
  5
129
330
48
100
AcDbEntity
  8
0
 62
     3
100
AcDbText
 10
5078.011171247676
 20
13072.22655648776
 30
0.0
 40
1.798828
  1
F
 41
0.99
  7
CONVERTER_11
100
AcDbText
  0
TEXT
  5
12A
330
48
100
AcDbEntity
  8
0
 62
     3
100
AcDbText
 10
5407.011171247676
 20
13097.22655648776
 30
0.0
 40
1.798828
  1
2
 41
0.99
  7
CONVERTER_11
100
AcDbText
  0
TEXT
  5
12B
330
48
100
AcDbEntity
  8
0
 62
     3
100
AcDbText
 10
5459.011171247676
 20
13097.22655648776
 30
0.0
 40
1.798828
  1
1
 41
0.99
  7
CONVERTER_11
100
AcDbText
  0
TEXT
  5
12C
330
48
100
AcDbEntity
  8
0
 62
     3
100
AcDbText
 10
5355.811220247676
 20
13097.22655648776
 30
0.0
 40
1.798828
  1
3
 41
0.99
  7
CONVERTER_11
100
AcDbText
  0
TEXT
  5
12D
330
48
100
AcDbEntity
  8
0
 62
     3
100
AcDbText
 10
5304.611269247675
 20
13097.22655648776
 30
0.0
 40
1.798828
  1
4
 41
0.99
  7
CONVERTER_11
100
AcDbText
  0
TEXT
  5
12E
330
48
100
AcDbEntity
  8
0
 62
     3
100
AcDbText
 10
5253.411318247676
 20
13097.22655648776
 30
0.0
 40
1.798828
  1
5
 41
0.99
  7
CONVERTER_11
100
AcDbText
  0
TEXT
  5
12F
330
48
100
AcDbEntity
  8
0
 62
     3
100
AcDbText
 10
5202.211367247675
 20
13097.22655648776
 30
0.0
 40
1.798828
  1
6
 41
0.99
  7
CONVERTER_11
100
AcDbText
  0
TEXT
  5
130
330
48
100
AcDbEntity
  8
0
 62
     3
100
AcDbText
 10
5151.011416247676
 20
13097.22655648776
 30
0.0
 40
1.798828
  1
7
 41
0.99
  7
CONVERTER_11
100
AcDbText
  0
TEXT
  5
131
330
48
100
AcDbEntity
  8
0
 62
     3
100
AcDbText
 10
5099.811465247675
 20
13097.22655648776
 30
0.0
 40
1.798828
  1
8
 41
0.99
  7
CONVERTER_11
100
AcDbText
  0
MTEXT
  5
133
330
48
100
AcDbEntity
  8
0
 62
     7
100
AcDbMText
 10
5082.373209705986
 20
12816.69743287037
 30
0.0
 40
1.3
 41
0.0
 71
     7
 72
     1
  3
Diese Zeichnung entspricht dem Entwicklungsstand des Zeichnungsdatums bzw. der letzten \U+00c4nderungseintragung. Aus der Ben\U+00fctzung der Zeichnung k\U+00f6nnen\Pkeine Anspr\U+00fcche, gleich welcher Art, einschlie\U+00dflich Schadenersatzanspr\
  3
U+00fcche, abgeleitet und gegen GEZE geltend gemacht werden. Die Zeichnung bleibt unser\PEigentum und ist Dritten nur f\U+00fcr die Vertragsdauer zur Benutzung \U+00fcberlassen. S\U+00e4mtliche sich aus der Zeichnung ergebenden Anspr\U+00fcche stehe
  3
n ausschlie\U+00dflich\PGEZE zu. Ohne vorherige Zustimmung von GEZE darf diese Zeichnung weder vervielf\U+00e4ltig noch Dritten zug\U+00e4nglich gemacht werden.\PThis drawing shows the actual state of product development at the date of the drawing o
  3
r the revision date. No claims or damages in any form can bei made\Pagainst GEZE as a result of the interpretation of this drawing. This drawing remains the property of GEZE and ist made available to third paries only for\Pthe duration of contractur
  1
al obligations. All rights connected with this drawing remain in possession of GEZE. This drawing may not bei copied of handed\Pover to third parties without the express consent of GEZE.
  7
CONVERTER_12
 73
     1
 44
0.84033613445378
  0
MTEXT
  5
135
330
48
100
AcDbEntity
  8
1
 62
     7
100
AcDbMText
 10
5265.117736453708
 20
12823.19835459914
 30
0.0
 40
2.0
 41
0.0
 71
     5
 72
     1
  1
EMPB = Erstmusterpr\U+00fcfbericht /First sample test report
  7
CONVERTER_13
 73
     1
 44
1.02040816326531
  0
MTEXT
  5
136
330
48
100
AcDbEntity
  8
0
 62
     4
100
AcDbMText
 10
5418.633886661355
 20
12823.42655648776
 30
0.0
 40
3.5
 41
0.0
 71
     5
 72
     1
  1
D
  7
CONVERTER_13
 73
     1
 44
1.02040816326531
  0
MTEXT
  5
138
330
48
100
AcDbEntity
  8
0
 62
     3
100
AcDbMText
 10
5355.740351696533
 20
12830.37655648776
 30
0.0
 40
1.8
 41
0.0
 71
     4
 72
     1
  1
gepr. / checked
  7
CONVERTER_14
 73
     1
 44
0.90036014405762
  0
MTEXT
  5
139
330
48
100
AcDbEntity
  8
0
 62
     3
100
AcDbMText
 10
5355.740351696533
 20
12834.67655648776
 30
0.0
 40
1.8
 41
0.0
 71
     4
 72
     1
  1
erstellt / drawn
  7
CONVERTER_14
 73
     1
 44
0.90036014405762
  0
TEXT
  5
13A
330
48
100
AcDbEntity
  8
0
 62
     4
100
AcDbText
 10
5376.570785074877
 20
12854.67490696052
 30
0.0
 40
2.2
  1
GEZE GmbH
 41
0.9
  7
CONVERTER_13
100
AcDbText
  0
MTEXT
  5
13B
330
48
100
AcDbEntity
  8
0
 62
     3
100
AcDbMText
 10
5376.570785074877
 20
12846.94342973174
 30
0.0
 40
1.8
 41
0.0
 71
     7
 72
     1
  1
P.O. Box 13 63\P71226 Leonberg\PGermany
  7
CONVERTER_14
 73
     1
 44
0.78031212484994
  0
MTEXT
  5
13C
330
48
100
AcDbEntity
  8
0
 62
     3
100
AcDbMText
 10
5433.011171247676
 20
12836.12655648776
 30
0.0
 40
1.8
 41
0.0
 71
     7
 72
     1
  1
Material-Nr.\PID-no.
  7
CONVERTER_14
 73
     1
 44
0.84033613445378
  0
TEXT
  5
13D
330
48
100
AcDbEntity
  8
0
 62
     3
100
AcDbText
 10
5433.011171247676
 20
12825.62655648776
 30
0.0
 40
1.8
  1
Zeichnungs-Nr. / document-no.
 41
0.72
  7
CONVERTER_14
100
AcDbText
  0
TEXT
  5
13E
330
48
100
AcDbEntity
  8
0
 62
     3
100
AcDbText
 10
5406.211171247675
 20
12825.95988973726
 30
0.0
 40
1.8
  1
Sprache / language
 41
0.72
  7
CONVERTER_14
100
AcDbText
  0
MTEXT
  5
13F
330
48
100
AcDbEntity
  8
0
 62
     3
100
AcDbMText
 10
5405.726071666895
 20
12830.5883447367
 30
0.0
 40
1.8
 41
0.0
 71
     7
 72
     1
  1
Ma\U+00dfstab\Pscale
  7
CONVERTER_14
 73
     1
 44
0.84033613445378
  0
TEXT
  5
140
330
48
100
AcDbEntity
  8
0
 62
     3
100
AcDbText
 10
5396.811128247676
 20
12855.82656248776
 30
0.0
 40
1.8
  1
Benennung / designation
 41
0.72
  7
CONVERTER_14
100
AcDbText
  0
MTEXT
  5
141
330
48
100
AcDbEntity
  8
0
 62
     3
100
AcDbMText
 10
5355.740351696533
 20
12818.47655648776
 30
0.0
 40
1.8
 41
0.0
 71
     4
 72
     1
  1
Ersetzt durch:\Psubst. with:
  7
CONVERTER_14
 73
     1
 44
0.84033613445378
  0
MTEXT
  5
142
330
48
100
AcDbEntity
  8
0
 62
     3
100
AcDbMText
 10
5355.740351696533
 20
12824.97655648776
 30
0.0
 40
1.8
 41
0.0
 71
     4
 72
     1
  1
Ersatz f\U+00fcr:\Psubst. for:
  7
CONVERTER_14
 73
     1
 44
0.84033613445378
  0
MTEXT
  5
143
330
48
100
AcDbEntity
  8
0
 62
     3
100
AcDbMText
 10
5405.824510065722
 20
12836.38086857866
 30
0.0
 40
1.8
 41
0.0
 71
     7
 72
     1
  1
Blatt / von\Psheet / of
  7
CONVERTER_14
 73
     1
 44
0.84033613445378
  0
MTEXT
  5
145
330
48
100
AcDbEntity
  8
0
 62
     3
100
AcDbMText
 10
5381.511171247676
 20
12837.92411250428
 30
0.0
 40
1.8
 41
0.0
 71
     8
 72
     1
  1
Datum / date
  7
CONVERTER_15
 73
     1
 44
0.90036014405762
  0
MTEXT
  5
146
330
48
100
AcDbEntity
  8
0
 62
     3
100
AcDbMText
 10
5397.511171247676
 20
12837.92411250428
 30
0.0
 40
1.8
 41
0.0
 71
     8
 72
     1
  1
Name / name
  7
CONVERTER_15
 73
     1
 44
0.90036014405762
  0
MTEXT
  5
148
330
48
100
AcDbEntity
  8
0
 62
     7
100
AcDbMText
 10
5317.211171247675
 20
12817.58698577982
 30
0.0
 40
1.3
 41
0.0
 71
     8
 72
     1
  1
Dok.version
  7
CONVERTER_16
 73
     1
 44
0.7202881152461
  0
MTEXT
  5
149
330
48
100
AcDbEntity
  8
0
 62
     7
100
AcDbMText
 10
5317.211171247675
 20
12815.78698577982
 30
0.0
 40
1.3
 41
0.0
 71
     8
 72
     1
  1
doc.version
  7
CONVERTER_16
 73
     1
 44
0.7202881152461
  0
MTEXT
  5
14A
330
48
100
AcDbEntity
  8
0
 62
     7
100
AcDbMText
 10
5327.511171247676
 20
12815.78698577982
 30
0.0
 40
1.3
 41
0.0
 71
     8
 72
     1
  1
date
  7
CONVERTER_14
 73
     1
 44
0.7202881152461
  0
MTEXT
  5
14B
330
48
100
AcDbEntity
  8
0
 62
     7
100
AcDbMText
 10
5327.511171247676
 20
12817.58698577982
 30
0.0
 40
1.3
 41
0.0
 71
     8
 72
     1
  1
Datum
  7
CONVERTER_14
 73
     1
 44
0.7202881152461
  0
MTEXT
  5
14C
330
48
100
AcDbEntity
  8
0
 62
     7
100
AcDbMText
 10
5336.511171247676
 20
12815.78698577982
 30
0.0
 40
1.3
 41
0.0
 71
     8
 72
     1
  1
name
  7
CONVERTER_14
 73
     1
 44
0.7202881152461
  0
MTEXT
  5
14D
330
48
100
AcDbEntity
  8
0
 62
     7
100
AcDbMText
 10
5336.511171247676
 20
12817.58698577982
 30
0.0
 40
1.3
 41
0.0
 71
     8
 72
     1
  1
Name
  7
CONVERTER_14
 73
     1
 44
0.7202881152461
  0
MTEXT
  5
14E
330
48
100
AcDbEntity
  8
0
 62
     7
100
AcDbMText
 10
5348.011171247676
 20
12815.78698577982
 30
0.0
 40
1.3
 41
0.0
 71
     8
 72
     1
  1
Doc. change no.
  7
CONVERTER_14
 73
     1
 44
0.7202881152461
  0
MTEXT
  5
14F
330
48
100
AcDbEntity
  8
0
 62
     7
100
AcDbMText
 10
5348.011171247676
 20
12817.58698577982
 30
0.0
 40
1.3
 41
0.0
 71
     8
 72
     1
  1
Mitteilungs-Nr.
  7
CONVERTER_14
 73
     1
 44
0.7202881152461
  0
MTEXT
  5
150
330
48
100
AcDbEntity
  8
0
 62
     4
100
AcDbMText
 10
5426.206728664096
 20
12837.72655648776
 30
0.0
 40
5.0
 41
0.0
 71
     5
 72
     1
  1
/
  7
CONVERTER_13
 73
     1
 44
1.02040816326531
  0
MTEXT
  5
151
330
48
100
AcDbEntity
  8
0
 62
     7
100
AcDbMText
 10
5317.211171247675
 20
12821.67655348776
 30
0.0
 40
2.0
 41
0.0
 71
     5
 72
     1
  1
E00
  7
CONVERTER_13
 73
     1
 44
1.02040816326531
  0
MTEXT
  5
152
330
48
100
AcDbEntity
  8
0
 62
     7
100
AcDbMText
 10
5317.211171247675
 20
12825.97654148776
 30
0.0
 40
2.0
 41
0.0
 71
     5
 72
     1
  1
 
  7
CONVERTER_13
 73
     1
 44
1.02040816326531
  0
MTEXT
  5
153
330
48
100
AcDbEntity
  8
0
 62
     7
100
AcDbMText
 10
5317.211171247675
 20
12830.27652948776
 30
0.0
 40
2.0
 41
0.0
 71
     5
 72
     1
  1
 
  7
CONVERTER_13
 73
     1
 44
1.02040816326531
  0
MTEXT
  5
154
330
48
100
AcDbEntity
  8
0
 62
     7
100
AcDbMText
 10
5317.211171247675
 20
12834.57651748776
 30
0.0
 40
2.0
 41
0.0
 71
     5
 72
     1
  1
 
  7
CONVERTER_13
 73
     1
 44
1.02040816326531
  0
MTEXT
  5
155
330
48
100
AcDbEntity
  8
0
 62
     7
100
AcDbMText
 10
5317.211171247675
 20
12838.87650548776
 30
0.0
 40
2.0
 41
0.0
 71
     5
 72
     1
  1
 
  7
CONVERTER_13
 73
     1
 44
1.02040816326531
  0
MTEXT
  5
156
330
48
100
AcDbEntity
  8
0
 62
     7
100
AcDbMText
 10
5317.211171247675
 20
12843.17649348776
 30
0.0
 40
2.0
 41
0.0
 71
     5
 72
     1
  1
 
  7
CONVERTER_13
 73
     1
 44
1.02040816326531
  0
MTEXT
  5
157
330
48
100
AcDbEntity
  8
0
 62
     7
100
AcDbMText
 10
5317.211171247675
 20
12847.47648148776
 30
0.0
 40
2.0
 41
0.0
 71
     5
 72
     1
  1
 
  7
CONVERTER_13
 73
     1
 44
1.02040816326531
  0
MTEXT
  5
158
330
48
100
AcDbEntity
  8
0
 62
     7
100
AcDbMText
 10
5327.011171247676
 20
12851.77646948776
 30
0.0
 40
2.0
 41
0.0
 71
     5
 72
     1
  1
 
  7
CONVERTER_16
 73
     1
 44
1.02040816326531
  0
MTEXT
  5
159
330
48
100
AcDbEntity
  8
0
 62
     7
100
AcDbMText
 10
5317.211171247675
 20
12856.07645748776
 30
0.0
 40
2.0
 41
0.0
 71
     5
 72
     1
  1
 
  7
CONVERTER_13
 73
     1
 44
1.02040816326531
  0
MTEXT
  5
15A
330
48
100
AcDbEntity
  8
0
 62
     7
100
AcDbMText
 10
5348.011171247676
 20
12856.07645748776
 30
0.0
 40
2.0
 41
0.0
 71
     5
 72
     1
  1
 
  7
CONVERTER_13
 73
     1
 44
1.02040816326531
  0
MTEXT
  5
15B
330
48
100
AcDbEntity
  8
0
 62
     7
100
AcDbMText
 10
5336.811171247676
 20
12851.77646948776
 30
0.0
 40
2.0
 41
0.0
 71
     5
 72
     1
  1
 
  7
CONVERTER_14
 73
     1
 44
1.02040816326531
  0
MTEXT
  5
15C
330
48
100
AcDbEntity
  8
0
 62
     7
100
AcDbMText
 10
5336.811171247676
 20
12847.47648148776
 30
0.0
 40
2.0
 41
0.0
 71
     5
 72
     1
  1
 
  7
CONVERTER_14
 73
     1
 44
1.02040816326531
  0
MTEXT
  5
15D
330
48
100
AcDbEntity
  8
0
 62
     7
100
AcDbMText
 10
5336.811171247676
 20
12843.17649348776
 30
0.0
 40
2.0
 41
0.0
 71
     5
 72
     1
  1
 
  7
CONVERTER_14
 73
     1
 44
1.02040816326531
  0
MTEXT
  5
15E
330
48
100
AcDbEntity
  8
0
 62
     7
100
AcDbMText
 10
5327.011171247676
 20
12838.87650548776
 30
0.0
 40
2.0
 41
0.0
 71
     5
 72
     1
  1
 
  7
CONVERTER_16
 73
     1
 44
1.02040816326531
  0
MTEXT
  5
15F
330
48
100
AcDbEntity
  8
0
 62
     7
100
AcDbMText
 10
5336.811171247676
 20
12834.57651748776
 30
0.0
 40
2.0
 41
0.0
 71
     5
 72
     1
  1
 
  7
CONVERTER_14
 73
     1
 44
1.02040816326531
  0
MTEXT
  5
160
330
48
100
AcDbEntity
  8
0
 62
     7
100
AcDbMText
 10
5348.011171247676
 20
12830.27652948776
 30
0.0
 40
2.0
 41
0.0
 71
     5
 72
     1
  1
 
  7
CONVERTER_13
 73
     1
 44
1.02040816326531
  0
MTEXT
  5
161
330
48
100
AcDbEntity
  8
0
 62
     7
100
AcDbMText
 10
5348.011171247676
 20
12825.97654148776
 30
0.0
 40
2.0
 41
0.0
 71
     5
 72
     1
  1
 
  7
CONVERTER_13
 73
     1
 44
1.02040816326531
  0
MTEXT
  5
162
330
48
100
AcDbEntity
  8
0
 62
     7
100
AcDbMText
 10
5327.011171247676
 20
12821.67655348776
 30
0.0
 40
2.0
 41
0.0
 71
     5
 72
     1
  1
17.09.14
  7
CONVERTER_16
 73
     1
 44
1.02040816326531
  0
MTEXT
  5
163
330
48
100
AcDbEntity
  8
0
 62
     7
100
AcDbMText
 10
5336.811171247676
 20
12821.67655348776
 30
0.0
 40
2.0
 41
0.0
 71
     5
 72
     1
  1
u904
  7
CONVERTER_14
 73
     1
 44
1.02040816326531
  0
MTEXT
  5
164
330
48
100
AcDbEntity
  8
0
 62
     7
100
AcDbMText
 10
5348.011171247676
 20
12834.57651748776
 30
0.0
 40
2.0
 41
0.0
 71
     5
 72
     1
  1
 
  7
CONVERTER_13
 73
     1
 44
1.02040816326531
  0
MTEXT
  5
165
330
48
100
AcDbEntity
  8
0
 62
     7
100
AcDbMText
 10
5327.011171247676
 20
12830.27652948776
 30
0.0
 40
2.0
 41
0.0
 71
     5
 72
     1
  1
 
  7
CONVERTER_16
 73
     1
 44
1.02040816326531
  0
MTEXT
  5
166
330
48
100
AcDbEntity
  8
0
 62
     7
100
AcDbMText
 10
5348.011171247676
 20
12821.67655348776
 30
0.0
 40
2.0
 41
0.0
 71
     5
 72
     1
  1
1303
  7
CONVERTER_13
 73
     1
 44
1.02040816326531
  0
MTEXT
  5
167
330
48
100
AcDbEntity
  8
0
 62
     7
100
AcDbMText
 10
5327.011171247676
 20
12825.97654148776
 30
0.0
 40
2.0
 41
0.0
 71
     5
 72
     1
  1
 
  7
CONVERTER_16
 73
     1
 44
1.02040816326531
  0
MTEXT
  5
168
330
48
100
AcDbEntity
  8
0
 62
     7
100
AcDbMText
 10
5327.011171247676
 20
12834.57651748776
 30
0.0
 40
2.0
 41
0.0
 71
     5
 72
     1
  1
 
  7
CONVERTER_16
 73
     1
 44
1.02040816326531
  0
MTEXT
  5
169
330
48
100
AcDbEntity
  8
0
 62
     7
100
AcDbMText
 10
5327.011171247676
 20
12843.17649348776
 30
0.0
 40
2.0
 41
0.0
 71
     5
 72
     1
  1
 
  7
CONVERTER_16
 73
     1
 44
1.02040816326531
  0
MTEXT
  5
16A
330
48
100
AcDbEntity
  8
0
 62
     7
100
AcDbMText
 10
5327.011171247676
 20
12847.47648148776
 30
0.0
 40
2.0
 41
0.0
 71
     5
 72
     1
  1
 
  7
CONVERTER_16
 73
     1
 44
1.02040816326531
  0
MTEXT
  5
16B
330
48
100
AcDbEntity
  8
0
 62
     7
100
AcDbMText
 10
5327.011171247676
 20
12856.07645748776
 30
0.0
 40
2.0
 41
0.0
 71
     5
 72
     1
  1
 
  7
CONVERTER_16
 73
     1
 44
1.02040816326531
  0
MTEXT
  5
16C
330
48
100
AcDbEntity
  8
0
 62
     7
100
AcDbMText
 10
5336.811171247676
 20
12825.97654148776
 30
0.0
 40
2.0
 41
0.0
 71
     5
 72
     1
  1
 
  7
CONVERTER_14
 73
     1
 44
1.02040816326531
  0
MTEXT
  5
16D
330
48
100
AcDbEntity
  8
0
 62
     7
100
AcDbMText
 10
5336.811171247676
 20
12830.27652948776
 30
0.0
 40
2.0
 41
0.0
 71
     5
 72
     1
  1
 
  7
CONVERTER_14
 73
     1
 44
1.02040816326531
  0
MTEXT
  5
16E
330
48
100
AcDbEntity
  8
0
 62
     7
100
AcDbMText
 10
5336.811171247676
 20
12838.87650548776
 30
0.0
 40
2.0
 41
0.0
 71
     5
 72
     1
  1
 
  7
CONVERTER_14
 73
     1
 44
1.02040816326531
  0
MTEXT
  5
16F
330
48
100
AcDbEntity
  8
0
 62
     7
100
AcDbMText
 10
5336.811171247676
 20
12856.07645748776
 30
0.0
 40
2.0
 41
0.0
 71
     5
 72
     1
  1
 
  7
CONVERTER_14
 73
     1
 44
1.02040816326531
  0
MTEXT
  5
170
330
48
100
AcDbEntity
  8
0
 62
     7
100
AcDbMText
 10
5348.011171247676
 20
12838.87650548776
 30
0.0
 40
2.0
 41
0.0
 71
     5
 72
     1
  1
 
  7
CONVERTER_13
 73
     1
 44
1.02040816326531
  0
MTEXT
  5
171
330
48
100
AcDbEntity
  8
0
 62
     7
100
AcDbMText
 10
5348.011171247676
 20
12843.17649348776
 30
0.0
 40
2.0
 41
0.0
 71
     5
 72
     1
  1
 
  7
CONVERTER_13
 73
     1
 44
1.02040816326531
  0
MTEXT
  5
172
330
48
100
AcDbEntity
  8
0
 62
     7
100
AcDbMText
 10
5348.011171247676
 20
12847.47648148776
 30
0.0
 40
2.0
 41
0.0
 71
     5
 72
     1
  1
 
  7
CONVERTER_13
 73
     1
 44
1.02040816326531
  0
MTEXT
  5
173
330
48
100
AcDbEntity
  8
0
 62
     7
100
AcDbMText
 10
5348.011171247676
 20
12851.77646948776
 30
0.0
 40
2.0
 41
0.0
 71
     5
 72
     1
  1
 
  7
CONVERTER_13
 73
     1
 44
1.02040816326531
  0
MTEXT
  5
174
330
48
100
AcDbEntity
  8
0
 62
     7
100
AcDbMText
 10
5317.211171247675
 20
12851.77646948776
 30
0.0
 40
2.0
 41
0.0
 71
     5
 72
     1
  1
 
  7
CONVERTER_13
 73
     1
 44
1.02040816326531
  0
MTEXT
  5
175
330
48
100
AcDbEntity
  8
0
 62
     3
100
AcDbMText
 10
5380.046401315858
 20
12835.0401717056
 30
0.0
 40
2.5
 41
0.0
 71
     5
 72
     1
  1
17.09.14
  7
CONVERTER_16
 73
     1
 44
1.02040816326531
  0
MTEXT
  5
176
330
48
100
AcDbEntity
  8
0
 62
     3
100
AcDbMText
 10
5397.138449565858
 20
12835.0401717056
 30
0.0
 40
2.5
 41
0.0
 71
     5
 72
     1
  1
u904
  7
CONVERTER_14
 73
     1
 44
1.02040816326531
  0
MTEXT
  5
177
330
48
100
AcDbEntity
  8
0
 62
     1
100
AcDbMText
 10
5419.189874731893
 20
12831.43780679517
 30
0.0
 40
5.0
 41
0.0
 71
     5
 72
     1
  1
1:1
  7
CONVERTER_13
 73
     1
 44
1.02040816326531
  0
MTEXT
  5
178
330
48
100
AcDbEntity
  8
0
 62
     3
100
AcDbMText
 10
5380.046401315858
 20
12830.71472561847
 30
0.0
 40
2.5
 41
0.0
 71
     5
 72
     1
  1
 
  7
CONVERTER_16
 73
     1
 44
1.02040816326531
  0
MTEXT
  5
179
330
48
100
AcDbEntity
  8
0
 62
     3
100
AcDbMText
 10
5385.754179434091
 20
12817.63669215624
 30
0.0
 40
2.5
 41
0.0
 71
     5
 72
     1
  1
 
  7
CONVERTER_13
 73
     1
 44
1.02040816326531
  0
MTEXT
  5
17A
330
48
100
AcDbEntity
  8
0
 62
     3
100
AcDbMText
 10
5385.754179434091
 20
12825.13669215624
 30
0.0
 40
2.5
 41
0.0
 71
     5
 72
     1
  1
 
  7
CONVERTER_13
 73
     1
 44
1.02040816326531
  0
MTEXT
  5
17B
330
48
100
AcDbEntity
  8
0
 62
     3
100
AcDbMText
 10
5397.138449565858
 20
12830.71472561847
 30
0.0
 40
2.5
 41
0.0
 71
     5
 72
     1
  1
 
  7
CONVERTER_14
 73
     1
 44
1.02040816326531
  0
MTEXT
  5
17C
330
48
100
AcDbEntity
  8
0
 62
     4
100
AcDbMText
 10
5443.011171247676
 20
12844.77752742671
 30
0.0
 40
2.5
 41
0.0
 71
     5
 72
     1
  1
Mounting bracket f. GC 365 / GC 341
  7
CONVERTER_14
 73
     1
 44
1.02040816326531
  0
MTEXT
  5
17D
330
48
100
AcDbEntity
  8
0
 62
     1
100
AcDbMText
 10
5443.011171247676
 20
12851.66579403161
 30
0.0
 40
3.0
 41
0.0
 71
     5
 72
     1
  1
Deckenbefestigungswinkel f. GC 365 / GC 341
  7
CONVERTER_14
 73
     1
 44
1.02040816326531
  0
MTEXT
  5
17E
330
48
100
AcDbEntity
  8
0
 62
     1
100
AcDbMText
 10
5462.011171247676
 20
12833.73670766982
 30
0.0
 40
5.0
 41
0.0
 71
     5
 72
     1
  1
160765
  7
CONVERTER_13
 73
     1
 44
1.02040816326531
  0
MTEXT
  5
17F
330
48
100
AcDbEntity
  8
0
 62
     1
100
AcDbMText
 10
5462.011171247676
 20
12820.61207557349
 30
0.0
 40
5.0
 41
0.0
 71
     5
 72
     1
  1
70705-2-0429
  7
CONVERTER_14
 73
     1
 44
1.02040816326531
  0
MTEXT
  5
180
330
48
100
AcDbEntity
  8
0
 62
     4
100
AcDbMText
 10
5429.426974692
 20
12837.72655648776
 30
0.0
 40
3.5
 41
0.0
 71
     5
 72
     1
  1
-
  7
CONVERTER_13
 73
     1
 44
1.02040816326531
  0
MTEXT
  5
181
330
48
100
AcDbEntity
  8
0
 62
     4
100
AcDbMText
 10
5422.633886661355
 20
12837.72655648776
 30
0.0
 40
3.5
 41
0.0
 71
     5
 72
     1
  1
1
  7
CONVERTER_13
 73
     1
 44
1.02040816326531
  0
MTEXT
  5
182
330
48
100
AcDbEntity
  8
0
 62
     7
100
AcDbMText
 10
5310.611171247676
 20
12817.33118281488
 30
0.0
 40
1.3
 41
0.0
 71
     8
 72
     1
  1
EMPB
  7
CONVERTER_14
 73
     1
 44
0.7202881152461
  0
TEXT
  5
184
330
48
100
AcDbEntity
  8
0
 62
     4
100
AcDbText
 10
5356.038766967534
 20
12842.36742153967
 30
0.0
 40
2.5
  1
vertraulich / confidential
 41
0.765
  7
CONVERTER_17
100
AcDbText
  0
MTEXT
  5
185
330
48
100
AcDbEntity
  8
0
 62
     4
100
AcDbMText
 10
5310.211171247675
 20
12821.67655348776
 30
0.0
 40
2.0
 41
0.0
 71
     5
 72
     1
  1
 
  7
CONVERTER_13
 73
     1
 44
1.02040816326531
  0
MTEXT
  5
186
330
48
100
AcDbEntity
  8
0
 62
     4
100
AcDbMText
 10
5310.211171247675
 20
12825.97654148776
 30
0.0
 40
2.0
 41
0.0
 71
     5
 72
     1
  1
 
  7
CONVERTER_13
 73
     1
 44
1.02040816326531
  0
MTEXT
  5
187
330
48
100
AcDbEntity
  8
0
 62
     4
100
AcDbMText
 10
5310.211171247675
 20
12830.27652948776
 30
0.0
 40
2.0
 41
0.0
 71
     5
 72
     1
  1
 
  7
CONVERTER_13
 73
     1
 44
1.02040816326531
  0
MTEXT
  5
188
330
48
100
AcDbEntity
  8
0
 62
     4
100
AcDbMText
 10
5310.211171247675
 20
12834.57651748776
 30
0.0
 40
2.0
 41
0.0
 71
     5
 72
     1
  1
 
  7
CONVERTER_13
 73
     1
 44
1.02040816326531
  0
MTEXT
  5
189
330
48
100
AcDbEntity
  8
0
 62
     4
100
AcDbMText
 10
5310.211171247675
 20
12838.87650548776
 30
0.0
 40
2.0
 41
0.0
 71
     5
 72
     1
  1
 
  7
CONVERTER_13
 73
     1
 44
1.02040816326531
  0
MTEXT
  5
18A
330
48
100
AcDbEntity
  8
0
 62
     4
100
AcDbMText
 10
5310.211171247675
 20
12843.17649348776
 30
0.0
 40
2.0
 41
0.0
 71
     5
 72
     1
  1
 
  7
CONVERTER_13
 73
     1
 44
1.02040816326531
  0
MTEXT
  5
18B
330
48
100
AcDbEntity
  8
0
 62
     4
100
AcDbMText
 10
5310.211171247675
 20
12847.47648148776
 30
0.0
 40
2.0
 41
0.0
 71
     5
 72
     1
  1
 
  7
CONVERTER_13
 73
     1
 44
1.02040816326531
  0
MTEXT
  5
18C
330
48
100
AcDbEntity
  8
0
 62
     4
100
AcDbMText
 10
5310.211171247675
 20
12851.77646948776
 30
0.0
 40
2.0
 41
0.0
 71
     5
 72
     1
  1
 
  7
CONVERTER_13
 73
     1
 44
1.02040816326531
  0
MTEXT
  5
18D
330
48
100
AcDbEntity
  8
0
 62
     4
100
AcDbMText
 10
5310.211171247675
 20
12856.07645748776
 30
0.0
 40
2.0
 41
0.0
 71
     5
 72
     1
  1
 
  7
CONVERTER_13
 73
     1
 44
1.02040816326531
  0
ENDBLK
  5
4A
330
48
100
AcDbEntity
  8
0
100
AcDbBlockEnd
  0
BLOCK
  5
6F
330
4B
100
AcDbEntity
  8
0
100
AcDbBlockBegin
  2
Rahmen
 70
     0
 10
5077.011171247676
 20
12815.22655648776
 30
0.0
  3
Rahmen
  1

  0
INSERT
  5
6E
330
4B
100
AcDbEntity
  8
1
100
AcDbBlockReference
  2
a3kl
 10
5077.011171247676
 20
12815.22655648776
 30
0.0
  0
ENDBLK
  5
70
330
4B
100
AcDbEntity
  8
0
100
AcDbBlockEnd
  0
BLOCK
  5
202
330
1FB
100
AcDbEntity
  8
0
100
AcDbBlockBegin
  2
*D3
 70
     1
 10
0.0
 20
0.0
 30
0.0
  3
*D3
  1

  0
LINE
  5
1FC
330
1FB
100
AcDbEntity
  8
1
  6
Continuous
 62
     3
100
AcDbLine
 10
5314.7763671875
 20
12922.02311417871
 30
0.0
 11
5284.776475694444
 21
12922.02311417871
 31
0.0
  0
LINE
  5
1FD
330
1FB
100
AcDbEntity
  8
1
  6
Continuous
 62
     3
100
AcDbLine
 10
5284.776475694444
 20
12912.3859101112
 30
0.0
 11
5284.776475694444
 21
12924.02311417871
 31
0.0
  0
LINE
  5
1FE
330
1FB
100
AcDbEntity
  8
1
  6
Continuous
 62
     3
100
AcDbLine
 10
5314.7763671875
 20
12919.31586253381
 30
0.0
 11
5314.7763671875
 21
12924.02311417871
 31
0.0
  0
SOLID
  5
1FF
330
1FB
100
AcDbEntity
  8
1
 62
     3
100
AcDbTrace
 10
5311.2763671875
 20
12921.56233043715
 30
0.0
 11
5311.2763671875
 21
12922.48389792027
 31
0.0
 12
5314.7763671875
 22
12922.02311417871
 32
0.0
 13
5314.7763671875
 23
12922.02311417871
 33
0.0
  0
SOLID
  5
200
330
1FB
100
AcDbEntity
  8
1
 62
     3
100
AcDbTrace
 10
5288.276475694444
 20
12922.48389792027
 30
0.0
 11
5288.276475694444
 21
12921.56233043715
 31
0.0
 12
5284.776475694444
 22
12922.02311417871
 32
0.0
 13
5284.776475694444
 23
12922.02311417871
 33
0.0
  0
MTEXT
  5
201
330
1FB
100
AcDbEntity
  8
1
 62
     4
100
AcDbMText
 10
5297.791613823375
 20
12924.02311417871
 30
0.0
 40
3.5
 41
0.0
 71
     7
 72
     1
  1
30
  7
CONVERTER_13
 11
0.9999999999970619
 21
2.424068405545306E-6
 31
0.0
 73
     1
 44
0.60024009603842
  0
ENDBLK
  5
203
330
1FB
100
AcDbEntity
  8
0
100
AcDbBlockEnd
  0
BLOCK
  5
20F
330
206
100
AcDbEntity
  8
0
100
AcDbBlockBegin
  2
*D4
 70
     1
 10
0.0
 20
0.0
 30
0.0
  3
*D4
  1

  0
LINE
  5
207
330
206
100
AcDbEntity
  8
1
  6
Continuous
 62
     3
100
AcDbLine
 10
5314.7763671875
 20
12926.88210258961
 30
0.0
 11
5307.7763671875
 21
12926.88210258961
 31
0.0
  0
LINE
  5
208
330
206
100
AcDbEntity
  8
1
  6
Continuous
 62
     3
100
AcDbLine
 10
5321.77611219618
 20
12926.88210258961
 30
0.0
 11
5314.7763671875
 21
12926.88210258961
 31
0.0
  0
LINE
  5
209
330
206
100
AcDbEntity
  8
1
  6
Continuous
 62
     3
100
AcDbLine
 10
5328.77611219618
 20
12926.88210258961
 30
0.0
 11
5321.77611219618
 21
12926.88210258961
 31
0.0
  0
LINE
  5
20A
330
206
100
AcDbEntity
  8
1
  6
Continuous
 62
     3
100
AcDbLine
 10
5314.7763671875
 20
12919.31586253381
 30
0.0
 11
5314.7763671875
 21
12928.88210258961
 31
0.0
  0
LINE
  5
20B
330
206
100
AcDbEntity
  8
1
  6
Continuous
 62
     3
100
AcDbLine
 10
5321.77611219618
 20
12912.3859101112
 30
0.0
 11
5321.77611219618
 21
12928.88210258961
 31
0.0
  0
SOLID
  5
20C
330
206
100
AcDbEntity
  8
1
 62
     3
100
AcDbTrace
 10
5325.27611219618
 20
12927.34288633117
 30
0.0
 11
5325.27611219618
 21
12926.42131884806
 31
0.0
 12
5321.77611219618
 22
12926.88210258961
 32
0.0
 13
5321.77611219618
 23
12926.88210258961
 33
0.0
  0
SOLID
  5
20D
330
206
100
AcDbEntity
  8
1
 62
     3
100
AcDbTrace
 10
5311.2763671875
 20
12926.42131884806
 30
0.0
 11
5311.2763671875
 21
12927.34288633117
 31
0.0
 12
5314.7763671875
 22
12926.88210258961
 32
0.0
 13
5314.7763671875
 23
12926.88210258961
 33
0.0
  0
MTEXT
  5
20E
330
206
100
AcDbEntity
  8
1
 62
     4
100
AcDbMText
 10
5317.879051135536
 20
12928.88210258961
 30
0.0
 40
3.5
 41
0.0
 71
     7
 72
     1
  1
7
  7
CONVERTER_13
 11
0.9999999999970619
 21
2.424068405545306E-6
 31
0.0
 73
     1
 44
0.60024009603842
  0
ENDBLK
  5
210
330
206
100
AcDbEntity
  8
0
100
AcDbBlockEnd
  0
BLOCK
  5
21B
330
213
100
AcDbEntity
  8
0
100
AcDbBlockBegin
  2
*D5
 70
     1
 10
0.0
 20
0.0
 30
0.0
  3
*D5
  1

  0
LINE
  5
214
330
213
100
AcDbEntity
  8
1
  6
Continuous
 62
     3
100
AcDbLine
 10
5459.218533493336
 20
12913.98581245495
 30
0.0
 11
5459.218533493336
 21
12901.4859725027
 31
0.0
  0
LINE
  5
215
330
213
100
AcDbEntity
  8
1
  6
Continuous
 62
     3
100
AcDbLine
 10
5459.218533493336
 20
12926.59002713611
 30
0.0
 11
5459.218533493336
 21
12913.98581245495
 31
0.0
  0
LINE
  5
216
330
213
100
AcDbEntity
  8
1
  6
Continuous
 62
     3
100
AcDbLine
 10
5452.030377248425
 20
12901.4859725027
 30
0.0
 11
5461.218533493336
 21
12901.4859725027
 31
0.0
  0
LINE
  5
217
330
213
100
AcDbEntity
  8
1
  6
Continuous
 62
     3
100
AcDbLine
 10
5446.776578776042
 20
12913.98581245495
 30
0.0
 11
5461.218533493336
 21
12913.98581245495
 31
0.0
  0
SOLID
  5
218
330
213
100
AcDbEntity
  8
1
 62
     3
100
AcDbTrace
 10
5459.679317234892
 20
12910.48581245495
 30
0.0
 11
5458.75774975178
 21
12910.48581245495
 31
0.0
 12
5459.218533493336
 22
12913.98581245495
 32
0.0
 13
5459.218533493336
 23
12913.98581245495
 33
0.0
  0
SOLID
  5
219
330
213
100
AcDbEntity
  8
1
 62
     3
100
AcDbTrace
 10
5458.75774975178
 20
12904.9859725027
 30
0.0
 11
5459.679317234892
 21
12904.9859725027
 31
0.0
 12
5459.218533493336
 22
12901.4859725027
 32
0.0
 13
5459.218533493336
 23
12901.4859725027
 33
0.0
  0
MTEXT
  5
21A
330
213
100
AcDbEntity
  8
1
 62
     4
100
AcDbMText
 10
5457.218533493336
 20
12918.10252713611
 30
0.0
 40
3.5
 41
0.0
 71
     7
 72
     1
  1
12.5
  7
CONVERTER_13
 11
0.0
 21
1.0
 31
0.0
 73
     1
 44
0.60024009603842
  0
ENDBLK
  5
21C
330
213
100
AcDbEntity
  8
0
100
AcDbBlockEnd
  0
BLOCK
  5
226
330
21F
100
AcDbEntity
  8
0
100
AcDbBlockBegin
  2
*D6
 70
     1
 10
0.0
 20
0.0
 30
0.0
  3
*D6
  1

  0
LINE
  5
220
330
21F
100
AcDbEntity
  8
1
  6
Continuous
 62
     3
100
AcDbLine
 10
5446.776578776042
 20
13077.35533487046
 30
0.0
 11
5182.776500108507
 21
13077.35533487046
 31
0.0
  0
LINE
  5
221
330
21F
100
AcDbEntity
  8
1
  6
Continuous
 62
     3
100
AcDbLine
 10
5182.776500108507
 20
13040.89323187934
 30
0.0
 11
5182.776500108507
 21
13079.35533487046
 31
0.0
  0
LINE
  5
222
330
21F
100
AcDbEntity
  8
1
  6
Continuous
 62
     3
100
AcDbLine
 10
5446.776578776042
 20
13040.89323187934
 30
0.0
 11
5446.776578776042
 21
13079.35533487046
 31
0.0
  0
SOLID
  5
223
330
21F
100
AcDbEntity
  8
1
 62
     3
100
AcDbTrace
 10
5443.276578776042
 20
13076.89455112891
 30
0.0
 11
5443.276578776042
 21
13077.81611861202
 31
0.0
 12
5446.776578776042
 22
13077.35533487046
 32
0.0
 13
5446.776578776042
 23
13077.35533487046
 33
0.0
  0
SOLID
  5
224
330
21F
100
AcDbEntity
  8
1
 62
     3
100
AcDbTrace
 10
5186.276500108507
 20
13077.81611861202
 30
0.0
 11
5186.276500108507
 21
13076.89455112891
 31
0.0
 12
5182.776500108507
 22
13077.35533487046
 32
0.0
 13
5182.776500108507
 23
13077.35533487046
 33
0.0
  0
MTEXT
  5
225
330
21F
100
AcDbEntity
  8
1
 62
     4
100
AcDbMText
 10
5310.5763671875
 20
13079.35533487046
 30
0.0
 40
3.5
 41
0.0
 71
     7
 72
     1
  1
264
  7
CONVERTER_13
 11
0.9999999999970619
 21
2.424068405545306E-6
 31
0.0
 73
     1
 44
0.60024009603842
  0
ENDBLK
  5
227
330
21F
100
AcDbEntity
  8
0
100
AcDbBlockEnd
  0
BLOCK
  5
231
330
22A
100
AcDbEntity
  8
0
100
AcDbBlockBegin
  2
*D7
 70
     1
 10
0.0
 20
0.0
 30
0.0
  3
*D7
  1

  0
LINE
  5
22B
330
22A
100
AcDbEntity
  8
1
  6
Continuous
 62
     3
100
AcDbLine
 10
5278.776497395835
 20
13064.72655648776
 30
0.0
 11
5403.776274956598
 21
13064.72655648776
 31
0.0
  0
LINE
  5
22C
330
22A
100
AcDbEntity
  8
1
  6
Continuous
 62
     3
100
AcDbLine
 10
5403.776274956598
 20
13029.91387531266
 30
0.0
 11
5403.776274956598
 21
13066.72655648776
 31
0.0
  0
LINE
  5
22D
330
22A
100
AcDbEntity
  8
1
  6
Continuous
 62
     3
100
AcDbLine
 10
5278.776497395835
 20
13029.39370777246
 30
0.0
 11
5278.776497395835
 21
13066.72655648776
 31
0.0
  0
SOLID
  5
22E
330
22A
100
AcDbEntity
  8
1
 62
     3
100
AcDbTrace
 10
5282.276497395835
 20
13065.18734022931
 30
0.0
 11
5282.276497395835
 21
13064.2657727462
 31
0.0
 12
5278.776497395835
 22
13064.72655648776
 32
0.0
 13
5278.776497395835
 23
13064.72655648776
 33
0.0
  0
SOLID
  5
22F
330
22A
100
AcDbEntity
  8
1
 62
     3
100
AcDbTrace
 10
5400.276274956598
 20
13064.2657727462
 30
0.0
 11
5400.276274956598
 21
13065.18734022931
 31
0.0
 12
5403.776274956598
 22
13064.72655648776
 32
0.0
 13
5403.776274956598
 23
13064.72655648776
 33
0.0
  0
MTEXT
  5
230
330
22A
100
AcDbEntity
  8
1
 62
     4
100
AcDbMText
 10
5335.218996883046
 20
13066.72655648776
 30
0.0
 40
3.5
 41
0.0
 71
     7
 72
     1
  1
125
  7
CONVERTER_13
 11
0.9999999999970619
 21
2.424068405545306E-6
 31
0.0
 73
     1
 44
0.60024009603842
  0
ENDBLK
  5
232
330
22A
100
AcDbEntity
  8
0
100
AcDbBlockEnd
  0
BLOCK
  5
23C
330
235
100
AcDbEntity
  8
0
100
AcDbBlockBegin
  2
*D8
 70
     1
 10
0.0
 20
0.0
 30
0.0
  3
*D8
  1

  0
LINE
  5
236
330
235
100
AcDbEntity
  8
1
  6
Continuous
 62
     3
100
AcDbLine
 10
5314.7763671875
 20
13054.61878319976
 30
0.0
 11
5278.776497395834
 21
13054.61878319976
 31
0.0
  0
LINE
  5
237
330
235
100
AcDbEntity
  8
1
  6
Continuous
 62
     3
100
AcDbLine
 10
5278.776497395834
 20
13029.39370777246
 30
0.0
 11
5278.776497395834
 21
13056.61878319976
 31
0.0
  0
LINE
  5
238
330
235
100
AcDbEntity
  8
1
  6
Continuous
 62
     3
100
AcDbLine
 10
5314.7763671875
 20
13049.11047363281
 30
0.0
 11
5314.7763671875
 21
13056.61878319976
 31
0.0
  0
SOLID
  5
239
330
235
100
AcDbEntity
  8
1
 62
     3
100
AcDbTrace
 10
5311.2763671875
 20
13054.1579994582
 30
0.0
 11
5311.2763671875
 21
13055.07956694131
 31
0.0
 12
5314.7763671875
 22
13054.61878319976
 32
0.0
 13
5314.7763671875
 23
13054.61878319976
 33
0.0
  0
SOLID
  5
23A
330
235
100
AcDbEntity
  8
1
 62
     3
100
AcDbTrace
 10
5282.276497395834
 20
13055.07956694131
 30
0.0
 11
5282.276497395834
 21
13054.1579994582
 31
0.0
 12
5278.776497395834
 22
13054.61878319976
 32
0.0
 13
5278.776497395834
 23
13054.61878319976
 33
0.0
  0
MTEXT
  5
23B
330
235
100
AcDbEntity
  8
1
 62
     4
100
AcDbMText
 10
5293.918263474705
 20
13056.61878319976
 30
0.0
 40
3.5
 41
0.0
 71
     7
 72
     1
  1
36
  7
CONVERTER_13
 11
0.9999999999970619
 21
2.424068405545306E-6
 31
0.0
 73
     1
 44
0.60024009603842
  0
ENDBLK
  5
23D
330
235
100
AcDbEntity
  8
0
100
AcDbBlockEnd
  0
BLOCK
  5
248
330
240
100
AcDbEntity
  8
0
100
AcDbBlockBegin
  2
*D9
 70
     1
 10
0.0
 20
0.0
 30
0.0
  3
*D9
  1

  0
LINE
  5
241
330
240
100
AcDbEntity
  8
1
  6
Continuous
 62
     3
100
AcDbLine
 10
5174.228515583015
 20
13039.29264051649
 30
0.0
 11
5174.228515583015
 21
13025.79337836371
 31
0.0
  0
LINE
  5
242
330
240
100
AcDbEntity
  8
1
  6
Continuous
 62
     3
100
AcDbLine
 10
5174.228515583015
 20
13052.84772679216
 30
0.0
 11
5174.228515583015
 21
13039.29264051649
 31
0.0
  0
LINE
  5
243
330
240
100
AcDbEntity
  8
1
  6
Continuous
 62
     3
100
AcDbLine
 10
5274.606680496456
 20
13025.79337836371
 30
0.0
 11
5172.228515583015
 21
13025.79337836371
 31
0.0
  0
LINE
  5
244
330
240
100
AcDbEntity
  8
1
  6
Continuous
 62
     3
100
AcDbLine
 10
5182.776500108507
 20
13039.29264051649
 30
0.0
 11
5172.228515583015
 21
13039.29264051649
 31
0.0
  0
SOLID
  5
245
330
240
100
AcDbEntity
  8
1
 62
     3
100
AcDbTrace
 10
5174.689299324571
 20
13035.79264051649
 30
0.0
 11
5173.767731841459
 21
13035.79264051649
 31
0.0
 12
5174.228515583015
 22
13039.29264051649
 32
0.0
 13
5174.228515583015
 23
13039.29264051649
 33
0.0
  0
SOLID
  5
246
330
240
100
AcDbEntity
  8
1
 62
     3
100
AcDbTrace
 10
5173.767731841459
 20
13029.29337836371
 30
0.0
 11
5174.689299324571
 21
13029.29337836371
 31
0.0
 12
5174.228515583015
 22
13025.79337836371
 32
0.0
 13
5174.228515583015
 23
13025.79337836371
 33
0.0
  0
MTEXT
  5
247
330
240
100
AcDbEntity
  8
1
 62
     4
100
AcDbMText
 10
5172.228515583015
 20
13044.36022679216
 30
0.0
 40
3.5
 41
0.0
 71
     7
 72
     1
  1
13.5
  7
CONVERTER_13
 11
0.0
 21
1.0
 31
0.0
 73
     1
 44
0.60024009603842
  0
ENDBLK
  5
249
330
240
100
AcDbEntity
  8
0
100
AcDbBlockEnd
  0
BLOCK
  5
253
330
24C
100
AcDbEntity
  8
0
100
AcDbBlockBegin
  2
*D10
 70
     1
 10
0.0
 20
0.0
 30
0.0
  3
*D10
  1

  0
LINE
  5
24D
330
24C
100
AcDbEntity
  8
1
  6
Continuous
 62
     3
100
AcDbLine
 10
5147.402130361108
 20
13040.90356716579
 30
0.0
 11
5147.402130361108
 21
12974.30298122829
 31
0.0
  0
LINE
  5
24E
330
24C
100
AcDbEntity
  8
1
  6
Continuous
 62
     3
100
AcDbLine
 10
5135.539743694289
 20
12974.30298122829
 30
0.0
 11
5149.402130361108
 21
12974.30298122829
 31
0.0
  0
LINE
  5
24F
330
24C
100
AcDbEntity
  8
1
  6
Continuous
 62
     3
100
AcDbLine
 10
5135.539743694289
 20
13040.90356716579
 30
0.0
 11
5149.402130361108
 21
13040.90356716579
 31
0.0
  0
SOLID
  5
250
330
24C
100
AcDbEntity
  8
1
 62
     3
100
AcDbTrace
 10
5147.862914102664
 20
13037.40356716579
 30
0.0
 11
5146.941346619552
 21
13037.40356716579
 31
0.0
 12
5147.402130361108
 22
13040.90356716579
 32
0.0
 13
5147.402130361108
 23
13040.90356716579
 33
0.0
  0
SOLID
  5
251
330
24C
100
AcDbEntity
  8
1
 62
     3
100
AcDbTrace
 10
5146.941346619552
 20
12977.80298122829
 30
0.0
 11
5147.862914102664
 21
12977.80298122829
 31
0.0
 12
5147.402130361108
 22
12974.30298122829
 32
0.0
 13
5147.402130361108
 23
12974.30298122829
 33
0.0
  0
MTEXT
  5
252
330
24C
100
AcDbEntity
  8
1
 62
     4
100
AcDbMText
 10
5145.402130361108
 20
13001.64344335096
 30
0.0
 40
3.5
 41
0.0
 71
     7
 72
     1
  1
66.6
  7
CONVERTER_13
 11
0.0
 21
1.0
 31
0.0
 73
     1
 44
0.60024009603842
  0
ENDBLK
  5
254
330
24C
100
AcDbEntity
  8
0
100
AcDbBlockEnd
  0
BLOCK
  5
25E
330
257
100
AcDbEntity
  8
0
100
AcDbBlockBegin
  2
*D11
 70
     1
 10
0.0
 20
0.0
 30
0.0
  3
*D11
  1

  0
LINE
  5
258
330
257
100
AcDbEntity
  8
1
  6
Continuous
 62
     3
100
AcDbLine
 10
5472.100108506945
 20
12913.98581245496
 30
0.0
 11
5472.100108506945
 21
12888.98613255044
 31
0.0
  0
LINE
  5
259
330
257
100
AcDbEntity
  8
1
  6
Continuous
 62
     3
100
AcDbLine
 10
5445.776123046875
 20
12888.98613255044
 30
0.0
 11
5474.100108506945
 21
12888.98613255044
 31
0.0
  0
LINE
  5
25A
330
257
100
AcDbEntity
  8
1
  6
Continuous
 62
     3
100
AcDbLine
 10
5446.776578776042
 20
12913.98581245496
 30
0.0
 11
5474.100108506945
 21
12913.98581245496
 31
0.0
  0
SOLID
  5
25B
330
257
100
AcDbEntity
  8
1
 62
     3
100
AcDbTrace
 10
5472.560892248501
 20
12910.48581245496
 30
0.0
 11
5471.639324765389
 21
12910.48581245496
 31
0.0
 12
5472.100108506945
 22
12913.98581245496
 32
0.0
 13
5472.100108506945
 23
12913.98581245496
 33
0.0
  0
SOLID
  5
25C
330
257
100
AcDbEntity
  8
1
 62
     3
100
AcDbTrace
 10
5471.639324765389
 20
12892.48613255044
 30
0.0
 11
5472.560892248501
 21
12892.48613255044
 31
0.0
 12
5472.100108506945
 22
12888.98613255044
 32
0.0
 13
5472.100108506945
 23
12888.98613255044
 33
0.0
  0
MTEXT
  5
25D
330
257
100
AcDbEntity
  8
1
 62
     4
100
AcDbMText
 10
5470.100108506945
 20
12899.36113255044
 30
0.0
 40
3.5
 41
0.0
 71
     7
 72
     1
  1
25
  7
CONVERTER_13
 11
0.0
 21
1.0
 31
0.0
 73
     1
 44
0.60024009603842
  0
ENDBLK
  5
25F
330
257
100
AcDbEntity
  8
0
100
AcDbBlockEnd
  0
BLOCK
  5
266
330
262
100
AcDbEntity
  8
0
100
AcDbBlockBegin
  2
*D12
 70
     1
 10
0.0
 20
0.0
 30
0.0
  3
*D12
  1

  0
LINE
  5
263
330
262
100
AcDbEntity
  8
1
  6
Continuous
 62
     3
100
AcDbLine
 10
5356.35343946164
 20
12905.11154329665
 30
0.0
 11
5373.006881405252
 21
12926.84093328323
 31
0.0
  0
SOLID
  5
264
330
262
100
AcDbEntity
  8
1
 62
     3
100
AcDbTrace
 10
5360.865833741587
 20
12911.75680500697
 30
0.0
 11
5361.597289122722
 21
12911.19621634196
 31
0.0
 12
5359.102514603255
 22
12908.6985330647
 32
0.0
 13
5359.102514603255
 23
12908.6985330647
 33
0.0
  0
MTEXT
  5
265
330
262
100
AcDbEntity
  8
1
 62
     4
100
AcDbMText
 10
5365.788136765802
 20
12920.70978069334
 30
0.0
 40
3.5
 41
0.0
 71
     7
 72
     1
  1
\C4;R\C4;4.5
  7
CONVERTER_13
 11
0.6082990939715397
 21
0.7937078885039532
 31
0.0
 73
     1
 44
0.60024009603842
  0
ENDBLK
  5
267
330
262
100
AcDbEntity
  8
0
100
AcDbBlockEnd
  0
BLOCK
  5
26D
330
269
100
AcDbEntity
  8
0
100
AcDbBlockBegin
  2
*D13
 70
     1
 10
0.0
 20
0.0
 30
0.0
  3
*D13
  1

  0
LINE
  5
26A
330
269
100
AcDbEntity
  8
1
  6
Continuous
 62
     3
100
AcDbLine
 10
5356.06324932167
 20
12895.31788176635
 30
0.0
 11
5371.819074107541
 21
12872.65444213676
 31
0.0
  0
SOLID
  5
26B
330
269
100
AcDbEntity
  8
1
 62
     3
100
AcDbTrace
 10
5359.72689788883
 20
12890.85526131141
 30
0.0
 11
5358.970221140416
 21
12890.32921290647
 31
0.0
 12
5357.35069234697
 22
12893.46600237083
 32
0.0
 13
5357.35069234697
 23
12893.46600237083
 33
0.0
  0
MTEXT
  5
26C
330
269
100
AcDbEntity
  8
1
 62
     4
100
AcDbMText
 10
5366.37878657644
 20
12883.98357837166
 30
0.0
 40
3.5
 41
0.0
 71
     7
 72
     1
  1
\C4;R\C4;2.25
  7
CONVERTER_13
 11
0.5708191907574225
 21
-0.8210757891102629
 31
0.0
 73
     1
 44
0.60024009603842
  0
ENDBLK
  5
26E
330
269
100
AcDbEntity
  8
0
100
AcDbBlockEnd
  0
BLOCK
  5
277
330
270
100
AcDbEntity
  8
0
100
AcDbBlockBegin
  2
*D14
 70
     1
 10
0.0
 20
0.0
 30
0.0
  3
*D14
  1

  0
LINE
  5
271
330
270
100
AcDbEntity
  8
1
  6
Continuous
 62
     3
100
AcDbLine
 10
5357.432636719661
 20
12921.24131807873
 30
0.0
 11
5252.269453388011
 21
12872.53722249376
 31
0.0
  0
ARC
  5
272
330
270
100
AcDbEntity
  8
1
  6
Continuous
 62
     3
100
AcDbCircle
 10
5314.7763671875
 20
12901.4859725027
 30
0.0
 40
41.75883969243291
100
AcDbArc
 50
22.10608479943289
 51
153.1146868569857
  0
ARC
  5
273
330
270
100
AcDbEntity
  8
1
  6
Continuous
 62
     3
100
AcDbCircle
 10
5314.7763671875
 20
12901.4859725027
 30
0.0
 40
41.75883969243261
100
AcDbArc
 50
202.7723912562936
 51
207.5943387772806
  0
SOLID
  5
274
330
270
100
AcDbEntity
  8
1
 62
     3
100
AcDbTrace
 10
5273.901707545724
 20
12882.04794042301
 30
0.0
 11
5273.514421149811
 21
12882.88417954759
 31
0.0
 12
5276.883997732623
 22
12883.93692610258
 32
0.0
 13
5276.883997732623
 23
12883.93692610258
 33
0.0
  0
SOLID
  5
275
330
270
100
AcDbEntity
  8
1
 62
     3
100
AcDbTrace
 10
5355.651026829276
 20
12920.92400458238
 30
0.0
 11
5356.038313225189
 21
12920.0877654578
 31
0.0
 12
5352.668736642377
 22
12919.03501890281
 32
0.0
 13
5352.668736642377
 23
12919.03501890281
 33
0.0
  0
MTEXT
  5
276
330
270
100
AcDbEntity
  8
1
 62
     4
100
AcDbMText
 10
5252.635813150098
 20
12874.91097069539
 30
0.0
 40
3.5
 41
0.0
 71
     7
 72
     1
  1
\C4;{\Fgdt;n}\C4;83.5
  7
CONVERTER_13
 11
0.9074095385304364
 21
0.4202474620791669
 31
0.0
 73
     1
 44
0.60024009603842
  0
ENDBLK
  5
278
330
270
100
AcDbEntity
  8
0
100
AcDbBlockEnd
  0
BLOCK
  5
281
330
27A
100
AcDbEntity
  8
0
100
AcDbBlockBegin
  2
*D15
 70
     1
 10
0.0
 20
0.0
 30
0.0
  3
*D15
  1

  0
LINE
  5
27B
330
27A
100
AcDbEntity
  8
1
  6
Continuous
 62
     3
100
AcDbLine
 10
5225.070942592819
 20
12914.8912637375
 30
0.0
 11
5223.092906758654
 21
12915.18685507492
 31
0.0
  0
LINE
  5
27C
330
27A
100
AcDbEntity
  8
1
  6
Continuous
 62
     3
100
AcDbLine
 10
5264.911951743729
 20
12908.93755098078
 30
0.0
 11
5225.070942592819
 21
12914.8912637375
 31
0.0
  0
ARC
  5
27D
330
27A
100
AcDbEntity
  8
1
  6
Continuous
 62
     3
100
AcDbCircle
 10
5314.7763671875
 20
12901.4859725027
 30
0.0
 40
90.70151616594832
100
AcDbArc
 50
157.3281670941401
 51
183.3164036849543
  0
SOLID
  5
27E
330
27A
100
AcDbEntity
  8
1
 62
     3
100
AcDbTrace
 10
5225.200589914101
 20
12918.41908363491
 30
0.0
 11
5226.109239265897
 21
12918.26532089101
 31
0.0
 12
5225.070942592819
 22
12914.8912637375
 32
0.0
 13
5225.070942592819
 23
12914.8912637375
 33
0.0
  0
SOLID
  5
27F
330
27A
100
AcDbEntity
  8
1
 62
     3
100
AcDbTrace
 10
5224.603074001202
 20
12897.9955137735
 30
0.0
 11
5223.681678044374
 21
12897.97773410338
 31
0.0
 12
5224.074851021552
 22
12901.4859725027
 32
0.0
 13
5224.074851021552
 23
12901.4859725027
 33
0.0
  0
MTEXT
  5
280
330
27A
100
AcDbEntity
  8
1
 62
     4
100
AcDbMText
 10
5226.126678160513
 20
12928.95102459525
 30
0.0
 40
3.5
 41
0.0
 71
     7
 72
     1
  1
8.5{\Fgdt;~}
  7
CONVERTER_13
 11
0.3410820720106589
 21
0.9400335207602524
 31
0.0
 73
     1
 44
0.60024009603842
  0
ENDBLK
  5
282
330
27A
100
AcDbEntity
  8
0
100
AcDbBlockEnd
  0
BLOCK
  5
28C
330
285
100
AcDbEntity
  8
0
100
AcDbBlockBegin
  2
*D16
 70
     1
 10
0.0
 20
0.0
 30
0.0
  3
*D16
  1

  0
LINE
  5
286
330
285
100
AcDbEntity
  8
1
  6
Continuous
 62
     3
100
AcDbLine
 10
5263.123100464837
 20
12896.96692977613
 30
0.0
 11
5236.102847618336
 21
12894.60298099141
 31
0.0
  0
LINE
  5
287
330
285
100
AcDbEntity
  8
1
  6
Continuous
 62
     3
100
AcDbLine
 10
5236.102847618336
 20
12894.60298099141
 30
0.0
 11
5234.110458113156
 21
12894.42867075174
 31
0.0
  0
ARC
  5
288
330
285
100
AcDbEntity
  8
1
  6
Continuous
 62
     3
100
AcDbCircle
 10
5314.7763671875
 20
12901.4859725027
 30
0.0
 40
78.97403531252704
100
AcDbArc
 50
176.1911172291838
 51
195.1418323064406
  0
SOLID
  5
289
330
285
100
AcDbEntity
  8
1
 62
     3
100
AcDbTrace
 10
5235.419212047009
 20
12904.99532299159
 30
0.0
 11
5236.340553281045
 21
12904.97490348145
 31
0.0
 12
5235.802331874973
 22
12901.4859725027
 32
0.0
 13
5235.802331874973
 23
12901.4859725027
 33
0.0
  0
SOLID
  5
28A
330
285
100
AcDbEntity
  8
1
 62
     3
100
AcDbTrace
 10
5236.943099156333
 20
12891.17423500937
 30
0.0
 11
5236.027043518495
 21
12891.07359359486
 31
0.0
 12
5236.102847618336
 22
12894.60298099141
 32
0.0
 13
5236.102847618336
 23
12894.60298099141
 33
0.0
  0
MTEXT
  5
28B
330
285
100
AcDbEntity
  8
1
 62
     4
100
AcDbMText
 10
5239.362030881647
 20
12885.90214701465
 30
0.0
 40
3.5
 41
0.0
 71
     7
 72
     1
  1
5{\Fgdt;~}
  7
CONVERTER_13
 11
0.2312101945771242
 21
-0.97290382151763
 31
0.0
 73
     1
 44
0.60024009603842
  0
ENDBLK
  5
28D
330
285
100
AcDbEntity
  8
0
100
AcDbBlockEnd
  0
ENDSEC
  0
SECTION
  2
ENTITIES
  0
INSERT
  5
71
330
1F
100
AcDbEntity
  8
0
100
AcDbBlockReference
  2
Rahmen
 10
5077.011171247676
 20
12815.22655648776
 30
0.0
  0
LINE
  5
18E
330
1F
100
AcDbEntity
  8
1
  6
Continuous
 62
     1
100
AcDbLine
 10
5182.776500108507
 20
12913.98581245496
 30
0.0
 11
5446.776578776042
 21
12913.98581245496
 31
0.0
  0
LINE
  5
18F
330
1F
100
AcDbEntity
  8
1
  6
DOT_CENTER
 62
     3
100
AcDbLine
 10
5314.7763671875
 20
12901.4859725027
 30
0.0
 11
5363.18505378189
 21
12894.25193347971
 31
0.0
  0
LINE
  5
190
330
1F
100
AcDbEntity
  8
1
  6
DOT_CENTER
 62
     3
100
AcDbLine
 10
5314.7763671875
 20
12901.4859725027
 30
0.0
 11
5363.18505378189
 21
12905.72115329449
 31
0.0
  0
LINE
  5
191
330
1F
100
AcDbEntity
  8
1
  6
DOT_CENTER
 62
     3
100
AcDbLine
 10
5314.7763671875
 20
12901.4859725027
 30
0.0
 11
5263.123100464837
 21
12896.96692977613
 31
0.0
  0
LINE
  5
192
330
1F
100
AcDbEntity
  8
1
  6
DOT_CENTER
 62
     3
100
AcDbLine
 10
5314.7763671875
 20
12901.4859725027
 30
0.0
 11
5452.030377248425
 21
12901.4859725027
 31
0.0
  0
LINE
  5
193
330
1F
100
AcDbEntity
  8
1
  6
DOT_CENTER
 62
     3
100
AcDbLine
 10
5314.7763671875
 20
12901.4859725027
 30
0.0
 11
5314.7763671875
 21
12884.31586253381
 31
0.0
  0
LINE
  5
195
330
1F
100
AcDbEntity
  8
1
  6
DOT_CENTER
 62
     3
100
AcDbLine
 10
5314.7763671875
 20
12901.4859725027
 30
0.0
 11
5264.911951743729
 21
12908.93755098078
 31
0.0
  0
LINE
  5
196
330
1F
100
AcDbEntity
  8
1
  6
DOT_CENTER
 62
     3
100
AcDbLine
 10
5177.030377248425
 20
12901.4859725027
 30
0.0
 11
5314.7763671875
 21
12901.4859725027
 31
0.0
  0
LINE
  5
197
330
1F
100
AcDbEntity
  8
1
  6
DOT_CENTER
 62
     3
100
AcDbLine
 10
5314.7763671875
 20
12919.31586253381
 30
0.0
 11
5314.7763671875
 21
12901.4859725027
 31
0.0
  0
LINE
  5
198
330
1F
100
AcDbEntity
  8
1
  6
DOT_CENTER
 62
     3
100
AcDbLine
 10
5314.7763671875
 20
12965.25582119756
 30
0.0
 11
5314.7763671875
 21
13049.11047363281
 31
0.0
  0
LINE
  5
199
330
1F
100
AcDbEntity
  8
1
  6
DOT_CENTER
 62
     3
100
AcDbLine
 10
5274.606680496456
 20
13025.79337836372
 30
0.0
 11
5282.878484957325
 21
13025.79337836372
 31
0.0
  0
LINE
  5
19A
330
1F
100
AcDbEntity
  8
1
  6
DOT_CENTER
 62
     3
100
AcDbLine
 10
5278.776497395834
 20
13029.39370777246
 30
0.0
 11
5278.776497395834
 21
13022.08249995866
 31
0.0
  0
LINE
  5
19B
330
1F
100
AcDbEntity
  8
1
  6
DOT_CENTER
 62
     3
100
AcDbLine
 10
5399.249588089296
 20
13025.79337836372
 30
0.0
 11
5407.975364393946
 21
13025.79337836372
 31
0.0
  0
LINE
  5
19C
330
1F
100
AcDbEntity
  8
1
  6
DOT_CENTER
 62
     3
100
AcDbLine
 10
5403.776274956597
 20
13029.91387531266
 30
0.0
 11
5403.776274956597
 21
13021.66952114896
 31
0.0
  0
ARC
  5
1C3
330
1F
100
AcDbEntity
  8
1
  6
DOT_CENTER
 62
     3
100
AcDbCircle
 10
5314.7763671875
 20
12901.4859725027
 30
0.0
 40
41.75883969243261
100
AcDbArc
 50
337.2276087437064
 51
26.88531314301207
  0
ARC
  5
1C4
330
1F
100
AcDbEntity
  8
1
  6
DOT_CENTER
 62
     3
100
AcDbCircle
 10
5314.7763671875
 20
12901.4859725027
 30
0.0
 40
41.75883969243179
100
AcDbArc
 50
153.1146868569879
 51
202.7723912562936
  0
SPLINE
  5
1C5
330
1F
100
AcDbEntity
  8
Ceiling_Bracket
  6
Continuous
 62
     1
100
AcDbSpline
210
0.0
220
0.0
230
1.0
 70
     8
 71
     3
 72
     9
 73
     5
 74
     3
 42
0.0000000001
 43
0.0000000001
 44
0.00000001
 40
0.0
 40
0.0
 40
0.0
 40
0.0
 40
2.786868448220754
 40
5.535377711986515
 40
5.535377711986515
 40
5.535377711986515
 40
5.535377711986515
 10
5354.275075954703
 20
12901.13905136934
 30
0.0
 10
5354.250929403005
 20
12900.20970332073
 30
0.0
 10
5354.202968659047
 20
12898.36379901253
 30
0.0
 10
5353.963395499264
 20
12896.5329024238
 30
0.0
 10
5353.844439019097
 20
12895.62379802353
 30
0.0
 11
5354.275075954703
 21
12901.13905136934
 31
0.0
 11
5354.154066975223
 21
12898.35481133397
 31
0.0
 11
5353.844439019097
 21
12895.62379802353
 31
0.0
  0
SPLINE
  5
1C6
330
1F
100
AcDbEntity
  8
Ceiling_Bracket
  6
Continuous
 62
     1
100
AcDbSpline
210
0.0
220
0.0
230
1.0
 70
     8
 71
     3
 72
    17
 73
    13
 74
    11
 42
0.0000000001
 43
0.0000000001
 44
0.00000001
 40
0.0
 40
0.0
 40
0.0
 40
0.0
 40
0.7997245799566843
 40
1.582542594423483
 40
2.369149257124127
 40
3.184248789527228
 40
4.077720294707252
 40
4.940252023376734
 40
5.802720015517238
 40
6.695997356180791
 40
6.864014014255428
 40
7.029542052302504
 40
7.029542052302504
 40
7.029542052302504
 40
7.029542052302504
 10
5271.259299045139
 20
12907.98927925183
 30
0.0
 10
5271.326364139838
 20
12908.25027640575
 30
0.0
 10
5271.459076540606
 20
12908.76675310718
 30
0.0
 10
5271.982617673598
 20
12909.39013557807
 30
0.0
 10
5272.673648295465
 20
12909.80908963406
 30
0.0
 10
5273.511114549165
 20
12909.96152464594
 30
0.0
 10
5274.374199189157
 20
12909.78854574816
 30
0.0
 10
5275.115224446941
 20
12909.28721567414
 30
0.0
 10
5275.616857280768
 20
12908.54706420403
 30
0.0
 10
5275.745014103926
 20
12907.89881370872
 30
0.0
 10
5275.731275819062
 20
12907.48989776796
 30
0.0
 10
5275.717529032667
 20
12907.37950492595
 30
0.0
 10
5275.710706922743
 20
12907.32472033256
 30
0.0
 11
5271.259299045139
 21
12907.98927925183
 31
0.0
 11
5271.515910212199
 21
12908.74671579223
 31
0.0
 11
5272.008650377062
 21
12909.35500122991
 31
0.0
 11
5272.68309779697
 21
12909.75981071546
 31
0.0
 11
5273.484830729167
 21
12909.9068193994
 31
0.0
 11
5274.360633214314
 21
12909.7300106395
 31
0.0
 11
5275.075818888346
 21
12909.24785876029
 31
0.0
 11
5275.558008448284
 21
12908.53277536253
 31
0.0
 11
5275.734822591146
 21
12907.65717204697
 31
0.0
 11
5275.728707546658
 21
12907.48926670572
 31
0.0
 11
5275.710706922743
 21
12907.32472033256
 31
0.0
  0
SPLINE
  5
1C7
330
1F
100
AcDbEntity
  8
Ceiling_Bracket
  6
Continuous
 62
     1
100
AcDbSpline
210
0.0
220
0.0
230
1.0
 70
     8
 71
     3
 72
     9
 73
     5
 74
     3
 42
0.0000000001
 43
0.0000000001
 44
0.00000001
 40
0.0
 40
0.0
 40
0.0
 40
0.0
 40
3.217826504892443
 40
6.38986348872574
 40
6.38986348872574
 40
6.38986348872574
 40
6.38986348872574
 10
5358.775748697917
 20
12901.32336399575
 30
0.0
 10
5358.752742124234
 20
12900.25012255006
 30
0.0
 10
5358.707056359339
 20
12898.11891183437
 30
0.0
 10
5358.431569656038
 20
12896.00511749377
 30
0.0
 10
5358.294813368056
 20
12894.95579400878
 30
0.0
 11
5358.775748697917
 21
12901.32336399575
 31
0.0
 11
5358.648452419705
 21
12898.10805637856
 31
0.0
 11
5358.294813368056
 21
12894.95579400878
 31
0.0
  0
SPLINE
  5
1C8
330
1F
100
AcDbEntity
  8
Ceiling_Bracket
  6
Continuous
 62
     1
100
AcDbSpline
210
0.0
220
0.0
230
1.0
 70
     8
 71
     3
 72
    43
 73
    39
 74
    37
 42
0.0000000001
 43
0.0000000001
 44
0.00000001
 40
0.0
 40
0.0
 40
0.0
 40
0.0
 40
0.0003445095444476
 40
0.0006890190888953
 40
0.052192803531878
 40
0.103148387161308
 40
0.1536187331499637
 40
0.2036619934619708
 40
0.2533316042384453
 40
0.3026764386917946
 40
0.3517410134651874
 40
0.4005657436112844
 40
0.4491872408515497
 40
0.4976386495628687
 40
0.5459500149937454
 40
0.594148678391959
 40
0.6422596941515814
 40
0.6903062643888012
 40
0.7383101868965999
 40
0.7862923127546083
 40
0.8342730102269742
 40
0.8822726318082093
 40
0.9303119814025872
 40
0.9784127786457069
 40
1.026598117199472
 40
1.074892913726909
 40
1.123324343796773
 40
1.171922260690792
 40
1.220719592578067
 40
1.269752713135293
 40
1.319061780335852
 40
1.368691037880746
 40
1.418689073702117
 40
1.469109030156573
 40
1.520008760993908
 40
1.571450930994705
 40
1.572053822705219
 40
1.572139950092695
 40
1.572139950092695
 40
1.572139950092695
 40
1.572139950092695
 10
5321.77611219618
 20
12902.48677274141
 30
0.0
 10
5321.776112194578
 20
12902.48665790488
 30
0.0
 10
5321.776112191375
 20
12902.48642823183
 30
0.0
 10
5321.7761134049
 20
12902.46903063992
 30
0.0
 10
5321.775252455344
 20
12902.43475623141
 30
0.0
 10
5321.771388759432
 20
12902.38390547869
 30
0.0
 10
5321.765025112108
 20
12902.33379656582
 30
0.0
 10
5321.756223269223
 20
12902.28449402034
 30
0.0
 10
5321.745046949396
 20
12902.23606017073
 30
0.0
 10
5321.731559337132
 20
12902.18855784905
 30
0.0
 10
5321.715823729832
 20
12902.14204968365
 30
0.0
 10
5321.697903355579
 20
12902.09659829582
 30
0.0
 10
5321.677861413128
 20
12902.05226625833
 30
0.0
 10
5321.655761055373
 20
12902.00911611771
 30
0.0
 10
5321.631665390176
 20
12901.96721039979
 30
0.0
 10
5321.605637478618
 20
12901.92661161938
 30
0.0
 10
5321.577740335713
 20
12901.88738228841
 30
0.0
 10
5321.548036931982
 20
12901.84958492373
 30
0.0
 10
5321.516590196009
 20
12901.81328205417
 30
0.0
 10
5321.4834630178
 20
12901.77853622714
 30
0.0
 10
5321.44871825279
 20
12901.74541001436
 30
0.0
 10
5321.412418726517
 20
12901.71396601729
 30
0.0
 10
5321.374627239808
 20
12901.68426687165
 30
0.0
 10
5321.335406574694
 20
12901.6563752516
 30
0.0
 10
5321.294819500772
 20
12901.63035387306
 30
0.0
 10
5321.252928782369
 20
12901.60626549636
 30
0.0
 10
5321.209797186275
 20
12901.58417292784
 30
0.0
 10
5321.165487489827
 20
12901.56413902074
 30
0.0
 10
5321.120062490602
 20
12901.54622667308
 30
0.0
 10
5321.073585011962
 20
12901.53049883034
 30
0.0
 10
5321.026117925335
 20
12901.51701846231
 30
0.0
 10
5320.977724108932
 20
12901.5058486288
 30
0.0
 10
5320.9284666438
 20
12901.49705220054
 30
0.0
 10
5320.878408109374
 20
12901.49069287275
 30
0.0
 10
5320.827613275653
 20
12901.48683128267
 30
0.0
 10
5320.793291893904
 20
12901.48597006954
 30
0.0
 10
5320.77591484919
 20
12901.48597250428
 30
0.0
 10
5320.775685176144
 20
12901.48597250287
 30
0.0
 10
5320.775656467014
 20
12901.4859725027
 30
0.0
 11
5321.77611219618
 21
12902.48677274141
 31
0.0
 11
5321.77611219618
 21
12902.48642823186
 31
0.0
 11
5321.77611219618
 21
12902.48608372232
 31
0.0
 11
5321.774810591837
 21
12902.43459638759
 31
0.0
 11
5321.770947749085
 21
12902.38378743219
 31
0.0
 11
5321.764586623343
 21
12902.33371955922
 31
0.0
 11
5321.755790170034
 21
12902.28445547177
 31
0.0
 11
5321.744621344573
 21
12902.23605787294
 31
0.0
 11
5321.731143102381
 21
12902.18858946582
 31
0.0
 11
5321.715418398877
 21
12902.1421129535
 31
0.0
 11
5321.69751018948
 21
12902.09669103908
 31
0.0
 11
5321.67748142961
 21
12902.05238642564
 31
0.0
 11
5321.655395074685
 21
12902.00926181628
 31
0.0
 11
5321.631314080125
 21
12901.96737991409
 31
0.0
 11
5321.605301401351
 21
12901.92680342217
 31
0.0
 11
5321.577419993779
 21
12901.88759504362
 31
0.0
 11
5321.547732812828
 21
12901.84981748151
 31
0.0
 11
5321.51630281392
 21
12901.81353343894
 31
0.0
 11
5321.483192952473
 21
12901.77880561902
 31
0.0
 11
5321.448466183908
 21
12901.74569672482
 31
0.0
 11
5321.412185463641
 21
12901.71426945945
 31
0.0
 11
5321.374413747092
 21
12901.68458652599
 31
0.0
 11
5321.335213989682
 21
12901.65671062755
 31
0.0
 11
5321.294649146828
 21
12901.6307044672
 31
0.0
 11
5321.252782173951
 21
12901.60663074805
 31
0.0
 11
5321.20967602647
 21
12901.58455217319
 31
0.0
 11
5321.165393659804
 21
12901.56453144571
 31
0.0
 11
5321.119998029371
 21
12901.5466312687
 31
0.0
 11
5321.073552090593
 21
12901.53091434525
 31
0.0
 11
5321.026118798885
 21
12901.51744337847
 31
0.0
 11
5320.977761109671
 21
12901.50628107144
 31
0.0
 11
5320.928541978366
 21
12901.49749012726
 31
0.0
 11
5320.878524360392
 21
12901.49113324901
 31
0.0
 11
5320.827771211169
 21
12901.48727313979
 31
0.0
 11
5320.776345486112
 21
12901.4859725027
 31
0.0
 11
5320.775742594402
 21
12901.4859725027
 31
0.0
 11
5320.775656467014
 21
12901.4859725027
 31
0.0
  0
SPLINE
  5
1C9
330
1F
100
AcDbEntity
  8
Ceiling_Bracket
  6
Continuous
 62
     1
100
AcDbSpline
210
0.0
220
0.0
230
1.0
 70
     8
 71
     3
 72
    41
 73
    37
 74
    35
 42
0.0000000001
 43
0.0000000001
 44
0.00000001
 40
0.0
 40
0.0
 40
0.0
 40
0.0
 40
0.0514724710167879
 40
0.102398588411022
 40
0.1528411669690064
 40
0.2028582362043485
 40
0.2525031368114739
 40
0.3018246742661505
 40
0.3508673255566526
 40
0.3996714942172546
 40
0.4482738083629449
 40
0.4967074561911517
 40
0.5450025534892528
 40
0.5931865378695268
 40
0.6412845848037236
 40
0.6893200409801448
 40
0.7373148708526651
 40
0.7852901126835318
 40
0.833266340737203
 40
0.8812641304322153
 40
0.9293045234470718
 40
0.9774094897457338
 40
1.025602383367707
 40
1.073908388618049
 40
1.122354952960551
 40
1.170972202505573
 40
1.219793335637449
 40
1.268854989812126
 40
1.318197576340273
 40
1.367865577646312
 40
1.417907801540231
 40
1.468377587205485
 40
1.519332958106901
 40
1.570836717849114
 40
1.571181227393562
 40
1.571525736938009
 40
1.571525736938009
 40
1.571525736938009
 40
1.571525736938009
 10
5285.776242404514
 20
12901.4859725027
 30
0.0
 10
5285.759083046736
 20
12901.48622185097
 30
0.0
 10
5285.724946468878
 20
12901.48671790079
 30
0.0
 10
5285.674124049248
 20
12901.49072260257
 30
0.0
 10
5285.624042927678
 20
12901.49704403315
 30
0.0
 10
5285.574765971996
 20
12901.50585039536
 30
0.0
 10
5285.526356028388
 20
12901.51701752157
 30
0.0
 10
5285.478875871513
 20
12901.53049854909
 30
0.0
 10
5285.432388225081
 20
12901.54622617596
 30
0.0
 10
5285.386955765714
 20
12901.56413855891
 30
0.0
 10
5285.342641132519
 20
12901.5841724529
 30
0.0
 10
5285.299506935783
 20
12901.60626503888
 30
0.0
 10
5285.257615766041
 20
12901.63035344141
 30
0.0
 10
5285.217030202839
 20
12901.65637485853
 30
0.0
 10
5285.177812822988
 20
12901.68426652689
 30
0.0
 10
5285.140026208315
 20
12901.71396572925
 30
0.0
 10
5285.103732952763
 20
12901.74540978958
 30
0.0
 10
5285.068995668838
 20
12901.77853607024
 30
0.0
 10
5285.035876993452
 20
12901.8132819678
 30
0.0
 10
5285.004439593189
 20
12901.84958490849
 30
0.0
 10
5284.974746168911
 20
12901.88738234284
 30
0.0
 10
5284.946859459803
 20
12901.92661173991
 30
0.0
 10
5284.920842246704
 20
12901.96721058076
 30
0.0
 10
5284.896757354631
 20
12902.0091163514
 30
0.0
 10
5284.874667654389
 20
12902.05226653502
 30
0.0
 10
5284.854636063192
 20
12902.09659860388
 30
0.0
 10
5284.836725542998
 20
12902.14205000974
 30
0.0
 10
5284.820999101256
 20
12902.18855817832
 30
0.0
 10
5284.807519774463
 20
12902.23606048713
 30
0.0
 10
5284.796350668122
 20
12902.28449430695
 30
0.0
 10
5284.787554774724
 20
12902.33379680559
 30
0.0
 10
5284.781195620389
 20
12902.3839056539
 30
0.0
 10
5284.777334769842
 20
12902.43475632805
 30
0.0
 10
5284.776474486745
 20
12902.46903064777
 30
0.0
 10
5284.776475699246
 20
12902.48642823183
 30
0.0
 10
5284.776475696045
 20
12902.48665790488
 30
0.0
 10
5284.776475694444
 20
12902.48677274141
 30
0.0
 11
5285.776242404514
 21
12901.4859725027
 31
0.0
 11
5285.724786368758
 21
12901.48727313979
 31
0.0
 11
5285.674006756809
 21
12901.49113324901
 31
0.0
 11
5285.623966334843
 21
12901.49749012726
 31
0.0
 11
5285.574727869034
 21
12901.50628107144
 31
0.0
 11
5285.526354125556
 21
12901.51744337847
 31
0.0
 11
5285.478907870584
 21
12901.53091434525
 31
0.0
 11
5285.432451870293
 21
12901.5466312687
 31
0.0
 11
5285.387048890856
 21
12901.56453144571
 31
0.0
 11
5285.342761698448
 21
12901.58455217319
 31
0.0
 11
5285.299653059245
 21
12901.60663074805
 31
0.0
 11
5285.257785739419
 21
12901.6307044672
 31
0.0
 11
5285.217222505145
 21
12901.65671062755
 31
0.0
 11
5285.1780261226
 21
12901.68458652599
 31
0.0
 11
5285.140259357956
 21
12901.71426945945
 31
0.0
 11
5285.103984977388
 21
12901.74569672482
 31
0.0
 11
5285.069265747071
 21
12901.77880561902
 31
0.0
 11
5285.036164433178
 21
12901.81353343894
 31
0.0
 11
5285.004743801886
 21
12901.84981748151
 31
0.0
 11
5284.975066619367
 21
12901.88759504362
 31
0.0
 11
5284.947195651795
 21
12901.92680342217
 31
0.0
 11
5284.921193665349
 21
12901.96737991409
 31
0.0
 11
5284.897123426199
 21
12902.00926181628
 31
0.0
 11
5284.875047700521
 21
12902.05238642564
 31
0.0
 11
5284.85502925449
 21
12902.09669103907
 31
0.0
 11
5284.837130854279
 21
12902.1421129535
 31
0.0
 11
5284.821415266064
 21
12902.18858946582
 31
0.0
 11
5284.807945256018
 21
12902.23605787294
 31
0.0
 11
5284.796783590316
 21
12902.28445547177
 31
0.0
 11
5284.787993035134
 21
12902.33371955922
 31
0.0
 11
5284.781636356645
 21
12902.38378743219
 31
0.0
 11
5284.777776321024
 21
12902.43459638759
 31
0.0
 11
5284.776475694444
 21
12902.48608372232
 31
0.0
 11
5284.776475694444
 21
12902.48642823186
 31
0.0
 11
5284.776475694444
 21
12902.48677274141
 31
0.0
  0
SPLINE
  5
1CA
330
1F
100
AcDbEntity
  8
Ceiling_Bracket
  6
Continuous
 62
     1
100
AcDbSpline
210
0.0
220
0.0
230
1.0
 70
     8
 71
     3
 72
    54
 73
    50
 74
    48
 42
0.0000000001
 43
0.0000000001
 44
0.00000001
 40
0.0
 40
0.0
 40
0.0
 40
0.0
 40
0.0366636046069707
 40
0.0730414509522054
 40
0.1091569386160847
 40
0.145032227382579
 40
0.180688246824659
 40
0.2161447136895191
 40
0.2514201568267544
 40
0.2865319492828493
 40
0.321496347174127
 40
0.3563285348671208
 40
0.391042675984915
 40
0.4256519697168877
 40
0.4601687119247997
 40
0.494604360524654
 40
0.5289696046692828
 40
0.563274437218821
 40
0.5975282300779321
 40
0.6317398119526147
 40
0.6659175481542884
 40
0.7000694220511988
 40
0.7342031178632806
 40
0.7683261044386487
 40
0.8024457197558497
 40
0.8365692558228929
 40
0.8707040437379792
 40
0.9048575386037875
 40
0.9390374040369348
 40
0.973251595980797
 40
1.007508445525992
 40
1.041816740428047
 40
1.076185804968574
 40
1.110625577805814
 40
1.145146687411174
 40
1.179760524701908
 40
1.214479312367943
 40
1.24931617045942
 40
1.284285177751921
 40
1.319401428313912
 40
1.354681082855488
 40
1.390141414269917
 40
1.425800846928876
 40
1.461678989233731
 40
1.497796659062171
 40
1.534175901698307
 40
1.570840000000981
 40
1.5713137006321
 40
1.571529019100791
 40
1.571529019100791
 40
1.571529019100791
 40
1.571529019100791
 10
5183.776266818577
 20
12888.98578804089
 30
0.0
 10
5183.764044946699
 20
12888.98591463687
 30
0.0
 10
5183.739696460922
 20
12888.98616684213
 30
0.0
 10
5183.703355955951
 20
12888.98820417663
 30
0.0
 10
5183.667371421057
 20
12888.99143078784
 30
0.0
 10
5183.631765451397
 20
12888.99594200835
 30
0.0
 10
5183.596560644462
 20
12889.00168386986
 30
0.0
 10
5183.56177958636
 20
12889.00864199415
 30
0.0
 10
5183.527444855818
 20
12889.01679149741
 30
0.0
 10
5183.493579023703
 20
12889.02611028878
 30
0.0
 10
5183.46020465387
 20
12889.03657553878
 30
0.0
 10
5183.427344303811
 20
12889.04816461929
 30
0.0
 10
5183.3950205254
 20
12889.06085485419
 30
0.0
 10
5183.363255865745
 20
12889.0746235866
 30
0.0
 10
5183.332072867982
 20
12889.08944816139
 30
0.0
 10
5183.301494072142
 20
12889.10530593024
 30
0.0
 10
5183.271542015962
 20
12889.12217425057
 30
0.0
 10
5183.242239235694
 20
12889.14003048589
 30
0.0
 10
5183.213608266888
 20
12889.15885200571
 30
0.0
 10
5183.185671645124
 20
12889.17861618545
 30
0.0
 10
5183.158451906726
 20
12889.19930040627
 30
0.0
 10
5183.131971589394
 20
12889.22088205481
 30
0.0
 10
5183.106253232854
 20
12889.24333852295
 30
0.0
 10
5183.0813193794
 20
12889.26664720746
 30
0.0
 10
5183.057192574453
 20
12889.29078550957
 30
0.0
 10
5183.033895367039
 20
12889.31573083464
 30
0.0
 10
5183.011450310248
 20
12889.34146059162
 30
0.0
 10
5182.989879961672
 20
12889.36795219266
 30
0.0
 10
5182.969206883741
 20
12889.39518305245
 30
0.0
 10
5182.949453644093
 20
12889.42313058775
 30
0.0
 10
5182.930642815844
 20
12889.45177221674
 30
0.0
 10
5182.912796977826
 20
12889.48108535833
 30
0.0
 10
5182.895938714753
 20
12889.51104743153
 30
0.0
 10
5182.880090617349
 20
12889.54163585467
 30
0.0
 10
5182.865275282348
 20
12889.57282804463
 30
0.0
 10
5182.851515312459
 20
12889.60460141607
 30
0.0
 10
5182.8388333162
 20
12889.63693338056
 30
0.0
 10
5182.82725190758
 20
12889.66980134576
 30
0.0
 10
5182.816793705945
 20
12889.70318271465
 30
0.0
 10
5182.807481334606
 20
12889.73705488443
 30
0.0
 10
5182.799337423323
 20
12889.77139524701
 30
0.0
 10
5182.792384595979
 20
12889.80618118345
 30
0.0
 10
5182.786645512867
 20
12889.8413900816
 30
0.0
 10
5182.782142707351
 20
12889.87699926713
 30
0.0
 10
5182.778899196119
 20
12889.91298626107
 30
0.0
 10
5182.776936172942
 20
12889.94932780722
 30
0.0
 10
5182.77649883533
 20
12889.97383580124
 30
0.0
 10
5182.776500112102
 20
12889.98628683374
 30
0.0
 10
5182.776500109363
 20
12889.98651650678
 30
0.0
 10
5182.776500108507
 20
12889.98658827961
 30
0.0
 11
5183.776266818577
 21
12888.98578804089
 31
0.0
 11
5183.739609150098
 21
12888.98644777148
 31
0.0
 11
5183.703284365743
 21
12888.9884118861
 31
0.0
 11
5183.667315035848
 21
12888.99165776906
 31
0.0
 11
5183.631723730752
 21
12888.99616280465
 31
0.0
 11
5183.596533020791
 21
12889.00190437716
 31
0.0
 11
5183.561765476305
 21
12889.00885987088
 31
0.0
 11
5183.527443667631
 21
12889.01700667012
 31
0.0
 11
5183.493590165104
 21
12889.02632215917
 31
0.0
 11
5183.460227539063
 21
12889.03678372231
 31
0.0
 11
5183.427378359846
 21
12889.04836874386
 31
0.0
 11
5183.395065197789
 21
12889.0610546081
 31
0.0
 11
5183.363310623233
 21
12889.07481869933
 31
0.0
 11
5183.33213720651
 21
12889.08963840184
 31
0.0
 11
5183.301567517962
 21
12889.10549109992
 31
0.0
 11
5183.271624127926
 21
12889.12235417788
 31
0.0
 11
5183.242329606738
 21
12889.14020502001
 31
0.0
 11
5183.213706524735
 21
12889.1590210106
 31
0.0
 11
5183.185777452257
 21
12889.17877953395
 31
0.0
 11
5183.15856495964
 21
12889.19945797435
 31
0.0
 11
5183.132091617221
 21
12889.22103371609
 31
0.0
 11
5183.106379995339
 21
12889.24348414348
 31
0.0
 11
5183.081452664329
 21
12889.26678664081
 31
0.0
 11
5183.057332194531
 21
12889.29091859237
 31
0.0
 11
5183.034041156283
 21
12889.31585738246
 31
0.0
 11
5183.011602119919
 21
12889.34158039536
 31
0.0
 11
5182.99003765578
 21
12889.36806501539
 31
0.0
 11
5182.969370334202
 21
12889.39528862683
 31
0.0
 11
5182.949622725521
 21
12889.42322861398
 31
0.0
 11
5182.930817400078
 21
12889.45186236113
 31
0.0
 11
5182.912976928209
 21
12889.48116725257
 31
0.0
 11
5182.89612388025
 21
12889.51112067261
 31
0.0
 11
5182.88028082654
 21
12889.54170000553
 31
0.0
 11
5182.865470337417
 21
12889.57288263564
 31
0.0
 11
5182.851714983217
 21
12889.60464594722
 31
0.0
 11
5182.839037334278
 21
12889.63696732458
 31
0.0
 11
5182.827459960938
 21
12889.669824152
 31
0.0
 11
5182.817005433534
 21
12889.70319381379
 31
0.0
 11
5182.807696322403
 21
12889.73705369423
 31
0.0
 11
5182.799555197886
 21
12889.77138117763
 31
0.0
 11
5182.792604630315
 21
12889.80615364827
 31
0.0
 11
5182.786867190031
 21
12889.84134849045
 31
0.0
 11
5182.78236544737
 21
12889.87694308847
 31
0.0
 11
5182.779121972671
 21
12889.91291482663
 31
0.0
 11
5182.777159336271
 21
12889.94924108921
 31
0.0
 11
5182.776500108507
 21
12889.98589926051
 31
0.0
 11
5182.776500108507
 21
12889.98637296114
 31
0.0
 11
5182.776500108507
 21
12889.98658827961
 31
0.0
  0
SPLINE
  5
1CB
330
1F
100
AcDbEntity
  8
Ceiling_Bracket
  6
Continuous
 62
     1
100
AcDbSpline
210
0.0
220
0.0
230
1.0
 70
     8
 71
     3
 72
    56
 73
    52
 74
    50
 42
0.0000000001
 43
0.0000000001
 44
0.00000001
 40
0.0
 40
0.0
 40
0.0
 40
0.0
 40
0.0002153184686904
 40
0.0006890190998092
 40
0.0373531265148068
 40
0.0737324503590059
 40
0.1098503429914203
 40
0.1457289161832556
 40
0.1813890510617261
 40
0.216850415861393
 40
0.2521314912054261
 40
0.2872496025458118
 40
0.3222209593552929
 40
0.3570607006374593
 40
0.3917829462026179
 40
0.426400853267013
 40
0.4609266778075857
 40
0.495371840165329
 40
0.5297469944504739
 40
0.5640621012040749
 40
0.5983265029009428
 40
0.6325490018825852
 40
0.6667379402781154
 40
0.7009012816095055
 40
0.7350466936685078
 40
0.7691816324266697
 40
0.8033134266040102
 40
0.8374493626501636
 40
0.8715967698835508
 40
0.9057631054415695
 40
0.9399560388498166
 40
0.9741835358671687
 40
1.008453941319471
 40
1.042776060639388
 40
1.077159239699033
 40
1.111613442657346
 40
1.146149327362127
 40
1.180778317903667
 40
1.21551267387922
 40
1.250365555879783
 40
1.28535108672366
 40
1.320484407880368
 40
1.355781730647063
 40
1.39126038148514
 40
1.426938841085665
 40
1.462836776687357
 40
1.498975067225639
 40
1.535375820968138
 40
1.572062385381989
 40
1.572406894930984
 40
1.57275140447907
 40
1.57275140447907
 40
1.57275140447907
 40
1.57275140447907
 10
5446.776578776042
 20
12889.98658827961
 30
0.0
 10
5446.776578775187
 20
12889.98651650678
 30
0.0
 10
5446.776578772445
 20
12889.98628683373
 30
0.0
 10
5446.776580050255
 20
12889.9738357983
 30
0.0
 10
5446.776142374871
 20
12889.94932777051
 30
0.0
 10
5446.774177841979
 20
12889.91298618999
 30
0.0
 10
5446.770931843488
 20
12889.87699916249
 30
0.0
 10
5446.766425595024
 20
12889.84138994551
 30
0.0
 10
5446.760682136526
 20
12889.80618101799
 30
0.0
 10
5446.753724024249
 20
12889.77139505453
 30
0.0
 10
5446.745573941493
 20
12889.73705466745
 30
0.0
 10
5446.736254535147
 20
12889.70318247577
 30
0.0
 10
5446.725788457939
 20
12889.66980108766
 30
0.0
 10
5446.714198356192
 20
12889.63693310601
 30
0.0
 10
5446.701506872208
 20
12889.60460112779
 30
0.0
 10
5446.687736642974
 20
12889.57282774534
 30
0.0
 10
5446.67291029995
 20
12889.54163554702
 30
0.0
 10
5446.657050468774
 20
12889.51104711813
 30
0.0
 10
5446.640179769094
 20
12889.48108504167
 30
0.0
 10
5446.622320814526
 20
12889.45177189922
 30
0.0
 10
5446.603496212658
 20
12889.42313027165
 30
0.0
 10
5446.583728565184
 20
12889.39518273991
 30
0.0
 10
5446.563040468055
 20
12889.36795188569
 30
0.0
 10
5446.541454511736
 20
12889.3414602921
 30
0.0
 10
5446.518993281476
 20
12889.31573054428
 30
0.0
 10
5446.495679357654
 20
12889.29078522996
 30
0.0
 10
5446.471535316152
 20
12889.26664694001
 30
0.0
 10
5446.446583728781
 20
12889.24333826896
 30
0.0
 10
5446.420847163714
 20
12889.22088181536
 30
0.0
 10
5446.394348186021
 20
12889.19930018231
 30
0.0
 10
5446.367109358161
 20
12889.17861597777
 30
0.0
 10
5446.339153240581
 20
12889.15885181492
 30
0.0
 10
5446.310502392329
 20
12889.14003031242
 30
0.0
 10
5446.281179371702
 20
12889.12217409465
 30
0.0
 10
5446.251206736957
 20
12889.10530579193
 30
0.0
 10
5446.220607047034
 20
12889.08944804055
 30
0.0
 10
5446.189402862352
 20
12889.07462348284
 30
0.0
 10
5446.157616745581
 20
12889.06085476713
 30
0.0
 10
5446.1252712625
 20
12889.04816454751
 30
0.0
 10
5446.092388982834
 20
12889.03657548363
 30
0.0
 10
5446.058992481
 20
12889.0261102404
 30
0.0
 10
5446.025104337253
 20
12889.01679148685
 30
0.0
 10
5445.990747137167
 20
12889.00864189786
 30
0.0
 10
5445.955943477188
 20
12889.00168414454
 30
0.0
 10
5445.920715946959
 20
12888.99594092655
 30
0.0
 10
5445.885087198557
 20
12888.991434846
 30
0.0
 10
5445.849079687881
 20
12888.98818887747
 30
0.0
 10
5445.812716651153
 20
12888.98622459053
 30
0.0
 10
5445.788237060566
 20
12888.9857871792
 30
0.0
 10
5445.775778537352
 20
12888.98578804569
 30
0.0
 10
5445.775548864302
 20
12888.98578804249
 30
0.0
 10
5445.775434027778
 20
12888.98578804089
 30
0.0
 11
5446.776578776042
 21
12889.98658827961
 31
0.0
 11
5446.776578776042
 21
12889.98637296114
 31
0.0
 11
5446.776578776042
 21
12889.98589926051
 31
0.0
 11
5446.775919041675
 21
12889.94924108921
 31
0.0
 11
5446.773954900585
 21
12889.91291482663
 31
0.0
 11
5446.770708945795
 21
12889.87694308847
 31
0.0
 11
5446.766203770326
 21
12889.84134849045
 31
0.0
 11
5446.7604619672
 21
12889.80615364827
 31
0.0
 11
5446.753506129437
 21
12889.77138117763
 31
0.0
 11
5446.745358850058
 21
12889.73705369423
 31
0.0
 11
5446.736042722086
 21
12889.70319381379
 31
0.0
 11
5446.725580338542
 21
12889.669824152
 31
0.0
 11
5446.713994292446
 21
12889.63696732458
 31
0.0
 11
5446.701307176819
 21
12889.60464594722
 31
0.0
 11
5446.687541584684
 21
12889.57288263564
 31
0.0
 11
5446.672720109061
 21
12889.54170000553
 31
0.0
 11
5446.656865342971
 21
12889.51112067261
 31
0.0
 11
5446.639999879437
 21
12889.48116725257
 31
0.0
 11
5446.622146311479
 21
12889.45186236112
 31
0.0
 11
5446.603327232117
 21
12889.42322861398
 31
0.0
 11
5446.583565234375
 21
12889.39528862683
 31
0.0
 11
5446.562882911273
 21
12889.36806501539
 31
0.0
 11
5446.541302855831
 21
12889.34158039536
 31
0.0
 11
5446.518847661073
 21
12889.31585738246
 31
0.0
 11
5446.495539920018
 21
12889.29091859237
 31
0.0
 11
5446.471402225687
 21
12889.26678664081
 31
0.0
 11
5446.446457171104
 21
12889.24348414348
 31
0.0
 11
5446.420727349287
 21
12889.22103371609
 31
0.0
 11
5446.394235353258
 21
12889.19945797435
 31
0.0
 11
5446.367003776042
 21
12889.17877953395
 31
0.0
 11
5446.339055210655
 21
12889.1590210106
 31
0.0
 11
5446.310412250123
 21
12889.14020502001
 31
0.0
 11
5446.281097487461
 21
12889.12235417788
 31
0.0
 11
5446.251133515696
 21
12889.10549109992
 31
0.0
 11
5446.220542927847
 21
12889.08963840184
 31
0.0
 11
5446.189348316937
 21
12889.07481869933
 31
0.0
 11
5446.157572275984
 21
12889.0610546081
 31
0.0
 11
5446.125237398011
 21
12889.04836874386
 31
0.0
 11
5446.092366276042
 21
12889.03678372232
 31
0.0
 11
5446.058981503093
 21
12889.02632215916
 31
0.0
 11
5446.02510567219
 21
12889.01700667012
 31
0.0
 11
5445.990761376351
 21
12889.00885987088
 31
0.0
 11
5445.955971208597
 21
12889.00190437716
 31
0.0
 11
5445.920757761953
 21
12888.99616280465
 31
0.0
 11
5445.885143629437
 21
12888.99165776906
 31
0.0
 11
5445.849151404071
 21
12888.9884118861
 31
0.0
 11
5445.812803678877
 21
12888.98644777148
 31
0.0
 11
5445.776123046875
 21
12888.98578804089
 31
0.0
 11
5445.775778537326
 21
12888.98578804089
 31
0.0
 11
5445.775434027778
 21
12888.98578804089
 31
0.0
  0
SPLINE
  5
1CC
330
1F
100
AcDbEntity
  8
Ceiling_Bracket
  6
Continuous
 62
     1
100
AcDbSpline
210
0.0
220
0.0
230
1.0
 70
     8
 71
     3
 72
     9
 73
     5
 74
     3
 42
0.0000000001
 43
0.0000000001
 44
0.00000001
 40
0.0
 40
0.0
 40
0.0
 40
0.0
 40
2.786733781180412
 40
5.535385978588852
 40
5.535385978588852
 40
5.535385978588852
 40
5.535385978588852
 10
5275.277658420139
 20
12901.83289361815
 30
0.0
 10
5275.301743526894
 20
12902.76220002216
 30
0.0
 10
5275.349584609932
 20
12904.60811356917
 30
0.0
 10
5275.589274769662
 20
12906.4390011401
 30
0.0
 10
5275.708295355903
 20
12907.34814698187
 30
0.0
 11
5275.277658420139
 21
12901.83289361815
 31
0.0
 11
5275.398538208008
 21
12904.61700447156
 31
0.0
 11
5275.708295355903
 21
12907.34814698187
 31
0.0
  0
SPLINE
  5
1CD
330
1F
100
AcDbEntity
  8
Ceiling_Bracket
  6
Continuous
 62
     1
100
AcDbSpline
210
0.0
220
0.0
230
1.0
 70
     8
 71
     3
 72
     9
 73
     5
 74
     3
 42
0.0000000001
 43
0.0000000001
 44
0.00000001
 40
0.0
 40
0.0
 40
0.0
 40
0.0
 40
3.217960707988259
 40
6.389854905125267
 40
6.389854905125267
 40
6.389854905125267
 40
6.389854905125267
 10
5270.776641167535
 20
12901.6482365001
 30
0.0
 10
5270.799709201873
 20
12902.7215196405
 30
0.0
 10
5270.845515041578
 20
12904.85272140509
 30
0.0
 10
5271.12088442081
 20
12906.96652448759
 30
0.0
 10
5271.257576497396
 20
12908.01580648707
 30
0.0
 11
5270.776641167535
 21
12901.6482365001
 31
0.0
 11
5270.904066636827
 21
12904.86367330836
 31
0.0
 11
5271.257576497396
 21
12908.01580648707
 31
0.0
  0
SPLINE
  5
1CE
330
1F
100
AcDbEntity
  8
Ceiling_Bracket
  6
Continuous
 62
     1
100
AcDbSpline
210
0.0
220
0.0
230
1.0
 70
     8
 71
     3
 72
    15
 73
    11
 74
     9
 42
0.0000000001
 43
0.0000000001
 44
0.00000001
 40
0.0
 40
0.0
 40
0.0
 40
0.0
 40
2.38142704940448
 40
4.831682544887911
 40
8.275824936226593
 40
11.71996732756443
 40
15.16410971890396
 40
18.60825211024194
 40
20.88179652705816
 40
23.08556974952189
 40
23.08556974952189
 40
23.08556974952189
 40
23.08556974952189
 10
5275.279036458333
 20
12901.83151557996
 30
0.0
 10
5275.929825017613
 20
12901.34447019237
 30
0.0
 10
5277.250211347761
 20
12900.35630274111
 30
0.0
 10
5278.011347836147
 20
12897.49860677308
 30
0.0
 10
5276.717033737697
 20
12894.3240107089
 30
0.0
 10
5273.185267737869
 20
12892.85920086456
 30
0.0
 10
5269.652539842067
 20
12894.32285939074
 30
0.0
 10
5268.385276513537
 20
12897.44248769979
 30
0.0
 10
5269.05270812737
 20
12900.16337537625
 30
0.0
 10
5270.206150901868
 20
12901.15798989083
 30
0.0
 10
5270.773885091146
 20
12901.647547481
 30
0.0
 11
5275.279036458333
 21
12901.83151557996
 31
0.0
 11
5277.018594360352
 21
12900.20512906466
 31
0.0
 11
5277.685091145833
 21
12897.84726265027
 31
0.0
 11
5276.367083740233
 21
12894.66528633191
 31
0.0
 11
5273.185107421875
 21
12893.34727892631
 31
0.0
 11
5270.003131103515
 21
12894.66528633191
 31
0.0
 11
5268.685123697916
 21
12897.84726265027
 31
0.0
 11
5269.258732096355
 21
12900.04725756401
 31
0.0
 11
5270.773885091146
 21
12901.647547481
 31
0.0
  0
SPLINE
  5
1CF
330
1F
100
AcDbEntity
  8
Ceiling_Bracket
  6
Continuous
 62
     1
100
AcDbSpline
210
0.0
220
0.0
230
1.0
 70
     8
 71
     3
 72
    17
 73
    13
 74
    11
 42
0.0000000001
 43
0.0000000001
 44
0.00000001
 40
0.0
 40
0.0
 40
0.0
 40
0.0
 40
0.799760020357184
 40
1.582619244531989
 40
2.369273013477953
 40
3.184525211427914
 40
4.078193013358203
 40
4.940830610245144
 40
5.803404467941836
 40
6.696878103649851
 40
6.864854884067809
 40
7.030150035047845
 40
7.030150035047845
 40
7.030150035047845
 40
7.030150035047845
 10
5358.293435329862
 20
12894.98266575357
 30
0.0
 10
5358.226381758227
 20
12894.72165586185
 30
0.0
 10
5358.093691613456
 20
12894.20515182673
 30
0.0
 10
5357.570260487139
 20
12893.58163575202
 30
0.0
 10
5356.87921057801
 20
12893.16252564848
 30
0.0
 10
5356.041604655438
 20
12893.0100724648
 30
0.0
 10
5355.178362498693
 20
12893.18303795528
 30
0.0
 10
5354.437202609364
 20
12893.68441014972
 30
0.0
 10
5353.93547872922
 20
12894.42471932562
 30
0.0
 10
5353.807466967315
 20
12895.07302884559
 30
0.0
 10
5353.821057075329
 20
12895.48195724727
 30
0.0
 10
5353.835305214918
 20
12895.59220154678
 30
0.0
 10
5353.842371961806
 20
12895.64688016329
 30
0.0
 11
5358.293435329862
 21
12894.98266575357
 31
0.0
 11
5358.036872609458
 21
12894.22517538356
 31
0.0
 11
5357.54421318902
 21
12893.61677152071
 31
0.0
 11
5356.869781917996
 21
12893.21184361001
 31
0.0
 11
5356.067903645833
 21
12893.06478109645
 31
0.0
 11
5355.191901991103
 21
12893.24159523931
 31
0.0
 11
5354.476614040799
 21
12893.72378479925
 31
0.0
 11
5353.994386800131
 21
12894.43897047328
 31
0.0
 11
5353.817567274306
 21
12895.31477295843
 31
0.0
 11
5353.823768446181
 21
12895.48263523599
 31
0.0
 11
5353.842371961806
 21
12895.64688016329
 31
0.0
  0
SPLINE
  5
1D0
330
1F
100
AcDbEntity
  8
Ceiling_Bracket
  6
Continuous
 62
     1
100
AcDbSpline
210
0.0
220
0.0
230
1.0
 70
     8
 71
     3
 72
    15
 73
    11
 74
     9
 42
0.0000000001
 43
0.0000000001
 44
0.00000001
 40
0.0
 40
0.0
 40
0.0
 40
0.0
 40
2.381433195886172
 40
4.831777874964604
 40
8.275920266303286
 40
11.72006265764113
 40
15.16420504897996
 40
18.60834744031962
 40
20.88187012898484
 40
23.08593944803442
 40
23.08593944803442
 40
23.08593944803442
 40
23.08593944803442
 10
5354.273697916667
 20
12901.14042942544
 30
0.0
 10
5353.622840882445
 20
12901.62741635527
 30
0.0
 10
5352.302292977447
 20
12902.61548214566
 30
0.0
 10
5351.54147497352
 20
12905.4733461132
 30
0.0
 10
5352.83567125662
 20
12908.64792193619
 30
0.0
 10
5356.367469511351
 20
12910.1127500033
 30
0.0
 10
5359.900212416724
 20
12908.64907452512
 30
0.0
 10
5361.167390903067
 20
12905.52949758203
 30
0.0
 10
5360.500156234226
 20
12902.80840678026
 30
0.0
 10
5359.346423286683
 20
12901.81392536936
 30
0.0
 10
5358.778504774306
 20
12901.3243975244
 30
0.0
 11
5354.273697916667
 21
12901.14042942544
 31
0.0
 11
5352.534010823568
 21
12902.76668674966
 31
0.0
 11
5351.867643229167
 21
12905.12468235513
 31
0.0
 11
5353.185650634767
 21
12908.30665867349
 31
0.0
 11
5356.367626953125
 21
12909.62466607909
 31
0.0
 11
5359.549603271485
 21
12908.30665867349
 31
0.0
 11
5360.867610677084
 21
12905.12468235513
 31
0.0
 11
5360.294088406034
 21
12902.92468744139
 31
0.0
 11
5358.778504774306
 21
12901.3243975244
 31
0.0
  0
SPLINE
  5
1D1
330
1F
100
AcDbEntity
  8
Ceiling_Bracket
  6
Continuous
 62
     1
100
AcDbSpline
210
0.0
220
0.0
230
1.0
 70
     8
 71
     3
 72
    43
 73
    39
 74
    37
 42
0.0000000001
 43
0.0000000001
 44
0.00000001
 40
0.0
 40
0.0
 40
0.0
 40
0.0
 40
0.0001722547731333
 40
0.0013780381905235
 40
0.0527576552984146
 40
0.1035990872383283
 40
0.1539651670011478
 40
0.2039138656079507
 40
0.2534983928223589
 40
0.302767355916953
 40
0.3517649722080257
 40
0.4005313303558879
 40
0.4491026949129142
 40
0.4975118484122324
 40
0.5457884653852796
 40
0.5939595129702147
 40
0.6420496730643022
 40
0.6900817815309005
 40
0.7380772803168056
 40
0.7860566787996585
 40
0.8340400210278394
 40
0.8820473557173161
 40
0.9300992060558859
 40
0.9782170362893763
 40
1.026423712027035
 40
1.074743950905883
 40
1.123204759937752
 40
1.171835855480448
 40
1.220670061307185
 40
1.269743679849333
 40
1.319096831300948
 40
1.36877375505239
 40
1.41882306788397
 40
1.469297973481231
 40
1.520256418386849
 40
1.571761190261617
 40
1.572105699810612
 40
1.572450209358697
 40
1.572450209358697
 40
1.572450209358697
 40
1.572450209358697
 10
5446.776578776042
 20
12975.2937906901
 30
0.0
 10
5446.776578775347
 20
12975.29373327184
 30
0.0
 10
5446.776578769794
 20
12975.29327392573
 30
0.0
 10
5446.776583661594
 20
12975.27568807733
 30
0.0
 10
5446.77572042355
 20
12975.24120599084
 30
0.0
 10
5446.771854342643
 20
12975.19046973592
 30
0.0
 10
5446.765490631475
 20
12975.14046603662
 30
0.0
 10
5446.756687676369
 20
12975.09125977628
 30
0.0
 10
5446.745509933811
 20
12975.04291366298
 30
0.0
 10
5446.732020238584
 20
12974.99549090134
 30
0.0
 10
5446.716281825024
 20
12974.94905449358
 30
0.0
 10
5446.698357780711
 20
12974.90366743438
 30
0.0
 10
5446.678311183176
 20
12974.85939267005
 30
0.0
 10
5446.656205057821
 20
12974.816293121
 30
0.0
 10
5446.632102385704
 20
12974.77443168727
 30
0.0
 10
5446.606066100129
 20
12974.73387125847
 30
0.0
 10
5446.578159087978
 20
12974.69467472176
 30
0.0
 10
5446.548444191266
 20
12974.65690496984
 30
0.0
 10
5446.516984209871
 20
12974.62062490792
 30
0.0
 10
5446.483841904949
 20
12974.58589746027
 30
0.0
 10
5446.449080003059
 20
12974.55278557604
 30
0.0
 10
5446.412761200838
 20
12974.52135223447
 30
0.0
 10
5446.374948170324
 20
12974.49166044959
 30
0.0
 10
5446.335703564807
 20
12974.46377327419
 30
0.0
 10
5446.295090025346
 20
12974.43775380321
 30
0.0
 10
5446.253170187857
 20
12974.41366517629
 30
0.0
 10
5446.210006690964
 20
12974.39157057945
 30
0.0
 10
5446.165662184048
 20
12974.37153324573
 30
0.0
 10
5446.120199337033
 20
12974.35361645361
 30
0.0
 10
5446.07368084591
 20
12974.33788352777
 30
0.0
 10
5446.026169455118
 20
12974.32439782274
 30
0.0
 10
5445.977727916104
 20
12974.31322276288
 30
0.0
 10
5445.928419184083
 20
12974.30442166012
 30
0.0
 10
5445.878305710912
 20
12974.2980583613
 30
0.0
 10
5445.827452147672
 20
12974.29419475047
 30
0.0
 10
5445.793176458683
 20
12974.29333375243
 30
0.0
 10
5445.775778537361
 20
12974.29333496574
 30
0.0
 10
5445.775548864305
 20
12974.29333496254
 30
0.0
 10
5445.775434027778
 20
12974.29333496094
 30
0.0
 11
5446.776578776042
 21
12975.2937906901
 31
0.0
 11
5446.776578776042
 21
12975.29361843533
 31
0.0
 11
5446.776578776042
 21
12975.29241265191
 31
0.0
 11
5446.775277150671
 21
12975.24104952481
 31
0.0
 11
5446.771414160728
 21
12975.19035506248
 31
0.0
 11
5446.765052635471
 21
12975.14039234652
 31
0.0
 11
5446.756255404154
 21
12975.09122445848
 31
0.0
 11
5446.745085296036
 21
12975.04291447997
 31
0.0
 11
5446.731605140368
 21
12974.99552549256
 31
0.0
 11
5446.715877766411
 21
12974.94912057784
 31
0.0
 11
5446.697966003418
 21
12974.90376281738
 31
0.0
 11
5446.677932680647
 21
12974.85951529278
 31
0.0
 11
5446.655840627353
 21
12974.8164410856
 31
0.0
 11
5446.631752672792
 21
12974.77460327744
 31
0.0
 11
5446.60573164622
 21
12974.73406494988
 31
0.0
 11
5446.577840376894
 21
12974.6948891845
 31
0.0
 11
5446.548141694069
 21
12974.65713906288
 31
0.0
 11
5446.516698427002
 21
12974.62087766661
 31
0.0
 11
5446.483573404948
 21
12974.58616807726
 31
0.0
 11
5446.448829457164
 21
12974.55307337642
 31
0.0
 11
5446.412529412906
 21
12974.52165664567
 31
0.0
 11
5446.374736101428
 21
12974.4919809666
 31
0.0
 11
5446.33551235199
 21
12974.46410942078
 31
0.0
 11
5446.294920993845
 21
12974.4381050898
 31
0.0
 11
5446.25302485625
 21
12974.41403105524
 31
0.0
 11
5446.209886768461
 21
12974.39195039868
 31
0.0
 11
5446.165569559733
 21
12974.37192620171
 31
0.0
 11
5446.120136059324
 21
12974.35402154591
 31
0.0
 11
5446.073649096489
 21
12974.33829951286
 31
0.0
 11
5446.026171500484
 21
12974.32482318415
 31
0.0
 11
5445.977766100566
 21
12974.31365564135
 31
0.0
 11
5445.92849572599
 21
12974.30485996604
 31
0.0
 11
5445.878423206012
 21
12974.29849923982
 31
0.0
 11
5445.827611369888
 21
12974.29463654426
 31
0.0
 11
5445.776123046875
 21
12974.29333496094
 31
0.0
 11
5445.775778537326
 21
12974.29333496094
 31
0.0
 11
5445.775434027778
 21
12974.29333496094
 31
0.0
  0
SPLINE
  5
1D2
330
1F
100
AcDbEntity
  8
Ceiling_Bracket
  6
Continuous
 62
     1
100
AcDbSpline
210
0.0
220
0.0
230
1.0
 70
     8
 71
     3
 72
    32
 73
    28
 74
    26
 42
0.0000000001
 43
0.0000000001
 44
0.00000001
 40
0.0
 40
0.0
 40
0.0
 40
0.0
 40
0.0714544951559281
 40
0.1418999320863267
 40
0.2114981515005427
 40
0.280393134123068
 40
0.3487117972450315
 40
0.4165651742156307
 40
0.4840499256862008
 40
0.5512501269243022
 40
0.6182392757315112
 40
0.6850824693894747
 40
0.7518387045707665
 40
0.8185632601922089
 40
0.8853101282834763
 40
0.9521344613717895
 40
1.019095006113046
 40
1.086256491762686
 40
1.153691938699227
 40
1.221484847085573
 40
1.28973121974052
 40
1.358541367562744
 40
1.428041441815727
 40
1.498374637015695
 40
1.569702012385605
 40
1.570907795802995
 40
1.571080050576129
 40
1.571080050576129
 40
1.571080050576129
 40
1.571080050576129
 10
5183.776266818577
 20
12974.29333496094
 30
0.0
 10
5183.752443598971
 20
12974.2938160125
 30
0.0
 10
5183.705133583881
 20
12974.29477132238
 30
0.0
 10
5183.634967900782
 20
12974.30247520003
 30
0.0
 10
5183.566336596471
 20
12974.31457779275
 30
0.0
 10
5183.499408962838
 20
12974.33135079434
 30
0.0
 10
5183.434354013681
 20
12974.35250580491
 30
0.0
 10
5183.371340356563
 20
12974.3779022619
 30
0.0
 10
5183.31053633042
 20
12974.40736087899
 30
0.0
 10
5183.252110083391
 20
12974.44071302659
 30
0.0
 10
5183.196229666944
 20
12974.47778767109
 30
0.0
 10
5183.143063119554
 20
12974.51841484372
 30
0.0
 10
5183.092778543372
 20
12974.5624246967
 30
0.0
 10
5183.045544171569
 20
12974.60964771768
 30
0.0
 10
5183.001528427212
 20
12974.65991462275
 30
0.0
 10
5182.960899973354
 20
12974.71305632389
 30
0.0
 10
5182.923827755995
 20
12974.76890386659
 30
0.0
 10
5182.890481032764
 20
12974.82728836159
 30
0.0
 10
5182.861029407379
 20
12974.88804091775
 30
0.0
 10
5182.835642782552
 20
12974.95099252263
 30
0.0
 10
5182.814491542149
 20
12975.01597408377
 30
0.0
 10
5182.7977457702
 20
12975.08281583905
 30
0.0
 10
5182.785577991601
 20
12975.15134915179
 30
0.0
 10
5182.778152434748
 20
12975.22139930567
 30
0.0
 10
5182.776493335114
 20
12975.269038859
 30
0.0
 10
5182.776500114796
 20
12975.29327392572
 30
0.0
 10
5182.776500109205
 20
12975.29373327184
 30
0.0
 10
5182.776500108507
 20
12975.2937906901
 30
0.0
 11
5183.776266818577
 21
12974.29333496094
 31
0.0
 11
5183.704856476134
 21
12974.29584650832
 31
0.0
 11
5183.634803048837
 21
12974.30326789014
 31
0.0
 11
5183.566275577702
 21
12974.31542921595
 31
0.0
 11
5183.499443103737
 21
12974.33216059528
 31
0.0
 11
5183.434474667959
 21
12974.35329213766
 31
0.0
 11
5183.371539311378
 21
12974.37865395263
 31
0.0
 11
5183.310806075011
 21
12974.40807614972
 31
0.0
 11
5183.252443999867
 21
12974.44138883846
 31
0.0
 11
5183.19662212696
 21
12974.47842212839
 31
0.0
 11
5183.143509497305
 21
12974.51900612905
 31
0.0
 11
5183.093275151913
 21
12974.56297094997
 31
0.0
 11
5183.046088131798
 21
12974.61014670068
 31
0.0
 11
5183.002117477973
 21
12974.66036349073
 31
0.0
 11
5182.961532231449
 21
12974.71345142963
 31
0.0
 11
5182.924501433243
 21
12974.76924062694
 31
0.0
 11
5182.891194124364
 21
12974.82756119218
 31
0.0
 11
5182.861779345827
 21
12974.88824323489
 31
0.0
 11
5182.836426138645
 21
12974.9511168646
 31
0.0
 11
5182.81530354383
 21
12975.01601219085
 31
0.0
 11
5182.798580602396
 21
12975.08275932317
 31
0.0
 11
5182.786426355355
 21
12975.1511883711
 31
0.0
 11
5182.779009843722
 21
12975.22112944417
 31
0.0
 11
5182.776500108507
 21
12975.29241265191
 31
0.0
 11
5182.776500108507
 21
12975.29361843533
 31
0.0
 11
5182.776500108507
 21
12975.2937906901
 31
0.0
  0
SPLINE
  5
1D3
330
1F
100
AcDbEntity
  8
Ceiling_Bracket
  6
Continuous
 62
     1
100
AcDbSpline
210
0.0
220
0.0
230
1.0
 70
    11
 71
     3
 72
    15
 73
    11
 74
     9
 42
0.0000000001
 43
0.0000000001
 44
0.00000001
 40
0.0
 40
0.0
 40
0.0
 40
0.0
 40
1.530672355568941
 40
3.060913901884483
 40
4.592269466029941
 40
6.123007757421568
 40
7.654024534660058
 40
9.185396571434339
 40
10.71565460237067
 40
12.24660545578046
 40
12.24660545578046
 40
12.24660545578046
 40
12.24660545578046
 10
5278.776497395834
 20
13027.79291178385
 30
0.0
 10
5279.298874937249
 20
13027.66795891462
 30
0.0
 10
5280.343482996403
 20
13027.41808834428
 30
0.0
 10
5280.992738169323
 20
13025.77743842667
 30
0.0
 10
5280.343843077508
 20
13024.23008326304
 30
0.0
 10
5278.776417444788
 20
13023.57371589811
 30
0.0
 10
5277.208895661294
 20
13024.22999351666
 30
0.0
 10
5276.559884507798
 20
13025.77743696157
 30
0.0
 10
5277.20926331483
 20
13027.41818932343
 30
0.0
 10
5278.254007218918
 20
13027.66798545216
 30
0.0
 10
5278.776497395834
 20
13027.79291178385
 30
0.0
 11
5278.776497395834
 21
13027.79291178385
 31
0.0
 11
5280.190622965495
 21
13027.20707329644
 31
0.0
 11
5280.776375325521
 21
13025.79337836372
 31
0.0
 11
5280.190622965495
 21
13024.37847764757
 31
0.0
 11
5278.776497395834
 21
13023.79246690538
 31
0.0
 11
5277.362070380317
 21
13024.37847764757
 31
0.0
 11
5276.776274956597
 21
13025.79337836372
 31
0.0
 11
5277.362070380317
 21
13027.20707329644
 31
0.0
 11
5278.776497395834
 21
13027.79291178385
 31
0.0
  0
SPLINE
  5
1D4
330
1F
100
AcDbEntity
  8
Ceiling_Bracket
  6
Continuous
 62
     1
100
AcDbSpline
210
0.0
220
0.0
230
1.0
 70
    11
 71
     3
 72
    15
 73
    11
 74
     9
 42
0.0000000001
 43
0.0000000001
 44
0.00000001
 40
0.0
 40
0.0
 40
0.0
 40
0.0
 40
1.530831496127388
 40
3.061138987131663
 40
4.592560447995023
 40
6.123457873090906
 40
7.65435529818595
 40
9.18577675904931
 40
10.71608425005324
 40
12.24691574618062
 40
12.24691574618062
 40
12.24691574618062
 40
12.24691574618062
 10
5403.776274956597
 20
13027.79291178385
 30
0.0
 10
5404.298698034539
 20
13027.66796845403
 30
0.0
 10
5405.343365364492
 20
13027.41812456261
 30
0.0
 10
5405.992972558593
 20
13025.77743670669
 30
0.0
 10
5405.343729226647
 20
13024.23005602293
 30
0.0
 10
5403.776274956598
 20
13023.57370978757
 30
0.0
 10
5402.208820686546
 20
13024.23005602293
 30
0.0
 10
5401.559577354603
 20
13025.77743670668
 30
0.0
 10
5402.209184548701
 20
13027.41812456262
 30
0.0
 10
5403.253851878654
 20
13027.66796845403
 30
0.0
 10
5403.776274956597
 20
13027.79291178385
 30
0.0
 11
5403.776274956597
 21
13027.79291178385
 31
0.0
 11
5405.190572781033
 21
13027.20707329644
 31
0.0
 11
5405.776497395834
 21
13025.79337836372
 31
0.0
 11
5405.190572781033
 21
13024.37847764757
 31
0.0
 11
5403.776274956597
 21
13023.79246690538
 31
0.0
 11
5402.361977132163
 21
13024.37847764757
 31
0.0
 11
5401.776052517362
 21
13025.79337836372
 31
0.0
 11
5402.361977132162
 21
13027.20707329644
 31
0.0
 11
5403.776274956597
 21
13027.79291178385
 31
0.0
  0
LWPOLYLINE
  5
1D5
330
1F
100
AcDbEntity
  8
Ceiling_Bracket
  6
Continuous
 62
     7
100
AcDbPolyline
 90
        2
 70
     0
 43
0.09
 10
5137.539277114427
 20
12974.3029812283
 10
5150.253057496372
 20
12974.3029812283
  0
LWPOLYLINE
  5
1D6
330
1F
100
AcDbEntity
  8
Ceiling_Bracket
  6
Continuous
 62
     7
100
AcDbPolyline
 90
        2
 70
     0
 43
0.09
 10
5137.539277114427
 20
13040.9035671658
 10
5150.253057496372
 20
13040.9035671658
  0
LWPOLYLINE
  5
1D7
330
1F
100
AcDbEntity
  8
Ceiling_Bracket
  6
Continuous
 62
     1
100
AcDbPolyline
 90
        2
 70
     0
 43
0.0
 10
5286.776353624132
 20
12912.38591011121
 10
5303.026180013021
 20
12912.38591011121
  0
LWPOLYLINE
  5
1D8
330
1F
100
AcDbEntity
  8
Ceiling_Bracket
  6
Continuous
 62
     1
100
AcDbPolyline
 90
        2
 70
     0
 43
0.0
 10
5297.713842773437
 20
12901.4859725027
 10
5299.721299913194
 20
12901.4859725027
  0
LWPOLYLINE
  5
1D9
330
1F
100
AcDbEntity
  8
Ceiling_Bracket
  6
Continuous
 62
     1
100
AcDbPolyline
 90
        2
 70
     0
 43
0.0
 10
5290.688259548611
 20
12901.4859725027
 10
5295.706385633681
 20
12901.4859725027
  0
LWPOLYLINE
  5
1DA
330
1F
100
AcDbEntity
  8
Ceiling_Bracket
  6
Continuous
 62
     1
100
AcDbPolyline
 90
        2
 70
     0
 43
0.0
 10
5285.669788953993
 20
12901.4859725027
 10
5290.688259548611
 20
12901.4859725027
  0
LWPOLYLINE
  5
1DB
330
1F
100
AcDbEntity
  8
Ceiling_Bracket
  6
Continuous
 62
     1
100
AcDbPolyline
 90
        2
 70
     0
 43
0.0
 10
5111.539830499844
 20
13040.9035671658
 10
5111.539830499844
 20
13039.30366482205
  0
LWPOLYLINE
  5
1DC
330
1F
100
AcDbEntity
  8
Ceiling_Bracket
  6
Continuous
 62
     1
100
AcDbPolyline
 90
        2
 70
     0
 43
0.0
 10
5133.939841350539
 20
12975.30343695746
 10
5135.539743694289
 20
12975.30343695746
  0
LWPOLYLINE
  5
1DD
330
1F
100
AcDbEntity
  8
Ceiling_Bracket
  6
Continuous
 62
     1
100
AcDbPolyline
 90
        2
 70
     0
 43
0.0
 10
5135.539743694289
 20
13040.9035671658
 10
5135.539743694289
 20
12975.30343695746
  0
LWPOLYLINE
  5
1DE
330
1F
100
AcDbEntity
  8
Ceiling_Bracket
  6
Continuous
 62
     1
100
AcDbPolyline
 90
        2
 70
     0
 43
0.0
 10
5135.539743694289
 20
12975.30343695746
 10
5135.539743694289
 20
12974.3029812283
  0
LWPOLYLINE
  5
1DF
330
1F
100
AcDbEntity
  8
Ceiling_Bracket
  6
Continuous
 62
     1
100
AcDbPolyline
 90
        2
 70
     0
 43
0.0
 10
5133.939841350539
 20
13039.30366482205
 10
5133.939841350539
 20
12975.30343695746
  0
LWPOLYLINE
  5
1E0
330
1F
100
AcDbEntity
  8
Ceiling_Bracket
  6
Continuous
 62
     1
100
AcDbPolyline
 90
        2
 70
     0
 43
0.0
 10
5133.939841350539
 20
12974.3029812283
 10
5133.939841350539
 20
12975.30343695746
  0
LWPOLYLINE
  5
1E1
330
1F
100
AcDbEntity
  8
Ceiling_Bracket
  6
Continuous
 62
     1
100
AcDbPolyline
 90
        2
 70
     0
 43
0.0
 10
5135.539743694289
 20
13040.9035671658
 10
5111.539830499844
 20
13040.9035671658
  0
LWPOLYLINE
  5
1E2
330
1F
100
AcDbEntity
  8
Ceiling_Bracket
  6
Continuous
 62
     1
100
AcDbPolyline
 90
        2
 70
     0
 43
0.0
 10
5110.539374770678
 20
13040.9035671658
 10
5111.539830499844
 20
13040.9035671658
  0
LWPOLYLINE
  5
1E3
330
1F
100
AcDbEntity
  8
Ceiling_Bracket
  6
Continuous
 62
     1
100
AcDbPolyline
 90
        2
 70
     0
 43
0.0
 10
5110.539374770678
 20
13039.30366482205
 10
5110.539374770678
 20
13040.9035671658
  0
LWPOLYLINE
  5
1E4
330
1F
100
AcDbEntity
  8
Ceiling_Bracket
  6
Continuous
 62
     1
100
AcDbPolyline
 90
        2
 70
     0
 43
0.0
 10
5135.539743694289
 20
12974.3029812283
 10
5133.939841350539
 20
12974.3029812283
  0
LWPOLYLINE
  5
1E5
330
1F
100
AcDbEntity
  8
Ceiling_Bracket
  6
Continuous
 62
     1
100
AcDbPolyline
 90
        2
 70
     0
 43
0.0
 10
5111.539830499844
 20
13039.30366482205
 10
5110.539374770678
 20
13039.30366482205
  0
LWPOLYLINE
  5
1E6
330
1F
100
AcDbEntity
  8
Ceiling_Bracket
  6
Continuous
 62
     1
100
AcDbPolyline
 90
        2
 70
     0
 43
0.0
 10
5111.539830499844
 20
13039.30366482205
 10
5133.939841350539
 20
13039.30366482205
  0
LWPOLYLINE
  5
1E7
330
1F
100
AcDbEntity
  8
Ceiling_Bracket
  6
Continuous
 62
     1
100
AcDbPolyline
 90
        2
 70
     0
 43
0.0
 10
5321.77611219618
 20
12912.38591011121
 10
5284.776475694444
 20
12912.38591011121
  0
LWPOLYLINE
  5
1E8
330
1F
100
AcDbEntity
  8
Ceiling_Bracket
  6
Continuous
 62
     1
100
AcDbPolyline
 90
        3
 70
     0
 43
0.0
 10
5285.776242404514
 20
12901.4859725027
 10
5314.7763671875
 20
12901.4859725027
 10
5320.776345486112
 20
12901.4859725027
  0
LWPOLYLINE
  5
1E9
330
1F
100
AcDbEntity
  8
Ceiling_Bracket
  6
Continuous
 62
     1
100
AcDbPolyline
 90
        2
 70
     0
 43
0.0
 10
5445.776123046875
 20
12888.98613255044
 10
5183.776266818577
 20
12888.98613255044
  0
LWPOLYLINE
  5
1EA
330
1F
100
AcDbEntity
  8
Ceiling_Bracket
  6
Continuous
 62
     1
100
AcDbPolyline
 90
        2
 70
     0
 43
0.0
 10
5321.77611219618
 20
12902.48608372232
 10
5321.77611219618
 20
12912.38591011121
  0
LWPOLYLINE
  5
1EB
330
1F
100
AcDbEntity
  8
Ceiling_Bracket
  6
Continuous
 62
     1
100
AcDbPolyline
 90
        2
 70
     0
 43
0.0
 10
5284.776475694444
 20
12912.38591011121
 10
5284.776475694444
 20
12902.48608372232
  0
LWPOLYLINE
  5
1EC
330
1F
100
AcDbEntity
  8
Ceiling_Bracket
  6
Continuous
 62
     1
100
AcDbPolyline
 90
        2
 70
     0
 43
0.0
 10
5182.776500108507
 20
12889.98589926051
 10
5182.776500108507
 20
12913.98581245496
  0
LWPOLYLINE
  5
1ED
330
1F
100
AcDbEntity
  8
Ceiling_Bracket
  6
Continuous
 62
     1
100
AcDbPolyline
 90
        2
 70
     0
 43
0.0
 10
5446.776578776042
 20
12913.98581245496
 10
5446.776578776042
 20
12889.98589926051
  0
LWPOLYLINE
  5
1EE
330
1F
100
AcDbEntity
  8
Ceiling_Bracket
  6
Continuous
 62
     1
100
AcDbPolyline
 90
        2
 70
     0
 43
0.0
 10
5445.776123046875
 20
13039.29264051649
 10
5445.776123046875
 20
13040.89323187934
  0
LWPOLYLINE
  5
1EF
330
1F
100
AcDbEntity
  8
Ceiling_Bracket
  6
Continuous
 62
     1
100
AcDbPolyline
 90
        2
 70
     0
 43
0.0
 10
5183.776266818577
 20
13040.89323187934
 10
5183.776266818577
 20
13039.29264051649
  0
LWPOLYLINE
  5
1F0
330
1F
100
AcDbEntity
  8
Ceiling_Bracket
  6
Continuous
 62
     1
100
AcDbPolyline
 90
        2
 70
     0
 43
0.0
 10
5445.776123046875
 20
13040.89323187934
 10
5446.776578776042
 20
13040.89323187934
  0
LWPOLYLINE
  5
1F1
330
1F
100
AcDbEntity
  8
Ceiling_Bracket
  6
Continuous
 62
     1
100
AcDbPolyline
 90
        2
 70
     0
 43
0.0
 10
5445.776123046875
 20
13040.89323187934
 10
5183.776266818577
 20
13040.89323187934
  0
LWPOLYLINE
  5
1F2
330
1F
100
AcDbEntity
  8
Ceiling_Bracket
  6
Continuous
 62
     1
100
AcDbPolyline
 90
        2
 70
     0
 43
0.0
 10
5182.776500108507
 20
13040.89323187934
 10
5183.776266818577
 20
13040.89323187934
  0
LWPOLYLINE
  5
1F3
330
1F
100
AcDbEntity
  8
Ceiling_Bracket
  6
Continuous
 62
     1
100
AcDbPolyline
 90
        2
 70
     0
 43
0.0
 10
5183.776266818577
 20
12974.29333496094
 10
5445.776123046875
 20
12974.29333496094
  0
LWPOLYLINE
  5
1F4
330
1F
100
AcDbEntity
  8
Ceiling_Bracket
  6
Continuous
 62
     1
100
AcDbPolyline
 90
        2
 70
     0
 43
0.0
 10
5182.776500108507
 20
13039.29264051649
 10
5182.776500108507
 20
13040.89323187934
  0
LWPOLYLINE
  5
1F5
330
1F
100
AcDbEntity
  8
Ceiling_Bracket
  6
Continuous
 62
     1
100
AcDbPolyline
 90
        2
 70
     0
 43
0.0
 10
5182.776500108507
 20
12975.29241265191
 10
5182.776500108507
 20
13039.29264051649
  0
LWPOLYLINE
  5
1F6
330
1F
100
AcDbEntity
  8
Ceiling_Bracket
  6
Continuous
 62
     1
100
AcDbPolyline
 90
        2
 70
     0
 43
0.0
 10
5446.776578776042
 20
13039.29264051649
 10
5446.776578776042
 20
12975.29241265191
  0
LWPOLYLINE
  5
1F7
330
1F
100
AcDbEntity
  8
Ceiling_Bracket
  6
Continuous
 62
     1
100
AcDbPolyline
 90
        2
 70
     0
 43
0.0
 10
5446.776578776042
 20
13040.89323187934
 10
5446.776578776042
 20
13039.29264051649
  0
LWPOLYLINE
  5
1F8
330
1F
100
AcDbEntity
  8
Ceiling_Bracket
  6
Continuous
 62
     1
100
AcDbPolyline
 90
        2
 70
     0
 43
0.0
 10
5183.776266818577
 20
13039.29264051649
 10
5182.776500108507
 20
13039.29264051649
  0
LWPOLYLINE
  5
1F9
330
1F
100
AcDbEntity
  8
Ceiling_Bracket
  6
Continuous
 62
     1
100
AcDbPolyline
 90
        2
 70
     0
 43
0.0
 10
5183.776266818577
 20
13039.29264051649
 10
5445.776123046875
 20
13039.29264051649
  0
LWPOLYLINE
  5
1FA
330
1F
100
AcDbEntity
  8
Ceiling_Bracket
  6
Continuous
 62
     1
100
AcDbPolyline
 90
        2
 70
     0
 43
0.0
 10
5446.776578776042
 20
13039.29264051649
 10
5445.776123046875
 20
13039.29264051649
  0
DIMENSION
  5
205
330
1F
100
AcDbEntity
  8
1
100
AcDbDimension
  2
*D3
 10
5314.7763671875
 20
12922.02311417871
 30
0.0
 11
5300.416613823375
 21
12925.77311417871
 31
0.0
 70
    32
  1
<>
 71
     5
 42
-1.0
 53
0.00013888888889
  3
ME10_DIM_10
100
AcDbAlignedDimension
 13
5284.776475694444
 23
12912.38591011121
 33
0.0
 14
5314.7763671875
 24
12919.31586253381
 34
0.0
100
AcDbRotatedDimension
  0
DIMENSION
  5
212
330
1F
100
AcDbEntity
  8
1
100
AcDbDimension
  2
*D4
 10
5321.77611219618
 20
12926.88210258961
 30
0.0
 11
5318.929051135536
 21
12930.63210258961
 31
0.0
 70
    32
  1
<>
 71
     5
 42
-1.0
 53
0.00013888888889
  3
ME10_DIM_11
100
AcDbAlignedDimension
 13
5314.7763671875
 23
12919.31586253381
 33
0.0
 14
5321.77611219618
 24
12912.38591011121
 34
0.0
100
AcDbRotatedDimension
  0
DIMENSION
  5
21E
330
1F
100
AcDbEntity
  8
1
100
AcDbDimension
  2
*D5
 10
5459.218533493336
 20
12913.98581245495
 30
0.0
 11
5455.468533493336
 21
12922.34627713611
 31
0.0
 70
    32
  1
<>
 71
     5
 42
-1.0
 53
90.0
  3
ME10_DIM_12
100
AcDbAlignedDimension
 13
5452.030377248425
 23
12901.4859725027
 33
0.0
 14
5446.776578776042
 24
12913.98581245496
 34
0.0
 50
90.0
100
AcDbRotatedDimension
  0
DIMENSION
  5
229
330
1F
100
AcDbEntity
  8
1
100
AcDbDimension
  2
*D6
 10
5446.776578776042
 20
13077.35533487046
 30
0.0
 11
5314.7763671875
 21
13081.10533487046
 31
0.0
 70
    33
  1
<>
 71
     5
 42
-1.0
 53
0.00013888888889
  3
ME10_DIM_13
100
AcDbAlignedDimension
 13
5182.776500108507
 23
13040.89323187934
 33
0.0
 14
5446.776578776042
 24
13040.89323187934
 34
0.0
  0
DIMENSION
  5
234
330
1F
100
AcDbEntity
  8
1
100
AcDbDimension
  2
*D7
 10
5278.776497395835
 20
13064.72655648776
 30
0.0
 11
5338.893996883046
 21
13068.47655648776
 31
0.0
 70
    32
  1
<>
 71
     5
 42
-1.0
 53
0.00013888888889
  3
ME10_DIM_14
100
AcDbAlignedDimension
 13
5403.776274956597
 23
13029.91387531266
 33
0.0
 14
5278.776497395834
 24
13029.39370777246
 34
0.0
100
AcDbRotatedDimension
  0
DIMENSION
  5
23F
330
1F
100
AcDbEntity
  8
1
100
AcDbDimension
  2
*D8
 10
5314.7763671875
 20
13054.61878319976
 30
0.0
 11
5296.543263474705
 21
13058.36878319976
 31
0.0
 70
    32
  1
<>
 71
     5
 42
-1.0
 53
0.00013888888889
  3
ME10_DIM_15
100
AcDbAlignedDimension
 13
5278.776497395834
 23
13029.39370777246
 33
0.0
 14
5314.7763671875
 24
13049.11047363281
 34
0.0
100
AcDbRotatedDimension
  0
DIMENSION
  5
24B
330
1F
100
AcDbEntity
  8
1
100
AcDbDimension
  2
*D9
 10
5174.228515583015
 20
13039.29264051649
 30
0.0
 11
5170.478515583015
 21
13048.60397679216
 31
0.0
 70
    32
  1
<>
 71
     5
 42
-1.0
 53
90.0
  3
ME10_DIM_16
100
AcDbAlignedDimension
 13
5274.606680496456
 23
13025.79337836372
 33
0.0
 14
5182.776500108507
 24
13039.29264051649
 34
0.0
 50
90.0
100
AcDbRotatedDimension
  0
DIMENSION
  5
256
330
1F
100
AcDbEntity
  8
1
100
AcDbDimension
  2
*D10
 10
5147.402130361108
 20
13040.90356716579
 30
0.0
 11
5143.652130361108
 21
13006.41219335096
 31
0.0
 70
    33
  1
<>
 71
     5
 42
-1.0
 53
90.0
  3
ME10_DIM_17
100
AcDbAlignedDimension
 13
5135.539743694289
 23
12974.3029812283
 33
0.0
 14
5135.539743694289
 24
13040.9035671658
 34
0.0
  0
DIMENSION
  5
261
330
1F
100
AcDbEntity
  8
1
100
AcDbDimension
  2
*D11
 10
5472.100108506945
 20
12913.98581245496
 30
0.0
 11
5468.350108506945
 21
12901.98613255044
 31
0.0
 70
    32
  1
<>
 71
     5
 42
-1.0
 53
90.0
  3
ME10_DIM_18
100
AcDbAlignedDimension
 13
5445.776123046875
 23
12888.98613255044
 33
0.0
 14
5446.776578776042
 24
12913.98581245496
 34
0.0
 50
90.0
100
AcDbRotatedDimension
  0
INSERT
  5
268
330
1F
100
AcDbEntity
  8
1
100
AcDbBlockReference
  2
*D12
 10
0.0
 20
0.0
 30
0.0
  0
INSERT
  5
26F
330
1F
100
AcDbEntity
  8
1
100
AcDbBlockReference
  2
*D13
 10
0.0
 20
0.0
 30
0.0
  0
INSERT
  5
279
330
1F
100
AcDbEntity
  8
1
100
AcDbBlockReference
  2
*D14
 10
0.0
 20
0.0
 30
0.0
  0
DIMENSION
  5
284
330
1F
100
AcDbEntity
  8
1
100
AcDbDimension
  2
*D15
 10
5224.324216704912
 20
12908.20709650669
 30
0.0
 11
5225.98877590488
 21
12933.70169134113
 31
0.0
 70
    37
  1
8.5\U+E030
 71
     5
 42
-1.0
  3
ME10_DIM_19
100
AcDb3PointAngularDimension
 13
5264.911951743729
 23
12908.93755098078
 33
0.0
 14
5224.074851021552
 24
12901.4859725027
 34
0.0
 15
5314.7763671875
 25
12901.4859725027
 35
0.0
  0
DIMENSION
  5
28F
330
1F
100
AcDbEntity
  8
1
100
AcDbDimension
  2
*D16
 10
5235.877496580373
 20
12898.04119813213
 30
0.0
 11
5241.590615761966
 21
12884.09340866121
 31
0.0
 70
    37
  1
<>
 71
     5
 42
-1.0
  3
ME10_DIM_20
100
AcDb3PointAngularDimension
 13
5235.802331874973
 23
12901.4859725027
 33
0.0
 14
5263.123100464837
 24
12896.96692977613
 34
0.0
 15
5314.7763671875
 25
12901.4859725027
 35
0.0
  0
ENDSEC
  0
SECTION
  2
OBJECTS
  0
DICTIONARY
  5
C
330
0
100
AcDbDictionary
281
     1
  3
ACAD_GROUP
350
D
  3
ACAD_LAYOUT
350
1A
  3
ACAD_MATERIAL
350
3B
  3
ACAD_MLEADERSTYLE
350
292
  3
ACAD_MLINESTYLE
350
17
  3
ACAD_PLOTSETTINGS
350
19
  3
ACAD_PLOTSTYLENAME
350
E
  3
ACAD_SCALELIST
350
4C
  3
ACAD_VISUALSTYLE
350
2A
  3
AcDbVariableDictionary
350
290
  0
DICTIONARY
  5
D
102
{ACAD_REACTORS
330
C
102
}
330
C
100
AcDbDictionary
281
     1
  0
DICTIONARY
  5
1A
102
{ACAD_REACTORS
330
C
102
}
330
C
100
AcDbDictionary
281
     1
  3
Layout1
350
1E
  3
Layout2
350
26
  3
Model
350
22
  0
DICTIONARY
  5
3B
102
{ACAD_REACTORS
330
C
102
}
330
C
100
AcDbDictionary
281
     1
  3
ByBlock
350
3D
  3
ByLayer
350
3C
  3
Global
350
3E
  0
DICTIONARY
  5
292
102
{ACAD_REACTORS
330
C
102
}
330
C
100
AcDbDictionary
281
     1
  0
DICTIONARY
  5
17
102
{ACAD_REACTORS
330
C
102
}
330
C
100
AcDbDictionary
281
     1
  3
Standard
350
18
  0
DICTIONARY
  5
19
102
{ACAD_REACTORS
330
C
102
}
330
C
100
AcDbDictionary
281
     1
  0
ACDBDICTIONARYWDFLT
  5
E
102
{ACAD_REACTORS
330
C
102
}
330
C
100
AcDbDictionary
281
     1
  3
Normal
350
F
100
AcDbDictionaryWithDefault
340
F
  0
DICTIONARY
  5
4C
102
{ACAD_REACTORS
330
C
102
}
330
C
100
AcDbDictionary
281
     1
  3
A0
350
4D
  3
A1
350
4E
  3
A2
350
4F
  3
A3
350
50
  3
A4
350
51
  3
A5
350
52
  3
A6
350
53
  3
A7
350
54
  3
A8
350
55
  3
A9
350
56
  3
B0
350
57
  3
B1
350
58
  3
B2
350
59
  3
B3
350
5A
  3
B4
350
5B
  3
B5
350
5C
  3
B6
350
5D
  3
B7
350
5E
  3
B8
350
5F
  3
B9
350
60
  3
C0
350
61
  3
C1
350
62
  3
C2
350
63
  3
C3
350
64
  3
C4
350
65
  3
C5
350
66
  3
C6
350
67
  3
C7
350
68
  3
C8
350
69
  3
C9
350
6A
  3
D0
350
6B
  3
D1
350
6C
  3
D2
350
6D
  0
DICTIONARY
  5
2A
102
{ACAD_REACTORS
330
C
102
}
330
C
100
AcDbDictionary
281
     1
  3
2dWireframe
350
2F
  3
3D Hidden
350
31
  3
3dWireframe
350
30
  3
Basic
350
32
  3
Brighten
350
36
  3
ColorChange
350
3A
  3
Conceptual
350
34
  3
Dim
350
35
  3
Facepattern
350
39
  3
Flat
350
2B
  3
FlatWithEdges
350
2C
  3
Gouraud
350
2D
  3
GouraudWithEdges
350
2E
  3
Linepattern
350
38
  3
Realistic
350
33
  3
Thicken
350
37
  0
DICTIONARY
  5
290
102
{ACAD_REACTORS
330
C
102
}
330
C
100
AcDbDictionary
281
     1
  3
CANNOSCALE
350
293
  3
DIMASSOC
350
294
  3
HIDETEXT
350
295
  0
LAYOUT
  5
1E
102
{ACAD_REACTORS
330
1A
102
}
330
1A
100
AcDbPlotSettings
  1

  2
none_device
  4

  6

 40
0.0
 41
0.0
 42
0.0
 43
0.0
 44
0.0
 45
0.0
 46
0.0
 47
0.0
 48
0.0
 49
0.0
140
0.0
141
0.0
142
1.0
143
1.0
 70
   688
 72
     0
 73
     0
 74
     5
  7

 75
    16
147
1.0
148
0.0
149
0.0
100
AcDbLayout
  1
Layout1
 70
     1
 71
     1
 10
0.0
 20
0.0
 11
12.0
 21
9.0
 12
0.0
 22
0.0
 32
0.0
 14
1.00000000000000E+20
 24
1.00000000000000E+20
 34
1.00000000000000E+20
 15
-1.00000000000000E+20
 25
-1.00000000000000E+20
 35
-1.00000000000000E+20
146
0.0
 13
0.0
 23
0.0
 33
0.0
 16
1.0
 26
0.0
 36
0.0
 17
0.0
 27
1.0
 37
0.0
 76
     0
330
1B
  0
LAYOUT
  5
26
102
{ACAD_REACTORS
330
1A
102
}
330
1A
100
AcDbPlotSettings
  1

  2
none_device
  4

  6

 40
0.0
 41
0.0
 42
0.0
 43
0.0
 44
0.0
 45
0.0
 46
0.0
 47
0.0
 48
0.0
 49
0.0
140
0.0
141
0.0
142
1.0
143
1.0
 70
   688
 72
     0
 73
     0
 74
     5
  7

 75
    16
147
1.0
148
0.0
149
0.0
100
AcDbLayout
  1
Layout2
 70
     1
 71
     2
 10
0.0
 20
0.0
 11
0.0
 21
0.0
 12
0.0
 22
0.0
 32
0.0
 14
0.0
 24
0.0
 34
0.0
 15
0.0
 25
0.0
 35
0.0
146
0.0
 13
0.0
 23
0.0
 33
0.0
 16
1.0
 26
0.0
 36
0.0
 17
0.0
 27
1.0
 37
0.0
 76
     0
330
23
  0
LAYOUT
  5
22
102
{ACAD_REACTORS
330
1A
102
}
330
1A
100
AcDbPlotSettings
  1

  2
none_device
  4

  6

 40
0.0
 41
0.0
 42
0.0
 43
0.0
 44
0.0
 45
0.0
 46
0.0
 47
0.0
 48
0.0
 49
0.0
140
0.0
141
0.0
142
1.0
143
1.0
 70
  1712
 72
     0
 73
     0
 74
     0
  7

 75
     0
147
1.0
148
0.0
149
0.0
100
AcDbLayout
  1
Model
 70
     1
 71
     0
 10
0.0
 20
0.0
 11
12.0
 21
9.0
 12
0.0
 22
0.0
 32
0.0
 14
5077.011171247676
 24
12815.22655648776
 34
0.0
 15
5487.011171247676
 25
13101.22655648776
 35
0.0
146
0.0
 13
0.0
 23
0.0
 33
0.0
 16
1.0
 26
0.0
 36
0.0
 17
0.0
 27
1.0
 37
0.0
 76
     0
330
1F
331
29
  0
MATERIAL
  5
3D
102
{ACAD_REACTORS
330
3B
102
}
102
{ACAD_XDICTIONARY
360
2B8
102
}
330
3B
100
AcDbMaterial
  1
ByBlock
  0
MATERIAL
  5
3C
102
{ACAD_REACTORS
330
3B
102
}
102
{ACAD_XDICTIONARY
360
2B6
102
}
330
3B
100
AcDbMaterial
  1
ByLayer
  0
MATERIAL
  5
3E
102
{ACAD_REACTORS
330
3B
102
}
102
{ACAD_XDICTIONARY
360
2BA
102
}
330
3B
100
AcDbMaterial
  1
Global
  0
MLINESTYLE
  5
18
102
{ACAD_REACTORS
330
17
102
}
330
17
100
AcDbMlineStyle
  2
Standard
 70
     0
  3

 62
   256
 51
90.0
 52
90.0
 71
     2
 49
0.5
 62
   256
  6
BYLAYER
 49
-0.5
 62
   256
  6
BYLAYER
  0
ACDBPLACEHOLDER
  5
F
102
{ACAD_REACTORS
330
E
102
}
330
E
  0
SCALE
  5
4D
102
{ACAD_REACTORS
330
4C
102
}
330
4C
100
AcDbScale
 70
     0
300
1:1
140
1.0
141
1.0
290
     1
  0
SCALE
  5
4E
102
{ACAD_REACTORS
330
4C
102
}
330
4C
100
AcDbScale
 70
     0
300
1:2
140
1.0
141
2.0
290
     0
  0
SCALE
  5
4F
102
{ACAD_REACTORS
330
4C
102
}
330
4C
100
AcDbScale
 70
     0
300
1:4
140
1.0
141
4.0
290
     0
  0
SCALE
  5
50
102
{ACAD_REACTORS
330
4C
102
}
330
4C
100
AcDbScale
 70
     0
300
1:5
140
1.0
141
5.0
290
     0
  0
SCALE
  5
51
102
{ACAD_REACTORS
330
4C
102
}
330
4C
100
AcDbScale
 70
     0
300
1:8
140
1.0
141
8.0
290
     0
  0
SCALE
  5
52
102
{ACAD_REACTORS
330
4C
102
}
330
4C
100
AcDbScale
 70
     0
300
1:10
140
1.0
141
10.0
290
     0
  0
SCALE
  5
53
102
{ACAD_REACTORS
330
4C
102
}
330
4C
100
AcDbScale
 70
     0
300
1:16
140
1.0
141
16.0
290
     0
  0
SCALE
  5
54
102
{ACAD_REACTORS
330
4C
102
}
330
4C
100
AcDbScale
 70
     0
300
1:20
140
1.0
141
20.0
290
     0
  0
SCALE
  5
55
102
{ACAD_REACTORS
330
4C
102
}
330
4C
100
AcDbScale
 70
     0
300
1:30
140
1.0
141
30.0
290
     0
  0
SCALE
  5
56
102
{ACAD_REACTORS
330
4C
102
}
330
4C
100
AcDbScale
 70
     0
300
1:40
140
1.0
141
40.0
290
     0
  0
SCALE
  5
57
102
{ACAD_REACTORS
330
4C
102
}
330
4C
100
AcDbScale
 70
     0
300
1:50
140
1.0
141
50.0
290
     0
  0
SCALE
  5
58
102
{ACAD_REACTORS
330
4C
102
}
330
4C
100
AcDbScale
 70
     0
300
1:100
140
1.0
141
100.0
290
     0
  0
SCALE
  5
59
102
{ACAD_REACTORS
330
4C
102
}
330
4C
100
AcDbScale
 70
     0
300
2:1
140
2.0
141
1.0
290
     0
  0
SCALE
  5
5A
102
{ACAD_REACTORS
330
4C
102
}
330
4C
100
AcDbScale
 70
     0
300
4:1
140
4.0
141
1.0
290
     0
  0
SCALE
  5
5B
102
{ACAD_REACTORS
330
4C
102
}
330
4C
100
AcDbScale
 70
     0
300
8:1
140
8.0
141
1.0
290
     0
  0
SCALE
  5
5C
102
{ACAD_REACTORS
330
4C
102
}
330
4C
100
AcDbScale
 70
     0
300
10:1
140
10.0
141
1.0
290
     0
  0
SCALE
  5
5D
102
{ACAD_REACTORS
330
4C
102
}
330
4C
100
AcDbScale
 70
     0
300
100:1
140
100.0
141
1.0
290
     0
  0
SCALE
  5
5E
102
{ACAD_REACTORS
330
4C
102
}
330
4C
100
AcDbScale
 70
     0
300
1/128" = 1'-0"
140
0.0078125
141
12.0
290
     0
  0
SCALE
  5
5F
102
{ACAD_REACTORS
330
4C
102
}
330
4C
100
AcDbScale
 70
     0
300
1/64" = 1'-0"
140
0.015625
141
12.0
290
     0
  0
SCALE
  5
60
102
{ACAD_REACTORS
330
4C
102
}
330
4C
100
AcDbScale
 70
     0
300
1/32" = 1'-0"
140
0.03125
141
12.0
290
     0
  0
SCALE
  5
61
102
{ACAD_REACTORS
330
4C
102
}
330
4C
100
AcDbScale
 70
     0
300
1/16" = 1'-0"
140
0.0625
141
12.0
290
     0
  0
SCALE
  5
62
102
{ACAD_REACTORS
330
4C
102
}
330
4C
100
AcDbScale
 70
     0
300
3/32" = 1'-0"
140
0.09375
141
12.0
290
     0
  0
SCALE
  5
63
102
{ACAD_REACTORS
330
4C
102
}
330
4C
100
AcDbScale
 70
     0
300
1/8" = 1'-0"
140
0.125
141
12.0
290
     0
  0
SCALE
  5
64
102
{ACAD_REACTORS
330
4C
102
}
330
4C
100
AcDbScale
 70
     0
300
3/16" = 1'-0"
140
0.1875
141
12.0
290
     0
  0
SCALE
  5
65
102
{ACAD_REACTORS
330
4C
102
}
330
4C
100
AcDbScale
 70
     0
300
1/4" = 1'-0"
140
0.25
141
12.0
290
     0
  0
SCALE
  5
66
102
{ACAD_REACTORS
330
4C
102
}
330
4C
100
AcDbScale
 70
     0
300
3/8" = 1'-0"
140
0.375
141
12.0
290
     0
  0
SCALE
  5
67
102
{ACAD_REACTORS
330
4C
102
}
330
4C
100
AcDbScale
 70
     0
300
1/2" = 1'-0"
140
0.5
141
12.0
290
     0
  0
SCALE
  5
68
102
{ACAD_REACTORS
330
4C
102
}
330
4C
100
AcDbScale
 70
     0
300
3/4" = 1'-0"
140
0.75
141
12.0
290
     0
  0
SCALE
  5
69
102
{ACAD_REACTORS
330
4C
102
}
330
4C
100
AcDbScale
 70
     0
300
1" = 1'-0"
140
1.0
141
12.0
290
     0
  0
SCALE
  5
6A
102
{ACAD_REACTORS
330
4C
102
}
330
4C
100
AcDbScale
 70
     0
300
1-1/2" = 1'-0"
140
1.5
141
12.0
290
     0
  0
SCALE
  5
6B
102
{ACAD_REACTORS
330
4C
102
}
330
4C
100
AcDbScale
 70
     0
300
3" = 1'-0"
140
3.0
141
12.0
290
     0
  0
SCALE
  5
6C
102
{ACAD_REACTORS
330
4C
102
}
330
4C
100
AcDbScale
 70
     0
300
6" = 1'-0"
140
6.0
141
12.0
290
     0
  0
SCALE
  5
6D
102
{ACAD_REACTORS
330
4C
102
}
330
4C
100
AcDbScale
 70
     0
300
1'-0" = 1'-0"
140
12.0
141
12.0
290
     0
  0
VISUALSTYLE
  5
2F
102
{ACAD_REACTORS
330
2A
102
}
102
{ACAD_XDICTIONARY
360
29E
102
}
330
2A
100
AcDbVisualStyle
  2
2dWireframe
 70
     4
 71
     0
 72
     2
 73
     0
 90
        0
 40
-0.6
 41
-30.0
 62
     5
 63
     7
 74
     1
 91
        4
 64
     7
 65
   257
 75
     1
175
     1
 42
1.0
 92
        0
 66
   257
 43
1.0
 76
     1
 77
     6
 78
     2
 67
     7
 79
     5
170
     0
171
     0
290
     0
174
     0
 93
        1
 44
0.0
173
     0
291
     0
 45
0.0
1001
ACAD
1000
AcDbSavedByObjectVersion
1070
     0
  0
VISUALSTYLE
  5
31
102
{ACAD_REACTORS
330
2A
102
}
102
{ACAD_XDICTIONARY
360
2A2
102
}
330
2A
100
AcDbVisualStyle
  2
3D Hidden
 70
     6
 71
     1
 72
     2
 73
     2
 90
        0
 40
-0.6
 41
-30.0
 62
     5
 63
     7
 74
     2
 91
        2
 64
     7
 65
   257
 75
     2
175
     1
 42
40.0
 92
        0
 66
   257
 43
1.0
 76
     1
 77
     6
 78
     2
 67
     7
 79
     3
170
     0
171
     0
290
     0
174
     0
 93
        1
 44
0.0
173
     0
291
     0
 45
0.0
1001
ACAD
1000
AcDbSavedByObjectVersion
1070
     0
  0
VISUALSTYLE
  5
30
102
{ACAD_REACTORS
330
2A
102
}
102
{ACAD_XDICTIONARY
360
2A0
102
}
330
2A
100
AcDbVisualStyle
  2
3dWireframe
 70
     5
 71
     0
 72
     2
 73
     0
 90
        0
 40
-0.6
 41
-30.0
 62
     5
 63
     7
 74
     1
 91
        4
 64
     7
 65
   257
 75
     1
175
     1
 42
1.0
 92
        0
 66
   257
 43
1.0
 76
     1
 77
     6
 78
     2
 67
     7
 79
     5
170
     0
171
     0
290
     0
174
     0
 93
        1
 44
0.0
173
     0
291
     0
 45
0.0
1001
ACAD
1000
AcDbSavedByObjectVersion
1070
     0
  0
VISUALSTYLE
  5
32
102
{ACAD_REACTORS
330
2A
102
}
102
{ACAD_XDICTIONARY
360
2A4
102
}
330
2A
100
AcDbVisualStyle
  2
Basic
 70
     7
 71
     1
 72
     0
 73
     1
 90
        0
 40
-0.6
 41
-30.0
 62
     5
 63
     7
 74
     0
 91
        4
 64
     7
 65
   257
 75
     1
175
     1
 42
1.0
 92
        8
 66
     7
 43
1.0
 76
     1
 77
     6
 78
     2
 67
     7
 79
     5
170
     0
171
     0
290
     0
174
     0
 93
        1
 44
0.0
173
     0
291
     1
 45
0.0
1001
ACAD
1000
AcDbSavedByObjectVersion
1070
     0
  0
VISUALSTYLE
  5
36
102
{ACAD_REACTORS
330
2A
102
}
102
{ACAD_XDICTIONARY
360
2AC
102
}
330
2A
100
AcDbVisualStyle
  2
Brighten
 70
    12
 71
     2
 72
     2
 73
     0
 90
        0
 40
-0.6
 41
-30.0
 62
     5
 63
     7
 74
     1
 91
        4
 64
     7
 65
   257
 75
     1
175
     1
 42
1.0
 92
        8
 66
     7
 43
1.0
 76
     1
 77
     6
 78
     2
 67
     7
 79
     5
170
     0
171
     0
290
     0
174
     0
 93
        1
 44
50.0
173
     0
291
     1
 45
0.0
1001
ACAD
1000
AcDbSavedByObjectVersion
1070
     0
  0
VISUALSTYLE
  5
3A
102
{ACAD_REACTORS
330
2A
102
}
102
{ACAD_XDICTIONARY
360
2B4
102
}
330
2A
100
AcDbVisualStyle
  2
ColorChange
 70
    16
 71
     2
 72
     2
 73
     3
 90
        0
 40
-0.6
 41
-30.0
 62
     5
 63
     8
 74
     1
 91
        4
 64
     7
 65
   257
 75
     1
175
     1
 42
1.0
 92
        8
 66
     8
 43
1.0
 76
     1
 77
     6
 78
     2
 67
     7
 79
     5
170
     0
171
     0
290
     0
174
     0
 93
        1
 44
0.0
173
     0
291
     1
 45
0.0
1001
ACAD
1000
AcDbSavedByObjectVersion
1070
     0
  0
VISUALSTYLE
  5
34
102
{ACAD_REACTORS
330
2A
102
}
102
{ACAD_XDICTIONARY
360
2A8
102
}
330
2A
100
AcDbVisualStyle
  2
Conceptual
 70
     9
 71
     3
 72
     2
 73
     0
 90
        0
 40
-0.6
 41
-30.0
 62
     5
 63
     7
 74
     2
 91
        2
 64
     7
 65
   257
 75
     1
175
     1
 42
40.0
 92
        8
 66
     7
 43
1.0
 76
     1
 77
     6
 78
     2
 67
     7
 79
     3
170
     0
171
     0
290
     0
174
     0
 93
        1
 44
0.0
173
     0
291
     0
 45
0.0
1001
ACAD
1000
AcDbSavedByObjectVersion
1070
     0
  0
VISUALSTYLE
  5
35
102
{ACAD_REACTORS
330
2A
102
}
102
{ACAD_XDICTIONARY
360
2AA
102
}
330
2A
100
AcDbVisualStyle
  2
Dim
 70
    11
 71
     2
 72
     2
 73
     0
 90
        0
 40
-0.6
 41
-30.0
 62
     5
 63
     7
 74
     1
 91
        4
 64
     7
 65
   257
 75
     1
175
     1
 42
1.0
 92
        8
 66
     7
 43
1.0
 76
     1
 77
     6
 78
     2
 67
     7
 79
     5
170
     0
171
     0
290
     0
174
     0
 93
        1
 44
-50.0
173
     0
291
     1
 45
0.0
1001
ACAD
1000
AcDbSavedByObjectVersion
1070
     0
  0
VISUALSTYLE
  5
39
102
{ACAD_REACTORS
330
2A
102
}
102
{ACAD_XDICTIONARY
360
2B2
102
}
330
2A
100
AcDbVisualStyle
  2
Facepattern
 70
    15
 71
     2
 72
     2
 73
     0
 90
        0
 40
-0.6
 41
-30.0
 62
     5
 63
     7
 74
     1
 91
        4
 64
     7
 65
   257
 75
     1
175
     1
 42
1.0
 92
        8
 66
     7
 43
1.0
 76
     1
 77
     6
 78
     2
 67
     7
 79
     5
170
     0
171
     0
290
     0
174
     0
 93
        1
 44
0.0
173
     0
291
     1
 45
0.0
1001
ACAD
1000
AcDbSavedByObjectVersion
1070
     0
  0
VISUALSTYLE
  5
2B
102
{ACAD_REACTORS
330
2A
102
}
102
{ACAD_XDICTIONARY
360
296
102
}
330
2A
100
AcDbVisualStyle
  2
Flat
 70
     0
 71
     2
 72
     1
 73
     1
 90
        2
 40
-0.6
 41
30.0
 62
     5
 63
     7
 74
     0
 91
        4
 64
     7
 65
   257
 75
     1
175
     1
 42
1.0
 92
        8
 66
     7
 43
1.0
 76
     1
 77
     6
 78
     2
 67
     7
 79
     5
170
     0
171
     0
290
     0
174
     0
 93
       13
 44
0.0
173
     0
291
     1
 45
0.0
1001
ACAD
1000
AcDbSavedByObjectVersion
1070
     0
  0
VISUALSTYLE
  5
2C
102
{ACAD_REACTORS
330
2A
102
}
102
{ACAD_XDICTIONARY
360
298
102
}
330
2A
100
AcDbVisualStyle
  2
FlatWithEdges
 70
     1
 71
     2
 72
     1
 73
     1
 90
        2
 40
-0.6
 41
30.0
 62
     5
 63
     7
 74
     1
 91
        4
 64
     7
 65
   257
 75
     1
175
     1
 42
1.0
 92
        0
 66
   257
 43
1.0
 76
     1
 77
     6
 78
     2
 67
     7
 79
     5
170
     0
171
     0
290
     0
174
     0
 93
       13
 44
0.0
173
     0
291
     1
 45
0.0
1001
ACAD
1000
AcDbSavedByObjectVersion
1070
     0
  0
VISUALSTYLE
  5
2D
102
{ACAD_REACTORS
330
2A
102
}
102
{ACAD_XDICTIONARY
360
29A
102
}
330
2A
100
AcDbVisualStyle
  2
Gouraud
 70
     2
 71
     2
 72
     2
 73
     1
 90
        2
 40
-0.6
 41
30.0
 62
     5
 63
     7
 74
     0
 91
        4
 64
     7
 65
   257
 75
     1
175
     1
 42
1.0
 92
        0
 66
     7
 43
1.0
 76
     1
 77
     6
 78
     2
 67
     7
 79
     5
170
     0
171
     0
290
     0
174
     0
 93
       13
 44
0.0
173
     0
291
     1
 45
0.0
1001
ACAD
1000
AcDbSavedByObjectVersion
1070
     0
  0
VISUALSTYLE
  5
2E
102
{ACAD_REACTORS
330
2A
102
}
102
{ACAD_XDICTIONARY
360
29C
102
}
330
2A
100
AcDbVisualStyle
  2
GouraudWithEdges
 70
     3
 71
     2
 72
     2
 73
     1
 90
        2
 40
-0.6
 41
30.0
 62
     5
 63
     7
 74
     1
 91
        4
 64
     7
 65
   257
 75
     1
175
     1
 42
1.0
 92
        0
 66
   257
 43
1.0
 76
     1
 77
     6
 78
     2
 67
     7
 79
     5
170
     0
171
     0
290
     0
174
     0
 93
       13
 44
0.0
173
     0
291
     1
 45
0.0
1001
ACAD
1000
AcDbSavedByObjectVersion
1070
     0
  0
VISUALSTYLE
  5
38
102
{ACAD_REACTORS
330
2A
102
}
102
{ACAD_XDICTIONARY
360
2B0
102
}
330
2A
100
AcDbVisualStyle
  2
Linepattern
 70
    14
 71
     2
 72
     2
 73
     0
 90
        0
 40
-0.6
 41
-30.0
 62
     5
 63
     7
 74
     1
 91
        4
 64
     7
 65
   257
 75
     7
175
     7
 42
1.0
 92
        8
 66
     7
 43
1.0
 76
     1
 77
     6
 78
     2
 67
     7
 79
     5
170
     0
171
     0
290
     0
174
     0
 93
        1
 44
0.0
173
     0
291
     1
 45
0.0
1001
ACAD
1000
AcDbSavedByObjectVersion
1070
     0
  0
VISUALSTYLE
  5
33
102
{ACAD_REACTORS
330
2A
102
}
102
{ACAD_XDICTIONARY
360
2A6
102
}
330
2A
100
AcDbVisualStyle
  2
Realistic
 70
     8
 71
     2
 72
     2
 73
     0
 90
        0
 40
-0.6
 41
-30.0
 62
     5
 63
     7
 74
     1
 91
        0
 64
     7
 65
   257
 75
     1
175
     1
 42
1.0
 92
        8
 66
     8
 43
1.0
 76
     1
 77
     6
 78
     2
 67
     7
 79
     5
170
     0
171
     0
290
     0
174
     0
 93
       13
 44
0.0
173
     0
291
     0
 45
0.0
1001
ACAD
1000
AcDbSavedByObjectVersion
1070
     0
  0
VISUALSTYLE
  5
37
102
{ACAD_REACTORS
330
2A
102
}
102
{ACAD_XDICTIONARY
360
2AE
102
}
330
2A
100
AcDbVisualStyle
  2
Thicken
 70
    13
 71
     2
 72
     2
 73
     0
 90
        0
 40
-0.6
 41
-30.0
 62
     5
 63
     7
 74
     1
 91
        4
 64
     7
 65
   257
 75
     1
175
     1
 42
1.0
 92
       12
 66
     7
 43
1.0
 76
     1
 77
     6
 78
     2
 67
     7
 79
     5
170
     0
171
     0
290
     0
174
     0
 93
        1
 44
0.0
173
     0
291
     1
 45
0.0
1001
ACAD
1000
AcDbSavedByObjectVersion
1070
     0
  0
DICTIONARYVAR
  5
293
102
{ACAD_REACTORS
330
290
102
}
330
290
100
DictionaryVariables
280
     0
  1
1:1
  0
DICTIONARYVAR
  5
294
102
{ACAD_REACTORS
330
290
102
}
330
290
100
DictionaryVariables
280
     0
  1
2
  0
DICTIONARYVAR
  5
295
102
{ACAD_REACTORS
330
290
102
}
330
290
100
DictionaryVariables
280
     0
  1
1
  0
DICTIONARY
  5
2B8
330
3D
100
AcDbDictionary
280
     1
281
     1
  3
ACAD_XREC_ROUNDTRIP
360
2B9
  0
DICTIONARY
  5
2B6
330
3C
100
AcDbDictionary
280
     1
281
     1
  3
ACAD_XREC_ROUNDTRIP
360
2B7
  0
DICTIONARY
  5
2BA
330
3E
100
AcDbDictionary
280
     1
281
     1
  3
ACAD_XREC_ROUNDTRIP
360
2BB
  0
DICTIONARY
  5
29E
330
2F
100
AcDbDictionary
280
     1
281
     1
  3
ACAD_XREC_ROUNDTRIP
360
29F
  0
DICTIONARY
  5
2A2
330
31
100
AcDbDictionary
280
     1
281
     1
  3
ACAD_XREC_ROUNDTRIP
360
2A3
  0
DICTIONARY
  5
2A0
330
30
100
AcDbDictionary
280
     1
281
     1
  3
ACAD_XREC_ROUNDTRIP
360
2A1
  0
DICTIONARY
  5
2A4
330
32
100
AcDbDictionary
280
     1
281
     1
  3
ACAD_XREC_ROUNDTRIP
360
2A5
  0
DICTIONARY
  5
2AC
330
36
100
AcDbDictionary
280
     1
281
     1
  3
ACAD_XREC_ROUNDTRIP
360
2AD
  0
DICTIONARY
  5
2B4
330
3A
100
AcDbDictionary
280
     1
281
     1
  3
ACAD_XREC_ROUNDTRIP
360
2B5
  0
DICTIONARY
  5
2A8
330
34
100
AcDbDictionary
280
     1
281
     1
  3
ACAD_XREC_ROUNDTRIP
360
2A9
  0
DICTIONARY
  5
2AA
330
35
100
AcDbDictionary
280
     1
281
     1
  3
ACAD_XREC_ROUNDTRIP
360
2AB
  0
DICTIONARY
  5
2B2
330
39
100
AcDbDictionary
280
     1
281
     1
  3
ACAD_XREC_ROUNDTRIP
360
2B3
  0
DICTIONARY
  5
296
330
2B
100
AcDbDictionary
280
     1
281
     1
  3
ACAD_XREC_ROUNDTRIP
360
297
  0
DICTIONARY
  5
298
330
2C
100
AcDbDictionary
280
     1
281
     1
  3
ACAD_XREC_ROUNDTRIP
360
299
  0
DICTIONARY
  5
29A
330
2D
100
AcDbDictionary
280
     1
281
     1
  3
ACAD_XREC_ROUNDTRIP
360
29B
  0
DICTIONARY
  5
29C
330
2E
100
AcDbDictionary
280
     1
281
     1
  3
ACAD_XREC_ROUNDTRIP
360
29D
  0
DICTIONARY
  5
2B0
330
38
100
AcDbDictionary
280
     1
281
     1
  3
ACAD_XREC_ROUNDTRIP
360
2B1
  0
DICTIONARY
  5
2A6
330
33
100
AcDbDictionary
280
     1
281
     1
  3
ACAD_XREC_ROUNDTRIP
360
2A7
  0
DICTIONARY
  5
2AE
330
37
100
AcDbDictionary
280
     1
281
     1
  3
ACAD_XREC_ROUNDTRIP
360
2AF
  0
XRECORD
  5
2B9
102
{ACAD_REACTORS
330
2B8
102
}
330
2B8
100
AcDbXrecord
280
     1
102
MATERIAL
148
0.0
149
0.0
149
0.0
 93
        0
 94
      127
282
     0
 72
     1
 77
     1
171
     1
175
     1
179
     1
273
     0
  0
XRECORD
  5
2B7
102
{ACAD_REACTORS
330
2B6
102
}
330
2B6
100
AcDbXrecord
280
     1
102
MATERIAL
148
0.0
149
0.0
149
0.0
 93
        0
 94
      127
282
     0
 72
     1
 77
     1
171
     1
175
     1
179
     1
273
     0
  0
XRECORD
  5
2BB
102
{ACAD_REACTORS
330
2BA
102
}
330
2BA
100
AcDbXrecord
280
     1
102
MATERIAL
148
0.0
149
0.0
149
0.0
 93
        0
 94
      127
282
     0
 72
     1
 77
     1
171
     1
175
     1
179
     1
273
     0
  0
XRECORD
  5
29F
102
{ACAD_REACTORS
330
29E
102
}
330
29E
100
AcDbXrecord
280
     1
102
RTVSPropertyOp0
 70
     1
102
RTVSPropertyOp1
 70
     1
102
RTVSPropertyOp2
 70
     1
102
RTVSPropertyOp3
 70
     1
102
RTVSPropertyOp4
 70
     1
102
RTVSPropertyOp5
 70
     1
102
RTVSPropertyOp6
 70
     1
102
RTVSPropertyOp7
 70
     1
102
RTVSPropertyOp8
 70
     1
102
RTVSPropertyOp9
 70
     1
102
RTVSPropertyOp10
 70
     1
102
RTVSPropertyOp11
 70
     1
102
RTVSPropertyOp12
 70
     1
102
RTVSPropertyOp13
 70
     1
102
RTVSPropertyOp14
 70
     1
102
RTVSPropertyOp15
 70
     1
102
RTVSPropertyOp16
 70
     1
102
RTVSPropertyOp17
 70
     1
102
RTVSPropertyOp18
 70
     1
102
RTVSPropertyOp19
 70
     1
102
RTVSPropertyOp20
 70
     1
102
RTVSPropertyOp21
 70
     1
102
RTVSPropertyOp22
 70
     1
102
RTVSPropertyOp23
 70
     1
102
RTVSPropertyOp24
 70
     1
102
RTVSPropertyOp25
 70
     1
102
RTVSPropertyOp26
 70
     1
102
RTVSPropertyOp27
 70
     1
  0
XRECORD
  5
2A3
102
{ACAD_REACTORS
330
2A2
102
}
330
2A2
100
AcDbXrecord
280
     1
102
RTVSPropertyOp0
 70
     1
102
RTVSPropertyOp1
 70
     1
102
RTVSPropertyOp2
 70
     1
102
RTVSPropertyOp3
 70
     1
102
RTVSPropertyOp4
 70
     1
102
RTVSPropertyOp5
 70
     1
102
RTVSPropertyOp6
 70
     1
102
RTVSPropertyOp7
 70
     1
102
RTVSPropertyOp8
 70
     1
102
RTVSPropertyOp9
 70
     1
102
RTVSPropertyOp10
 70
     1
102
RTVSPropertyOp11
 70
     1
102
RTVSPropertyOp12
 70
     1
102
RTVSPropertyOp13
 70
     1
102
RTVSPropertyOp14
 70
     1
102
RTVSPropertyOp15
 70
     1
102
RTVSPropertyOp16
 70
     1
102
RTVSPropertyOp17
 70
     1
102
RTVSPropertyOp18
 70
     1
102
RTVSPropertyOp19
 70
     1
102
RTVSPropertyOp20
 70
     1
102
RTVSPropertyOp21
 70
     1
102
RTVSPropertyOp22
 70
     1
102
RTVSPropertyOp23
 70
     1
102
RTVSPropertyOp24
 70
     1
102
RTVSPropertyOp25
 70
     1
102
RTVSPropertyOp26
 70
     1
102
RTVSPropertyOp27
 70
     1
  0
XRECORD
  5
2A1
102
{ACAD_REACTORS
330
2A0
102
}
330
2A0
100
AcDbXrecord
280
     1
102
RTVSPropertyOp0
 70
     1
102
RTVSPropertyOp1
 70
     1
102
RTVSPropertyOp2
 70
     1
102
RTVSPropertyOp3
 70
     1
102
RTVSPropertyOp4
 70
     1
102
RTVSPropertyOp5
 70
     1
102
RTVSPropertyOp6
 70
     1
102
RTVSPropertyOp7
 70
     1
102
RTVSPropertyOp8
 70
     1
102
RTVSPropertyOp9
 70
     1
102
RTVSPropertyOp10
 70
     1
102
RTVSPropertyOp11
 70
     1
102
RTVSPropertyOp12
 70
     1
102
RTVSPropertyOp13
 70
     1
102
RTVSPropertyOp14
 70
     1
102
RTVSPropertyOp15
 70
     1
102
RTVSPropertyOp16
 70
     1
102
RTVSPropertyOp17
 70
     1
102
RTVSPropertyOp18
 70
     1
102
RTVSPropertyOp19
 70
     1
102
RTVSPropertyOp20
 70
     1
102
RTVSPropertyOp21
 70
     1
102
RTVSPropertyOp22
 70
     1
102
RTVSPropertyOp23
 70
     1
102
RTVSPropertyOp24
 70
     1
102
RTVSPropertyOp25
 70
     1
102
RTVSPropertyOp26
 70
     1
102
RTVSPropertyOp27
 70
     1
  0
XRECORD
  5
2A5
102
{ACAD_REACTORS
330
2A4
102
}
330
2A4
100
AcDbXrecord
280
     1
102
RTVSPropertyOp0
 70
     1
102
RTVSPropertyOp1
 70
     1
102
RTVSPropertyOp2
 70
     1
102
RTVSPropertyOp3
 70
     1
102
RTVSPropertyOp4
 70
     1
102
RTVSPropertyOp5
 70
     1
102
RTVSPropertyOp6
 70
     1
102
RTVSPropertyOp7
 70
     1
102
RTVSPropertyOp8
 70
     1
102
RTVSPropertyOp9
 70
     1
102
RTVSPropertyOp10
 70
     1
102
RTVSPropertyOp11
 70
     1
102
RTVSPropertyOp12
 70
     1
102
RTVSPropertyOp13
 70
     1
102
RTVSPropertyOp14
 70
     1
102
RTVSPropertyOp15
 70
     1
102
RTVSPropertyOp16
 70
     1
102
RTVSPropertyOp17
 70
     1
102
RTVSPropertyOp18
 70
     1
102
RTVSPropertyOp19
 70
     1
102
RTVSPropertyOp20
 70
     1
102
RTVSPropertyOp21
 70
     1
102
RTVSPropertyOp22
 70
     1
102
RTVSPropertyOp23
 70
     1
102
RTVSPropertyOp24
 70
     1
102
RTVSPropertyOp25
 70
     1
102
RTVSPropertyOp26
 70
     1
102
RTVSPropertyOp27
 70
     1
  0
XRECORD
  5
2AD
102
{ACAD_REACTORS
330
2AC
102
}
330
2AC
100
AcDbXrecord
280
     1
102
RTVSPropertyOp0
 70
     1
102
RTVSPropertyOp1
 70
     1
102
RTVSPropertyOp2
 70
     1
102
RTVSPropertyOp3
 70
     1
102
RTVSPropertyOp4
 70
     1
102
RTVSPropertyOp5
 70
     1
102
RTVSPropertyOp6
 70
     1
102
RTVSPropertyOp7
 70
     1
102
RTVSPropertyOp8
 70
     1
102
RTVSPropertyOp9
 70
     1
102
RTVSPropertyOp10
 70
     1
102
RTVSPropertyOp11
 70
     1
102
RTVSPropertyOp12
 70
     1
102
RTVSPropertyOp13
 70
     1
102
RTVSPropertyOp14
 70
     1
102
RTVSPropertyOp15
 70
     1
102
RTVSPropertyOp16
 70
     1
102
RTVSPropertyOp17
 70
     1
102
RTVSPropertyOp18
 70
     1
102
RTVSPropertyOp19
 70
     1
102
RTVSPropertyOp20
 70
     1
102
RTVSPropertyOp21
 70
     1
102
RTVSPropertyOp22
 70
     1
102
RTVSPropertyOp23
 70
     1
102
RTVSPropertyOp24
 70
     1
102
RTVSPropertyOp25
 70
     1
102
RTVSPropertyOp26
 70
     1
102
RTVSPropertyOp27
 70
     1
  0
XRECORD
  5
2B5
102
{ACAD_REACTORS
330
2B4
102
}
330
2B4
100
AcDbXrecord
280
     1
102
RTVSPropertyOp0
 70
     1
102
RTVSPropertyOp1
 70
     1
102
RTVSPropertyOp2
 70
     1
102
RTVSPropertyOp3
 70
     1
102
RTVSPropertyOp4
 70
     1
102
RTVSPropertyOp5
 70
     1
102
RTVSPropertyOp6
 70
     1
102
RTVSPropertyOp7
 70
     1
102
RTVSPropertyOp8
 70
     1
102
RTVSPropertyOp9
 70
     1
102
RTVSPropertyOp10
 70
     1
102
RTVSPropertyOp11
 70
     1
102
RTVSPropertyOp12
 70
     1
102
RTVSPropertyOp13
 70
     1
102
RTVSPropertyOp14
 70
     1
102
RTVSPropertyOp15
 70
     1
102
RTVSPropertyOp16
 70
     1
102
RTVSPropertyOp17
 70
     1
102
RTVSPropertyOp18
 70
     1
102
RTVSPropertyOp19
 70
     1
102
RTVSPropertyOp20
 70
     1
102
RTVSPropertyOp21
 70
     1
102
RTVSPropertyOp22
 70
     1
102
RTVSPropertyOp23
 70
     1
102
RTVSPropertyOp24
 70
     1
102
RTVSPropertyOp25
 70
     1
102
RTVSPropertyOp26
 70
     1
102
RTVSPropertyOp27
 70
     1
  0
XRECORD
  5
2A9
102
{ACAD_REACTORS
330
2A8
102
}
330
2A8
100
AcDbXrecord
280
     1
102
RTVSPropertyOp0
 70
     1
102
RTVSPropertyOp1
 70
     1
102
RTVSPropertyOp2
 70
     1
102
RTVSPropertyOp3
 70
     1
102
RTVSPropertyOp4
 70
     1
102
RTVSPropertyOp5
 70
     1
102
RTVSPropertyOp6
 70
     1
102
RTVSPropertyOp7
 70
     1
102
RTVSPropertyOp8
 70
     1
102
RTVSPropertyOp9
 70
     1
102
RTVSPropertyOp10
 70
     1
102
RTVSPropertyOp11
 70
     1
102
RTVSPropertyOp12
 70
     1
102
RTVSPropertyOp13
 70
     1
102
RTVSPropertyOp14
 70
     1
102
RTVSPropertyOp15
 70
     1
102
RTVSPropertyOp16
 70
     1
102
RTVSPropertyOp17
 70
     1
102
RTVSPropertyOp18
 70
     1
102
RTVSPropertyOp19
 70
     1
102
RTVSPropertyOp20
 70
     1
102
RTVSPropertyOp21
 70
     1
102
RTVSPropertyOp22
 70
     1
102
RTVSPropertyOp23
 70
     1
102
RTVSPropertyOp24
 70
     1
102
RTVSPropertyOp25
 70
     1
102
RTVSPropertyOp26
 70
     1
102
RTVSPropertyOp27
 70
     1
  0
XRECORD
  5
2AB
102
{ACAD_REACTORS
330
2AA
102
}
330
2AA
100
AcDbXrecord
280
     1
102
RTVSPropertyOp0
 70
     1
102
RTVSPropertyOp1
 70
     1
102
RTVSPropertyOp2
 70
     1
102
RTVSPropertyOp3
 70
     1
102
RTVSPropertyOp4
 70
     1
102
RTVSPropertyOp5
 70
     1
102
RTVSPropertyOp6
 70
     1
102
RTVSPropertyOp7
 70
     1
102
RTVSPropertyOp8
 70
     1
102
RTVSPropertyOp9
 70
     1
102
RTVSPropertyOp10
 70
     1
102
RTVSPropertyOp11
 70
     1
102
RTVSPropertyOp12
 70
     1
102
RTVSPropertyOp13
 70
     1
102
RTVSPropertyOp14
 70
     1
102
RTVSPropertyOp15
 70
     1
102
RTVSPropertyOp16
 70
     1
102
RTVSPropertyOp17
 70
     1
102
RTVSPropertyOp18
 70
     1
102
RTVSPropertyOp19
 70
     1
102
RTVSPropertyOp20
 70
     1
102
RTVSPropertyOp21
 70
     1
102
RTVSPropertyOp22
 70
     1
102
RTVSPropertyOp23
 70
     1
102
RTVSPropertyOp24
 70
     1
102
RTVSPropertyOp25
 70
     1
102
RTVSPropertyOp26
 70
     1
102
RTVSPropertyOp27
 70
     1
  0
XRECORD
  5
2B3
102
{ACAD_REACTORS
330
2B2
102
}
330
2B2
100
AcDbXrecord
280
     1
102
RTVSPropertyOp0
 70
     1
102
RTVSPropertyOp1
 70
     1
102
RTVSPropertyOp2
 70
     1
102
RTVSPropertyOp3
 70
     1
102
RTVSPropertyOp4
 70
     1
102
RTVSPropertyOp5
 70
     1
102
RTVSPropertyOp6
 70
     1
102
RTVSPropertyOp7
 70
     1
102
RTVSPropertyOp8
 70
     1
102
RTVSPropertyOp9
 70
     1
102
RTVSPropertyOp10
 70
     1
102
RTVSPropertyOp11
 70
     1
102
RTVSPropertyOp12
 70
     1
102
RTVSPropertyOp13
 70
     1
102
RTVSPropertyOp14
 70
     1
102
RTVSPropertyOp15
 70
     1
102
RTVSPropertyOp16
 70
     1
102
RTVSPropertyOp17
 70
     1
102
RTVSPropertyOp18
 70
     1
102
RTVSPropertyOp19
 70
     1
102
RTVSPropertyOp20
 70
     1
102
RTVSPropertyOp21
 70
     1
102
RTVSPropertyOp22
 70
     1
102
RTVSPropertyOp23
 70
     1
102
RTVSPropertyOp24
 70
     1
102
RTVSPropertyOp25
 70
     1
102
RTVSPropertyOp26
 70
     1
102
RTVSPropertyOp27
 70
     1
  0
XRECORD
  5
297
102
{ACAD_REACTORS
330
296
102
}
330
296
100
AcDbXrecord
280
     1
102
RTVSPropertyOp0
 70
     1
102
RTVSPropertyOp1
 70
     1
102
RTVSPropertyOp2
 70
     1
102
RTVSPropertyOp3
 70
     1
102
RTVSPropertyOp4
 70
     1
102
RTVSPropertyOp5
 70
     1
102
RTVSPropertyOp6
 70
     1
102
RTVSPropertyOp7
 70
     1
102
RTVSPropertyOp8
 70
     1
102
RTVSPropertyOp9
 70
     1
102
RTVSPropertyOp10
 70
     1
102
RTVSPropertyOp11
 70
     1
102
RTVSPropertyOp12
 70
     1
102
RTVSPropertyOp13
 70
     1
102
RTVSPropertyOp14
 70
     1
102
RTVSPropertyOp15
 70
     1
102
RTVSPropertyOp16
 70
     1
102
RTVSPropertyOp17
 70
     1
102
RTVSPropertyOp18
 70
     1
102
RTVSPropertyOp19
 70
     1
102
RTVSPropertyOp20
 70
     1
102
RTVSPropertyOp21
 70
     1
102
RTVSPropertyOp22
 70
     1
102
RTVSPropertyOp23
 70
     1
102
RTVSPropertyOp24
 70
     1
102
RTVSPropertyOp25
 70
     1
102
RTVSPropertyOp26
 70
     1
102
RTVSPropertyOp27
 70
     1
  0
XRECORD
  5
299
102
{ACAD_REACTORS
330
298
102
}
330
298
100
AcDbXrecord
280
     1
102
RTVSPropertyOp0
 70
     1
102
RTVSPropertyOp1
 70
     1
102
RTVSPropertyOp2
 70
     1
102
RTVSPropertyOp3
 70
     1
102
RTVSPropertyOp4
 70
     1
102
RTVSPropertyOp5
 70
     1
102
RTVSPropertyOp6
 70
     1
102
RTVSPropertyOp7
 70
     1
102
RTVSPropertyOp8
 70
     1
102
RTVSPropertyOp9
 70
     1
102
RTVSPropertyOp10
 70
     1
102
RTVSPropertyOp11
 70
     1
102
RTVSPropertyOp12
 70
     1
102
RTVSPropertyOp13
 70
     1
102
RTVSPropertyOp14
 70
     1
102
RTVSPropertyOp15
 70
     1
102
RTVSPropertyOp16
 70
     1
102
RTVSPropertyOp17
 70
     1
102
RTVSPropertyOp18
 70
     1
102
RTVSPropertyOp19
 70
     1
102
RTVSPropertyOp20
 70
     1
102
RTVSPropertyOp21
 70
     1
102
RTVSPropertyOp22
 70
     1
102
RTVSPropertyOp23
 70
     1
102
RTVSPropertyOp24
 70
     1
102
RTVSPropertyOp25
 70
     1
102
RTVSPropertyOp26
 70
     1
102
RTVSPropertyOp27
 70
     1
  0
XRECORD
  5
29B
102
{ACAD_REACTORS
330
29A
102
}
330
29A
100
AcDbXrecord
280
     1
102
RTVSPropertyOp0
 70
     1
102
RTVSPropertyOp1
 70
     1
102
RTVSPropertyOp2
 70
     1
102
RTVSPropertyOp3
 70
     1
102
RTVSPropertyOp4
 70
     1
102
RTVSPropertyOp5
 70
     1
102
RTVSPropertyOp6
 70
     1
102
RTVSPropertyOp7
 70
     1
102
RTVSPropertyOp8
 70
     1
102
RTVSPropertyOp9
 70
     1
102
RTVSPropertyOp10
 70
     1
102
RTVSPropertyOp11
 70
     1
102
RTVSPropertyOp12
 70
     1
102
RTVSPropertyOp13
 70
     1
102
RTVSPropertyOp14
 70
     1
102
RTVSPropertyOp15
 70
     1
102
RTVSPropertyOp16
 70
     1
102
RTVSPropertyOp17
 70
     1
102
RTVSPropertyOp18
 70
     1
102
RTVSPropertyOp19
 70
     1
102
RTVSPropertyOp20
 70
     1
102
RTVSPropertyOp21
 70
     1
102
RTVSPropertyOp22
 70
     1
102
RTVSPropertyOp23
 70
     1
102
RTVSPropertyOp24
 70
     1
102
RTVSPropertyOp25
 70
     1
102
RTVSPropertyOp26
 70
     1
102
RTVSPropertyOp27
 70
     1
  0
XRECORD
  5
29D
102
{ACAD_REACTORS
330
29C
102
}
330
29C
100
AcDbXrecord
280
     1
102
RTVSPropertyOp0
 70
     1
102
RTVSPropertyOp1
 70
     1
102
RTVSPropertyOp2
 70
     1
102
RTVSPropertyOp3
 70
     1
102
RTVSPropertyOp4
 70
     1
102
RTVSPropertyOp5
 70
     1
102
RTVSPropertyOp6
 70
     1
102
RTVSPropertyOp7
 70
     1
102
RTVSPropertyOp8
 70
     1
102
RTVSPropertyOp9
 70
     1
102
RTVSPropertyOp10
 70
     1
102
RTVSPropertyOp11
 70
     1
102
RTVSPropertyOp12
 70
     1
102
RTVSPropertyOp13
 70
     1
102
RTVSPropertyOp14
 70
     1
102
RTVSPropertyOp15
 70
     1
102
RTVSPropertyOp16
 70
     1
102
RTVSPropertyOp17
 70
     1
102
RTVSPropertyOp18
 70
     1
102
RTVSPropertyOp19
 70
     1
102
RTVSPropertyOp20
 70
     1
102
RTVSPropertyOp21
 70
     1
102
RTVSPropertyOp22
 70
     1
102
RTVSPropertyOp23
 70
     1
102
RTVSPropertyOp24
 70
     1
102
RTVSPropertyOp25
 70
     1
102
RTVSPropertyOp26
 70
     1
102
RTVSPropertyOp27
 70
     1
  0
XRECORD
  5
2B1
102
{ACAD_REACTORS
330
2B0
102
}
330
2B0
100
AcDbXrecord
280
     1
102
RTVSPropertyOp0
 70
     1
102
RTVSPropertyOp1
 70
     1
102
RTVSPropertyOp2
 70
     1
102
RTVSPropertyOp3
 70
     1
102
RTVSPropertyOp4
 70
     1
102
RTVSPropertyOp5
 70
     1
102
RTVSPropertyOp6
 70
     1
102
RTVSPropertyOp7
 70
     1
102
RTVSPropertyOp8
 70
     1
102
RTVSPropertyOp9
 70
     1
102
RTVSPropertyOp10
 70
     1
102
RTVSPropertyOp11
 70
     1
102
RTVSPropertyOp12
 70
     1
102
RTVSPropertyOp13
 70
     1
102
RTVSPropertyOp14
 70
     1
102
RTVSPropertyOp15
 70
     1
102
RTVSPropertyOp16
 70
     1
102
RTVSPropertyOp17
 70
     1
102
RTVSPropertyOp18
 70
     1
102
RTVSPropertyOp19
 70
     1
102
RTVSPropertyOp20
 70
     1
102
RTVSPropertyOp21
 70
     1
102
RTVSPropertyOp22
 70
     1
102
RTVSPropertyOp23
 70
     1
102
RTVSPropertyOp24
 70
     1
102
RTVSPropertyOp25
 70
     1
102
RTVSPropertyOp26
 70
     1
102
RTVSPropertyOp27
 70
     1
  0
XRECORD
  5
2A7
102
{ACAD_REACTORS
330
2A6
102
}
330
2A6
100
AcDbXrecord
280
     1
102
RTVSPropertyOp0
 70
     1
102
RTVSPropertyOp1
 70
     1
102
RTVSPropertyOp2
 70
     1
102
RTVSPropertyOp3
 70
     1
102
RTVSPropertyOp4
 70
     1
102
RTVSPropertyOp5
 70
     1
102
RTVSPropertyOp6
 70
     1
102
RTVSPropertyOp7
 70
     1
102
RTVSPropertyOp8
 70
     1
102
RTVSPropertyOp9
 70
     1
102
RTVSPropertyOp10
 70
     1
102
RTVSPropertyOp11
 70
     1
102
RTVSPropertyOp12
 70
     1
102
RTVSPropertyOp13
 70
     1
102
RTVSPropertyOp14
 70
     1
102
RTVSPropertyOp15
 70
     1
102
RTVSPropertyOp16
 70
     1
102
RTVSPropertyOp17
 70
     1
102
RTVSPropertyOp18
 70
     1
102
RTVSPropertyOp19
 70
     1
102
RTVSPropertyOp20
 70
     1
102
RTVSPropertyOp21
 70
     1
102
RTVSPropertyOp22
 70
     1
102
RTVSPropertyOp23
 70
     1
102
RTVSPropertyOp24
 70
     1
102
RTVSPropertyOp25
 70
     1
102
RTVSPropertyOp26
 70
     1
102
RTVSPropertyOp27
 70
     1
  0
XRECORD
  5
2AF
102
{ACAD_REACTORS
330
2AE
102
}
330
2AE
100
AcDbXrecord
280
     1
102
RTVSPropertyOp0
 70
     1
102
RTVSPropertyOp1
 70
     1
102
RTVSPropertyOp2
 70
     1
102
RTVSPropertyOp3
 70
     1
102
RTVSPropertyOp4
 70
     1
102
RTVSPropertyOp5
 70
     1
102
RTVSPropertyOp6
 70
     1
102
RTVSPropertyOp7
 70
     1
102
RTVSPropertyOp8
 70
     1
102
RTVSPropertyOp9
 70
     1
102
RTVSPropertyOp10
 70
     1
102
RTVSPropertyOp11
 70
     1
102
RTVSPropertyOp12
 70
     1
102
RTVSPropertyOp13
 70
     1
102
RTVSPropertyOp14
 70
     1
102
RTVSPropertyOp15
 70
     1
102
RTVSPropertyOp16
 70
     1
102
RTVSPropertyOp17
 70
     1
102
RTVSPropertyOp18
 70
     1
102
RTVSPropertyOp19
 70
     1
102
RTVSPropertyOp20
 70
     1
102
RTVSPropertyOp21
 70
     1
102
RTVSPropertyOp22
 70
     1
102
RTVSPropertyOp23
 70
     1
102
RTVSPropertyOp24
 70
     1
102
RTVSPropertyOp25
 70
     1
102
RTVSPropertyOp26
 70
     1
102
RTVSPropertyOp27
 70
     1
  0
ENDSEC
  0
EOF
