  0
SECTION
  2
HEADER
  9
$ACADVER
  1
AC1018
  9
$ACADMAINTVER
 70
     0
  9
$DWGCODEPAGE
  3
ANSI_1252
  9
$INSBASE
 10
0.0
 20
0.0
 30
0.0
  9
$EXTMIN
 10
5005.59742840558
 20
-100.552406188968
 30
0.0
  9
$EXTMAX
 10
5825.59742840558
 20
471.447593811032
 30
0.0
  9
$LIMMIN
 10
0.0
 20
0.0
  9
$LIMMAX
 10
12.0
 20
9.0
  9
$ORTHOMODE
 70
     0
  9
$REGENMODE
 70
     1
  9
$FILLMODE
 70
     1
  9
$QTEXTMODE
 70
     0
  9
$MIRRTEXT
 70
     1
  9
$LTSCALE
 40
1.0
  9
$ATTMODE
 70
     1
  9
$TEXTSIZE
 40
0.2
  9
$TRACEWID
 40
0.05
  9
$TEXTSTYLE
  7
Standard
  9
$CLAYER
  8
0
  9
$CELTYPE
  6
ByLayer
  9
$CECOLOR
 62
   256
  9
$CELTSCALE
 40
1.0
  9
$DISPSILH
 70
     0
  9
$DIMSCALE
 40
1.0
  9
$DIMASZ
 40
0.18
  9
$DIMEXO
 40
0.0625
  9
$DIMDLI
 40
0.38
  9
$DIMRND
 40
0.0
  9
$DIMDLE
 40
0.0
  9
$DIMEXE
 40
0.18
  9
$DIMTP
 40
0.0
  9
$DIMTM
 40
0.0
  9
$DIMTXT
 40
0.18
  9
$DIMCEN
 40
0.09
  9
$DIMTSZ
 40
0.0
  9
$DIMTOL
 70
     0
  9
$DIMLIM
 70
     0
  9
$DIMTIH
 70
     1
  9
$DIMTOH
 70
     1
  9
$DIMSE1
 70
     0
  9
$DIMSE2
 70
     0
  9
$DIMTAD
 70
     0
  9
$DIMZIN
 70
     0
  9
$DIMBLK
  1

  9
$DIMASO
 70
     1
  9
$DIMSHO
 70
     1
  9
$DIMPOST
  1

  9
$DIMAPOST
  1

  9
$DIMALT
 70
     0
  9
$DIMALTD
 70
     2
  9
$DIMALTF
 40
25.4
  9
$DIMLFAC
 40
1.0
  9
$DIMTOFL
 70
     0
  9
$DIMTVP
 40
0.0
  9
$DIMTIX
 70
     0
  9
$DIMSOXD
 70
     0
  9
$DIMSAH
 70
     0
  9
$DIMBLK1
  1

  9
$DIMBLK2
  1

  9
$DIMSTYLE
  2
Standard
  9
$DIMCLRD
 70
     0
  9
$DIMCLRE
 70
     0
  9
$DIMCLRT
 70
     0
  9
$DIMTFAC
 40
1.0
  9
$DIMGAP
 40
0.09
  9
$DIMJUST
 70
     0
  9
$DIMSD1
 70
     0
  9
$DIMSD2
 70
     0
  9
$DIMTOLJ
 70
     1
  9
$DIMTZIN
 70
     0
  9
$DIMALTZ
 70
     0
  9
$DIMALTTZ
 70
     0
  9
$DIMUPT
 70
     0
  9
$DIMDEC
 70
     4
  9
$DIMTDEC
 70
     4
  9
$DIMALTU
 70
     2
  9
$DIMALTTD
 70
     2
  9
$DIMTXSTY
  7
Standard
  9
$DIMAUNIT
 70
     0
  9
$DIMADEC
 70
     0
  9
$DIMALTRND
 40
0.0
  9
$DIMAZIN
 70
     0
  9
$DIMDSEP
 70
    46
  9
$DIMATFIT
 70
     3
  9
$DIMFRAC
 70
     0
  9
$DIMLDRBLK
  1

  9
$DIMLUNIT
 70
     2
  9
$DIMLWD
 70
    -2
  9
$DIMLWE
 70
    -2
  9
$DIMTMOVE
 70
     0
  9
$LUNITS
 70
     2
  9
$LUPREC
 70
     4
  9
$SKETCHINC
 40
0.1
  9
$FILLETRAD
 40
0.5
  9
$AUNITS
 70
     0
  9
$AUPREC
 70
     0
  9
$MENU
  1
.
  9
$ELEVATION
 40
0.0
  9
$PELEVATION
 40
0.0
  9
$THICKNESS
 40
0.0
  9
$LIMCHECK
 70
     0
  9
$CHAMFERA
 40
0.0
  9
$CHAMFERB
 40
0.0
  9
$CHAMFERC
 40
0.0
  9
$CHAMFERD
 40
0.0
  9
$SKPOLY
 70
     0
  9
$TDCREATE
 40
2458079.564044155
  9
$TDUCREATE
 40
2458079.522377488
  9
$TDUPDATE
 40
2458079.564044514
  9
$TDUUPDATE
 40
2458079.522377847
  9
$TDINDWG
 40
0.0000000116
  9
$TDUSRTIMER
 40
0.0000000116
  9
$USRTIMER
 70
     1
  9
$ANGBASE
 50
0.0
  9
$ANGDIR
 70
     0
  9
$PDMODE
 70
     0
  9
$PDSIZE
 40
0.0
  9
$PLINEWID
 40
0.0
  9
$SPLFRAME
 70
     0
  9
$SPLINETYPE
 70
     6
  9
$SPLINESEGS
 70
     8
  9
$HANDSEED
  5
337
  9
$SURFTAB1
 70
     6
  9
$SURFTAB2
 70
     6
  9
$SURFTYPE
 70
     6
  9
$SURFU
 70
     6
  9
$SURFV
 70
     6
  9
$UCSBASE
  2

  9
$UCSNAME
  2

  9
$UCSORG
 10
0.0
 20
0.0
 30
0.0
  9
$UCSXDIR
 10
1.0
 20
0.0
 30
0.0
  9
$UCSYDIR
 10
0.0
 20
1.0
 30
0.0
  9
$UCSORTHOREF
  2

  9
$UCSORTHOVIEW
 70
     0
  9
$UCSORGTOP
 10
0.0
 20
0.0
 30
0.0
  9
$UCSORGBOTTOM
 10
0.0
 20
0.0
 30
0.0
  9
$UCSORGLEFT
 10
0.0
 20
0.0
 30
0.0
  9
$UCSORGRIGHT
 10
0.0
 20
0.0
 30
0.0
  9
$UCSORGFRONT
 10
0.0
 20
0.0
 30
0.0
  9
$UCSORGBACK
 10
0.0
 20
0.0
 30
0.0
  9
$PUCSBASE
  2

  9
$PUCSNAME
  2

  9
$PUCSORG
 10
0.0
 20
0.0
 30
0.0
  9
$PUCSXDIR
 10
1.0
 20
0.0
 30
0.0
  9
$PUCSYDIR
 10
0.0
 20
1.0
 30
0.0
  9
$PUCSORTHOREF
  2

  9
$PUCSORTHOVIEW
 70
     0
  9
$PUCSORGTOP
 10
0.0
 20
0.0
 30
0.0
  9
$PUCSORGBOTTOM
 10
0.0
 20
0.0
 30
0.0
  9
$PUCSORGLEFT
 10
0.0
 20
0.0
 30
0.0
  9
$PUCSORGRIGHT
 10
0.0
 20
0.0
 30
0.0
  9
$PUCSORGFRONT
 10
0.0
 20
0.0
 30
0.0
  9
$PUCSORGBACK
 10
0.0
 20
0.0
 30
0.0
  9
$USERI1
 70
     0
  9
$USERI2
 70
     0
  9
$USERI3
 70
     0
  9
$USERI4
 70
     0
  9
$USERI5
 70
     0
  9
$USERR1
 40
19.0
  9
$USERR2
 40
0.0
  9
$USERR3
 40
0.0
  9
$USERR4
 40
0.0
  9
$USERR5
 40
0.0
  9
$WORLDVIEW
 70
     1
  9
$SHADEDGE
 70
     3
  9
$SHADEDIF
 70
    70
  9
$TILEMODE
 70
     1
  9
$MAXACTVP
 70
    64
  9
$PINSBASE
 10
0.0
 20
0.0
 30
0.0
  9
$PLIMCHECK
 70
     0
  9
$PEXTMIN
 10
1.00000000000000E+20
 20
1.00000000000000E+20
 30
1.00000000000000E+20
  9
$PEXTMAX
 10
-1.00000000000000E+20
 20
-1.00000000000000E+20
 30
-1.00000000000000E+20
  9
$PLIMMIN
 10
0.0
 20
0.0
  9
$PLIMMAX
 10
12.0
 20
9.0
  9
$UNITMODE
 70
     0
  9
$VISRETAIN
 70
     1
  9
$PLINEGEN
 70
     0
  9
$PSLTSCALE
 70
     1
  9
$TREEDEPTH
 70
  3020
  9
$CMLSTYLE
  2
Standard
  9
$CMLJUST
 70
     0
  9
$CMLSCALE
 40
1.0
  9
$PROXYGRAPHICS
 70
     1
  9
$MEASUREMENT
 70
     1
  9
$CELWEIGHT
370
    -1
  9
$ENDCAPS
280
     0
  9
$JOINSTYLE
280
     0
  9
$LWDISPLAY
290
     0
  9
$INSUNITS
 70
     4
  9
$HYPERLINKBASE
  1

  9
$STYLESHEET
  1

  9
$XEDIT
290
     1
  9
$CEPSNTYPE
380
     0
  9
$PSTYLEMODE
290
     1
  9
$FINGERPRINTGUID
  2
{00604631-1B7C-4C43-8BB2-45FE37977DFA}
  9
$VERSIONGUID
  2
{FAEB1C32-E019-11D5-929B-00C0DF256EC4}
  9
$EXTNAMES
290
     1
  9
$PSVPSCALE
 40
0.0
  9
$OLESTARTUP
290
     0
  9
$SORTENTS
280
   127
  9
$INDEXCTL
280
     0
  9
$HIDETEXT
280
     1
  9
$XCLIPFRAME
290
     0
  9
$HALOGAP
280
     0
  9
$OBSCOLOR
 70
   257
  9
$OBSLTYPE
280
     0
  9
$INTERSECTIONDISPLAY
280
     0
  9
$INTERSECTIONCOLOR
 70
   257
  9
$DIMASSOC
280
     2
  9
$PROJECTNAME
  1

  0
ENDSEC
  0
SECTION
  2
CLASSES
  0
CLASS
  1
ACDBDICTIONARYWDFLT
  2
AcDbDictionaryWithDefault
  3
ObjectDBX Classes
 90
        0
 91
        4
280
     0
281
     0
  0
CLASS
  1
VISUALSTYLE
  2
AcDbVisualStyle
  3
ObjectDBX Classes
 90
     4095
 91
        4
280
     0
281
     0
  0
CLASS
  1
MATERIAL
  2
AcDbMaterial
  3
ObjectDBX Classes
 90
     1153
 91
        4
280
     0
281
     0
  0
CLASS
  1
SCALE
  2
AcDbScale
  3
ObjectDBX Classes
 90
     1153
 91
        4
280
     0
281
     0
  0
CLASS
  1
SUN
  2
AcDbSun
  3
SCENEOE
 90
     1153
 91
        4
280
     0
281
     0
  0
CLASS
  1
DICTIONARYVAR
  2
AcDbDictionaryVar
  3
ObjectDBX Classes
 90
        0
 91
        4
280
     0
281
     0
  0
ENDSEC
  0
SECTION
  2
TABLES
  0
TABLE
  2
VPORT
  5
8
330
0
100
AcDbSymbolTable
 70
     1
  0
VPORT
  5
29
330
8
100
AcDbSymbolTableRecord
100
AcDbViewportTableRecord
  2
*Active
 70
     0
 10
0.0
 20
0.0
 11
1.0
 21
1.0
 12
5415.59742840558
 22
185.447593811032
 13
0.0
 23
0.0
 14
0.5
 24
0.5
 15
0.5
 25
0.5
 16
0.0
 26
0.0
 36
1.0
 17
0.0
 27
0.0
 37
0.0
 40
629.2
 41
1.60267857142857
 42
50.0
 43
0.0
 44
0.0
 50
0.0
 51
0.0
 71
     0
 72
   100
 73
     1
 74
     3
 75
     0
 76
     0
 77
     0
 78
     0
281
     0
 65
     1
110
0.0
120
0.0
130
0.0
111
1.0
121
0.0
131
0.0
112
0.0
122
1.0
132
0.0
 79
     0
146
0.0
  0
ENDTAB
  0
TABLE
  2
LTYPE
  5
5
330
0
100
AcDbSymbolTable
 70
    10
  0
LTYPE
  5
14
330
5
100
AcDbSymbolTableRecord
100
AcDbLinetypeTableRecord
  2
ByBlock
 70
     0
  3

 72
    65
 73
     0
 40
0.0
  0
LTYPE
  5
15
330
5
100
AcDbSymbolTableRecord
100
AcDbLinetypeTableRecord
  2
ByLayer
 70
     0
  3

 72
    65
 73
     0
 40
0.0
  0
LTYPE
  5
16
330
5
100
AcDbSymbolTableRecord
100
AcDbLinetypeTableRecord
  2
Continuous
 70
     0
  3
Solid line
 72
    65
 73
     0
 40
0.0
  0
LTYPE
  5
6A
330
5
100
AcDbSymbolTableRecord
100
AcDbLinetypeTableRecord
  2
DASHED
 70
     0
  3
Dashed
 72
    65
 73
     2
 40
15.0
 49
7.0
 74
     0
 49
-8.0
 74
     0
  0
LTYPE
  5
6B
330
5
100
AcDbSymbolTableRecord
100
AcDbLinetypeTableRecord
  2
DOTTED
 70
     0
  3
Dotted
 72
    65
 73
     2
 40
1.0
 49
0.0
 74
     0
 49
-1.0
 74
     0
  0
LTYPE
  5
6C
330
5
100
AcDbSymbolTableRecord
100
AcDbLinetypeTableRecord
  2
DOT_CENTER
 70
     0
  3
Dot_Center
 72
    65
 73
     4
 40
14.0
 49
12.0
 74
     0
 49
-1.0
 74
     0
 49
0.0
 74
     0
 49
-1.0
 74
     0
  0
LTYPE
  5
6D
330
5
100
AcDbSymbolTableRecord
100
AcDbLinetypeTableRecord
  2
LONG_DASHED
 70
     0
  3
Long_Dashed
 72
    65
 73
     2
 40
15.0
 49
10.0
 74
     0
 49
-5.0
 74
     0
  0
LTYPE
  5
6E
330
5
100
AcDbSymbolTableRecord
100
AcDbLinetypeTableRecord
  2
DASH_CENTER
 70
     0
  3
Dash_Center
 72
    65
 73
     4
 40
14.0
 49
11.0
 74
     0
 49
-1.0
 74
     0
 49
1.0
 74
     0
 49
-1.0
 74
     0
  0
LTYPE
  5
6F
330
5
100
AcDbSymbolTableRecord
100
AcDbLinetypeTableRecord
  2
PHANTOM
 70
     0
  3
Phantom
 72
    65
 73
     6
 40
13.0
 49
10.0
 74
     0
 49
-1.0
 74
     0
 49
0.0
 74
     0
 49
-1.0
 74
     0
 49
0.0
 74
     0
 49
-1.0
 74
     0
  0
LTYPE
  5
70
330
5
100
AcDbSymbolTableRecord
100
AcDbLinetypeTableRecord
  2
CENTER_DASH_DASH
 70
     0
  3
Center_Dash_Dash
 72
    65
 73
     6
 40
14.0
 49
9.0
 74
     0
 49
-1.0
 74
     0
 49
1.0
 74
     0
 49
-1.0
 74
     0
 49
1.0
 74
     0
 49
-1.0
 74
     0
  0
LTYPE
  5
71
330
5
100
AcDbSymbolTableRecord
100
AcDbLinetypeTableRecord
  2
MITTELLINIE_K
 70
     0
  3
MITTELLINIE_K
 72
    65
 73
     4
 40
7.0
 49
5.0
 74
     0
 49
-1.0
 74
     0
 49
0.0
 74
     0
 49
-1.0
 74
     0
  0
LTYPE
  5
72
330
5
100
AcDbSymbolTableRecord
100
AcDbLinetypeTableRecord
  2
MITTELLINIE
 70
     0
  3
MITTELLINIE
 72
    65
 73
     4
 40
17.0
 49
13.0
 74
     0
 49
-2.0
 74
     0
 49
0.0
 74
     0
 49
-2.0
 74
     0
  0
ENDTAB
  0
TABLE
  2
LAYER
  5
2
330
0
100
AcDbSymbolTable
 70
     7
  0
LAYER
  5
10
330
2
100
AcDbSymbolTableRecord
100
AcDbLayerTableRecord
  2
0
 70
     0
 62
     7
  6
Continuous
370
    -3
390
F
  0
LAYER
  5
73
330
2
100
AcDbSymbolTableRecord
100
AcDbLayerTableRecord
  2
1
 70
     0
 62
     7
  6
Continuous
370
    -3
390
F
  0
LAYER
  5
74
330
2
100
AcDbSymbolTableRecord
100
AcDbLayerTableRecord
  2
DEFPOINTS
 70
     0
 62
     7
  6
Continuous
290
     0
370
    -3
390
F
  0
LAYER
  5
75
330
2
100
AcDbSymbolTableRecord
100
AcDbLayerTableRecord
  2
DICK
 70
     0
 62
     7
  6
Continuous
370
    -3
390
F
  0
LAYER
  5
76
330
2
100
AcDbSymbolTableRecord
100
AcDbLayerTableRecord
  2
DUENN
 70
     0
 62
     7
  6
Continuous
370
    -3
390
F
  0
LAYER
  5
77
330
2
100
AcDbSymbolTableRecord
100
AcDbLayerTableRecord
  2
MITTELLINIE
 70
     0
 62
     7
  6
Continuous
370
    -3
390
F
  0
LAYER
  5
78
330
2
100
AcDbSymbolTableRecord
100
AcDbLayerTableRecord
  2
MITTELLINIE-K
 70
     0
 62
     7
  6
Continuous
370
    -3
390
F
  0
ENDTAB
  0
TABLE
  2
STYLE
  5
3
330
0
100
AcDbSymbolTable
 70
     9
  0
STYLE
  5
11
330
3
100
AcDbSymbolTableRecord
100
AcDbTextStyleTableRecord
  2
Standard
 70
     0
 40
0.0
 41
1.0
 50
0.0
 71
     0
 42
0.2
  3
txt
  4

  0
STYLE
  5
10A
330
3
100
AcDbSymbolTableRecord
100
AcDbTextStyleTableRecord
  2
CONVERTER_11
 70
     0
 40
0.0
 41
0.76
 50
0.0
 71
     0
 42
0.2
  3
complex.shx
  4

  0
STYLE
  5
10D
330
3
100
AcDbSymbolTableRecord
100
AcDbTextStyleTableRecord
  2
CONVERTER_12
 70
     0
 40
0.0
 41
0.9
 50
0.0
 71
     0
 42
0.2
  3
txt.shx
  4

  0
STYLE
  5
10F
330
3
100
AcDbSymbolTableRecord
100
AcDbTextStyleTableRecord
  2
CONVERTER_13
 70
     0
 40
0.0
 41
0.63
 50
0.0
 71
     0
 42
0.2
  3
txt.shx
  4

  0
STYLE
  5
111
330
3
100
AcDbSymbolTableRecord
100
AcDbTextStyleTableRecord
  2
CONVERTER_14
 70
     0
 40
0.0
 41
0.72
 50
0.0
 71
     0
 42
0.2
  3
txt.shx
  4

  0
STYLE
  5
11D
330
3
100
AcDbSymbolTableRecord
100
AcDbTextStyleTableRecord
  2
CONVERTER_15
 70
     0
 40
0.0
 41
0.66696267749507
 50
0.0
 71
     0
 42
0.2
  3
txt.shx
  4

  0
STYLE
  5
120
330
3
100
AcDbSymbolTableRecord
100
AcDbTextStyleTableRecord
  2
CONVERTER_16
 70
     0
 40
0.0
 41
0.54
 50
0.0
 71
     0
 42
0.2
  3
txt.shx
  4

  0
STYLE
  5
131
330
3
100
AcDbSymbolTableRecord
100
AcDbTextStyleTableRecord
  2
CONVERTER_17
 70
     0
 40
0.0
 41
0.675
 50
0.0
 71
     0
 42
0.2
  3
txt.shx
  4

  0
STYLE
  5
15D
330
3
100
AcDbSymbolTableRecord
100
AcDbTextStyleTableRecord
  2
CONVERTER_18
 70
     0
 40
0.0
 41
0.765
 50
0.0
 71
     0
 42
0.2
  3
txt.shx
  4

  0
ENDTAB
  0
TABLE
  2
VIEW
  5
6
330
0
100
AcDbSymbolTable
 70
     0
  0
ENDTAB
  0
TABLE
  2
UCS
  5
7
330
0
100
AcDbSymbolTable
 70
     0
  0
ENDTAB
  0
TABLE
  2
APPID
  5
9
330
0
100
AcDbSymbolTable
 70
     1
  0
APPID
  5
12
330
9
100
AcDbSymbolTableRecord
100
AcDbRegAppTableRecord
  2
ACAD
 70
     0
  0
ENDTAB
  0
TABLE
  2
DIMSTYLE
  5
A
330
0
100
AcDbSymbolTable
 70
    23
100
AcDbDimStyleTable
  0
DIMSTYLE
105
27
330
A
100
AcDbSymbolTableRecord
100
AcDbDimStyleTableRecord
  2
Standard
 70
     0
178
     0
340
11
  0
DIMSTYLE
105
1B8
102
{ACAD_REACTORS
330
1B9
102
}
330
A
100
AcDbSymbolTableRecord
100
AcDbDimStyleTableRecord
  2
ME10_DIM_10
 70
     0
 41
6.99999999999974
 42
0.0
 44
4.0
 73
     0
 74
     0
 77
     1
 78
     8
140
6.99999999999974
147
2.0
172
     1
173
     1
174
     1
175
     1
176
     3
177
     3
271
     2
178
     4
271
     2
340
10D
  0
DIMSTYLE
105
1C3
102
{ACAD_REACTORS
330
1C4
102
}
330
A
100
AcDbSymbolTableRecord
100
AcDbDimStyleTableRecord
  2
ME10_DIM_11
 70
     0
 41
6.99999999999974
 42
0.0
 44
4.0
 73
     0
 74
     0
 77
     1
 78
     8
140
6.99999999999974
147
2.0
172
     1
173
     1
174
     1
175
     1
176
     3
177
     3
271
     2
178
     4
271
     2
340
10D
  0
DIMSTYLE
105
1CE
102
{ACAD_REACTORS
330
1CF
102
}
330
A
100
AcDbSymbolTableRecord
100
AcDbDimStyleTableRecord
  2
ME10_DIM_12
 70
     0
 41
6.99999999999974
 42
0.0
 44
4.0
 73
     0
 74
     0
 77
     1
 78
     8
140
6.99999999999974
147
2.0
172
     1
173
     1
174
     1
175
     1
176
     3
177
     3
271
     0
178
     4
271
     0
340
10D
  0
DIMSTYLE
105
1D9
102
{ACAD_REACTORS
330
1DA
102
}
330
A
100
AcDbSymbolTableRecord
100
AcDbDimStyleTableRecord
  2
ME10_DIM_13
 70
     0
 41
6.99999999999974
 42
0.0
 44
4.0
 73
     0
 74
     0
 77
     1
 78
     8
140
6.99999999999974
147
2.0
172
     1
173
     1
174
     1
175
     1
176
     3
177
     3
271
     2
178
     4
271
     2
340
10D
  0
DIMSTYLE
105
1E4
102
{ACAD_REACTORS
330
1E5
102
}
330
A
100
AcDbSymbolTableRecord
100
AcDbDimStyleTableRecord
  2
ME10_DIM_14
 70
     0
 41
6.99999999999974
 42
0.0
 44
4.0
 73
     0
 74
     0
 77
     1
 78
     8
140
6.99999999999974
147
2.0
172
     1
173
     1
174
     1
175
     1
176
     3
177
     3
271
     0
178
     4
271
     0
340
10D
  0
DIMSTYLE
105
1EF
102
{ACAD_REACTORS
330
1F0
102
}
330
A
100
AcDbSymbolTableRecord
100
AcDbDimStyleTableRecord
  2
ME10_DIM_15
 70
     0
 41
6.99999999999974
 42
0.0
 44
4.0
 73
     0
 74
     0
 77
     1
 78
     8
140
6.99999999999974
147
2.0
172
     1
173
     1
174
     1
175
     1
176
     3
177
     3
271
     2
178
     4
271
     2
340
10D
  0
DIMSTYLE
105
1FA
102
{ACAD_REACTORS
330
1FB
102
}
330
A
100
AcDbSymbolTableRecord
100
AcDbDimStyleTableRecord
  2
ME10_DIM_16
 70
     0
 41
6.99999999999974
 42
0.0
 44
4.0
 73
     0
 74
     0
 77
     1
 78
     8
140
6.99999999999974
147
2.0
172
     1
173
     1
174
     1
175
     1
176
     3
177
     3
271
     0
178
     4
271
     0
340
10D
  0
DIMSTYLE
105
205
102
{ACAD_REACTORS
330
206
102
}
330
A
100
AcDbSymbolTableRecord
100
AcDbDimStyleTableRecord
  2
ME10_DIM_17
 70
     0
 41
6.99999999999974
 42
0.0
 44
4.0
 73
     0
 74
     0
 77
     1
 78
     8
140
6.99999999999974
147
2.0
172
     1
173
     1
174
     1
175
     1
176
     3
177
     3
271
     2
178
     4
271
     2
340
10D
  0
DIMSTYLE
105
210
102
{ACAD_REACTORS
330
211
102
}
330
A
100
AcDbSymbolTableRecord
100
AcDbDimStyleTableRecord
  2
ME10_DIM_18
 70
     0
 41
6.99999999999974
 42
0.0
 44
4.0
 73
     0
 74
     0
 77
     1
 78
     8
140
6.99999999999974
147
2.0
172
     1
173
     1
174
     1
175
     1
176
     3
177
     3
271
     2
178
     4
271
     2
340
10D
  0
DIMSTYLE
105
21B
102
{ACAD_REACTORS
330
21C
102
}
330
A
100
AcDbSymbolTableRecord
100
AcDbDimStyleTableRecord
  2
ME10_DIM_19
 70
     0
 41
6.99999999999974
 42
0.0
 44
4.0
 73
     0
 74
     0
 77
     1
 78
     8
140
6.99999999999974
147
2.0
172
     1
173
     1
174
     1
175
     1
176
     3
177
     3
271
     2
178
     4
271
     2
340
10D
  0
DIMSTYLE
105
228
102
{ACAD_REACTORS
330
229
102
}
330
A
100
AcDbSymbolTableRecord
100
AcDbDimStyleTableRecord
  2
ME10_DIM_20
 70
     0
 41
6.99999999999974
 42
0.0
 44
4.0
 73
     0
 74
     0
 77
     1
 78
     8
140
6.99999999999974
147
2.0
172
     1
173
     1
174
     1
175
     1
176
     3
177
     3
271
     2
178
     4
271
     2
340
10D
  0
DIMSTYLE
105
233
102
{ACAD_REACTORS
330
234
102
}
330
A
100
AcDbSymbolTableRecord
100
AcDbDimStyleTableRecord
  2
ME10_DIM_21
 70
     0
 41
6.99999999999974
 42
0.0
 44
4.0
 73
     0
 74
     0
 77
     1
 78
     8
140
6.99999999999974
147
2.0
172
     1
173
     1
174
     1
175
     1
176
     3
177
     3
271
     2
178
     4
271
     2
340
10D
  0
DIMSTYLE
105
23E
102
{ACAD_REACTORS
330
23F
102
}
330
A
100
AcDbSymbolTableRecord
100
AcDbDimStyleTableRecord
  2
ME10_DIM_22
 70
     0
 41
6.99999999999974
 42
0.0
 44
4.0
 73
     0
 74
     0
 77
     1
 78
     8
140
6.99999999999974
147
2.0
172
     1
173
     1
174
     1
175
     1
176
     3
177
     3
271
     2
178
     4
271
     2
340
10D
  0
DIMSTYLE
105
249
102
{ACAD_REACTORS
330
24A
102
}
330
A
100
AcDbSymbolTableRecord
100
AcDbDimStyleTableRecord
  2
ME10_DIM_23
 70
     0
 41
6.99999999999974
 42
0.0
 44
4.0
 73
     0
 74
     0
 77
     1
 78
     8
140
6.99999999999974
147
2.0
172
     1
173
     1
174
     1
175
     1
176
     3
177
     3
271
     2
178
     4
271
     2
340
10D
  0
DIMSTYLE
105
254
102
{ACAD_REACTORS
330
255
102
}
330
A
100
AcDbSymbolTableRecord
100
AcDbDimStyleTableRecord
  2
ME10_DIM_24
 70
     0
 41
6.99999999999974
 42
0.0
 44
4.0
 73
     0
 74
     0
 77
     1
 78
     8
140
6.99999999999974
147
2.0
172
     1
173
     1
174
     1
175
     1
176
     3
177
     3
271
     2
178
     4
271
     2
340
10D
  0
DIMSTYLE
105
261
102
{ACAD_REACTORS
330
262
102
}
330
A
100
AcDbSymbolTableRecord
100
AcDbDimStyleTableRecord
  2
ME10_DIM_25
 70
     0
 41
6.99999999999974
 42
0.0
 44
4.0
 73
     0
 74
     0
 77
     1
 78
     8
140
6.99999999999974
147
2.0
172
     1
173
     1
174
     1
175
     1
176
     3
177
     3
271
     2
178
     4
271
     2
340
10D
  0
DIMSTYLE
105
26C
102
{ACAD_REACTORS
330
26D
102
}
330
A
100
AcDbSymbolTableRecord
100
AcDbDimStyleTableRecord
  2
ME10_DIM_26
 70
     0
 41
6.99999999999974
 42
0.0
 44
4.0
 73
     0
 74
     0
 77
     1
 78
     8
140
6.99999999999974
147
2.0
172
     1
173
     1
174
     1
175
     1
176
     3
177
     3
271
     2
178
     4
271
     2
340
10D
  0
DIMSTYLE
105
277
102
{ACAD_REACTORS
330
278
102
}
330
A
100
AcDbSymbolTableRecord
100
AcDbDimStyleTableRecord
  2
ME10_DIM_27
 70
     0
  3
(<>)
 41
6.99999999999974
 42
0.0
 44
4.0
 73
     0
 74
     0
 77
     1
 78
     8
140
6.99999999999974
147
2.0
172
     1
173
     1
174
     1
175
     1
176
     3
177
     3
271
     2
178
     4
271
     2
340
10D
  0
DIMSTYLE
105
282
102
{ACAD_REACTORS
330
283
102
}
330
A
100
AcDbSymbolTableRecord
100
AcDbDimStyleTableRecord
  2
ME10_DIM_28
 70
     0
 41
6.99999999999974
 42
0.0
 44
4.0
 73
     0
 74
     0
 77
     1
 78
     8
140
6.99999999999974
147
2.0
172
     1
173
     1
174
     1
175
     1
176
     3
177
     3
271
     2
178
     4
271
     2
340
10D
  0
DIMSTYLE
105
28D
102
{ACAD_REACTORS
330
28E
102
}
330
A
100
AcDbSymbolTableRecord
100
AcDbDimStyleTableRecord
  2
ME10_DIM_29
 70
     0
 41
6.99999999999974
 42
0.0
 44
4.0
 73
     0
 74
     0
 77
     1
 78
     8
140
6.99999999999974
147
2.0
172
     1
173
     1
174
     1
175
     1
176
     3
177
     3
271
     2
178
     4
271
     2
340
10D
  0
DIMSTYLE
105
29A
102
{ACAD_REACTORS
330
29B
102
}
330
A
100
AcDbSymbolTableRecord
100
AcDbDimStyleTableRecord
  2
ME10_DIM_30
 70
     0
  3
(<>)
 41
7.0
 42
0.0
 44
4.0
 73
     0
 74
     0
 77
     1
 78
     8
140
7.0
147
4.0
172
     1
173
     1
174
     1
175
     1
176
     3
177
     3
271
     2
178
     4
271
     2
340
10D
  0
DIMSTYLE
105
2A5
102
{ACAD_REACTORS
330
2A6
102
}
330
A
100
AcDbSymbolTableRecord
100
AcDbDimStyleTableRecord
  2
ME10_DIM_31
 70
     0
 41
7.0
 42
0.0
 44
4.0
 73
     0
 74
     0
 77
     1
 78
     8
140
7.0
147
4.0
172
     1
173
     1
174
     1
175
     1
176
     3
177
     3
271
     2
178
     4
271
     2
340
10D
  0
ENDTAB
  0
TABLE
  2
BLOCK_RECORD
  5
1
330
0
100
AcDbSymbolTable
 70
    36
  0
BLOCK_RECORD
  5
1F
330
1
100
AcDbSymbolTableRecord
100
AcDbBlockTableRecord
  2
*Model_Space
340
22
  0
BLOCK_RECORD
  5
1B
330
1
100
AcDbSymbolTableRecord
100
AcDbBlockTableRecord
  2
*Paper_Space
340
1E
  0
BLOCK_RECORD
  5
23
330
1
100
AcDbSymbolTableRecord
100
AcDbBlockTableRecord
  2
*Paper_Space0
340
26
  0
BLOCK_RECORD
  5
79
330
1
100
AcDbSymbolTableRecord
100
AcDbBlockTableRecord
  2
a3kl
340
0
102
{BLKREFS
331
7D
102
}
  0
BLOCK_RECORD
  5
7C
330
1
100
AcDbSymbolTableRecord
100
AcDbBlockTableRecord
  2
rahmen
340
0
102
{BLKREFS
331
80
102
}
  0
BLOCK_RECORD
  5
1AF
330
1
100
AcDbSymbolTableRecord
100
AcDbBlockTableRecord
  2
*D3
340
0
  0
BLOCK_RECORD
  5
1BA
330
1
100
AcDbSymbolTableRecord
100
AcDbBlockTableRecord
  2
*D4
340
0
  0
BLOCK_RECORD
  5
1C5
330
1
100
AcDbSymbolTableRecord
100
AcDbBlockTableRecord
  2
*D5
340
0
  0
BLOCK_RECORD
  5
1D0
330
1
100
AcDbSymbolTableRecord
100
AcDbBlockTableRecord
  2
*D6
340
0
  0
BLOCK_RECORD
  5
1DB
330
1
100
AcDbSymbolTableRecord
100
AcDbBlockTableRecord
  2
*D7
340
0
  0
BLOCK_RECORD
  5
1E6
330
1
100
AcDbSymbolTableRecord
100
AcDbBlockTableRecord
  2
*D8
340
0
  0
BLOCK_RECORD
  5
1F1
330
1
100
AcDbSymbolTableRecord
100
AcDbBlockTableRecord
  2
*D9
340
0
  0
BLOCK_RECORD
  5
1FC
330
1
100
AcDbSymbolTableRecord
100
AcDbBlockTableRecord
  2
*D10
340
0
  0
BLOCK_RECORD
  5
207
330
1
100
AcDbSymbolTableRecord
100
AcDbBlockTableRecord
  2
*D11
340
0
  0
BLOCK_RECORD
  5
212
330
1
100
AcDbSymbolTableRecord
100
AcDbBlockTableRecord
  2
*D12
340
0
  0
BLOCK_RECORD
  5
21D
330
1
100
AcDbSymbolTableRecord
100
AcDbBlockTableRecord
  2
*D13
340
0
  0
BLOCK_RECORD
  5
22A
330
1
100
AcDbSymbolTableRecord
100
AcDbBlockTableRecord
  2
*D14
340
0
  0
BLOCK_RECORD
  5
235
330
1
100
AcDbSymbolTableRecord
100
AcDbBlockTableRecord
  2
*D15
340
0
  0
BLOCK_RECORD
  5
240
330
1
100
AcDbSymbolTableRecord
100
AcDbBlockTableRecord
  2
*D16
340
0
  0
BLOCK_RECORD
  5
24B
330
1
100
AcDbSymbolTableRecord
100
AcDbBlockTableRecord
  2
*D17
340
0
  0
BLOCK_RECORD
  5
256
330
1
100
AcDbSymbolTableRecord
100
AcDbBlockTableRecord
  2
*D18
340
0
  0
BLOCK_RECORD
  5
263
330
1
100
AcDbSymbolTableRecord
100
AcDbBlockTableRecord
  2
*D19
340
0
  0
BLOCK_RECORD
  5
26E
330
1
100
AcDbSymbolTableRecord
100
AcDbBlockTableRecord
  2
*D20
340
0
  0
BLOCK_RECORD
  5
279
330
1
100
AcDbSymbolTableRecord
100
AcDbBlockTableRecord
  2
*D21
340
0
  0
BLOCK_RECORD
  5
284
330
1
100
AcDbSymbolTableRecord
100
AcDbBlockTableRecord
  2
*D22
340
0
  0
BLOCK_RECORD
  5
28F
330
1
100
AcDbSymbolTableRecord
100
AcDbBlockTableRecord
  2
*D23
340
0
  0
BLOCK_RECORD
  5
29C
330
1
100
AcDbSymbolTableRecord
100
AcDbBlockTableRecord
  2
*D24
340
0
  0
BLOCK_RECORD
  5
2A7
330
1
100
AcDbSymbolTableRecord
100
AcDbBlockTableRecord
  2
*D25
340
0
102
{BLKREFS
331
2AD
102
}
  0
BLOCK_RECORD
  5
2AE
330
1
100
AcDbSymbolTableRecord
100
AcDbBlockTableRecord
  2
*D26
340
0
102
{BLKREFS
331
2B4
102
}
  0
BLOCK_RECORD
  5
2B5
330
1
100
AcDbSymbolTableRecord
100
AcDbBlockTableRecord
  2
*D27
340
0
102
{BLKREFS
331
2BB
102
}
  0
BLOCK_RECORD
  5
2BC
330
1
100
AcDbSymbolTableRecord
100
AcDbBlockTableRecord
  2
*D28
340
0
102
{BLKREFS
331
2C2
102
}
  0
BLOCK_RECORD
  5
2C3
330
1
100
AcDbSymbolTableRecord
100
AcDbBlockTableRecord
  2
*D29
340
0
102
{BLKREFS
331
2C9
102
}
  0
BLOCK_RECORD
  5
2CA
330
1
100
AcDbSymbolTableRecord
100
AcDbBlockTableRecord
  2
*D30
340
0
102
{BLKREFS
331
2D1
102
}
  0
BLOCK_RECORD
  5
2D2
330
1
100
AcDbSymbolTableRecord
100
AcDbBlockTableRecord
  2
*D31
340
0
102
{BLKREFS
331
2D9
102
}
  0
BLOCK_RECORD
  5
2DA
330
1
100
AcDbSymbolTableRecord
100
AcDbBlockTableRecord
  2
*D32
340
0
102
{BLKREFS
331
2E1
102
}
  0
BLOCK_RECORD
  5
2E2
330
1
100
AcDbSymbolTableRecord
100
AcDbBlockTableRecord
  2
*D33
340
0
102
{BLKREFS
331
2E9
102
}
  0
BLOCK_RECORD
  5
2EA
330
1
100
AcDbSymbolTableRecord
100
AcDbBlockTableRecord
  2
*D34
340
0
102
{BLKREFS
331
2F1
102
}
  0
BLOCK_RECORD
  5
2F2
330
1
100
AcDbSymbolTableRecord
100
AcDbBlockTableRecord
  2
*D35
340
0
102
{BLKREFS
331
2F9
102
}
  0
ENDTAB
  0
ENDSEC
  0
SECTION
  2
BLOCKS
  0
BLOCK
  5
20
330
1F
100
AcDbEntity
  8
0
100
AcDbBlockBegin
  2
*Model_Space
 70
     0
 10
0.0
 20
0.0
 30
0.0
  3
*Model_Space
  1
*Model_Space
  0
ENDBLK
  5
21
330
1F
100
AcDbEntity
  8
0
100
AcDbBlockEnd
  0
BLOCK
  5
1C
330
1B
100
AcDbEntity
 67
     1
  8
0
100
AcDbBlockBegin
  2
*Paper_Space
 70
     0
 10
0.0
 20
0.0
 30
0.0
  3
*Paper_Space
  1
*Paper_Space
  0
ENDBLK
  5
1D
330
1B
100
AcDbEntity
 67
     1
  8
0
100
AcDbBlockEnd
  0
BLOCK
  5
24
330
23
100
AcDbEntity
  8
0
100
AcDbBlockBegin
  2
*Paper_Space0
 70
     0
 10
0.0
 20
0.0
 30
0.0
  3
*Paper_Space0
  1
*Paper_Space0
  0
ENDBLK
  5
25
330
23
100
AcDbEntity
  8
0
100
AcDbBlockEnd
  0
BLOCK
  5
7A
330
79
100
AcDbEntity
  8
0
100
AcDbBlockBegin
  2
a3kl
 70
     0
 10
2502.79871420279
 20
-50.276203094484
 30
0.0
  3
a3kl
  1
a3kl
  0
LINE
  5
81
330
79
100
AcDbEntity
  8
0
  6
Continuous
 62
     2
100
AcDbLine
 10
2912.79871420279
 20
235.723796905516
 30
0.0
 11
2912.79871420279
 21
-50.276203094484
 31
0.0
  0
LINE
  5
82
330
79
100
AcDbEntity
  8
0
  6
Continuous
 62
     2
100
AcDbLine
 10
2517.79871420279
 20
235.723796905516
 30
0.0
 11
2912.79871420279
 21
235.723796905516
 31
0.0
  0
LINE
  5
83
330
79
100
AcDbEntity
  8
1
  6
Continuous
 62
     2
100
AcDbLine
 10
2502.79871420279
 20
-50.276203094484
 30
0.0
 11
2912.79871420279
 21
-50.276203094484
 31
0.0
  0
LINE
  5
84
330
79
100
AcDbEntity
  8
0
  6
Continuous
 62
     2
100
AcDbLine
 10
2502.79871420279
 20
235.723796905516
 30
0.0
 11
2517.79871420279
 21
235.723796905516
 31
0.0
  0
LINE
  5
85
330
79
100
AcDbEntity
  8
0
  6
Continuous
 62
     2
100
AcDbLine
 10
2502.79871420279
 20
-50.276203094484
 30
0.0
 11
2502.79871420279
 21
235.723796905516
 31
0.0
  0
LINE
  5
86
330
79
100
AcDbEntity
  8
0
  6
Continuous
 62
     3
100
AcDbLine
 10
2517.79871420279
 20
-28.776203094484
 30
0.0
 11
2517.79871420279
 21
235.723796905516
 31
0.0
  0
LINE
  5
87
330
79
100
AcDbEntity
  8
1
  6
Continuous
 62
     1
100
AcDbLine
 10
2830.79871420279
 20
-44.776203094484
 30
0.0
 11
2857.79871420279
 21
-44.776203094484
 31
0.0
  0
LINE
  5
88
330
79
100
AcDbEntity
  8
1
  6
Continuous
 62
     1
100
AcDbLine
 10
2733.79871420279
 20
-50.276203094484
 30
0.0
 11
2733.79871420279
 21
-7.276203094484
 31
0.0
  0
LINE
  5
89
330
79
100
AcDbEntity
  8
0
  6
Continuous
 62
     1
100
AcDbLine
 10
2780.79871420279
 20
-19.276203094484
 30
0.0
 11
2821.79871420279
 21
-19.276203094484
 31
0.0
  0
LINE
  5
8A
330
79
100
AcDbEntity
  8
0
  6
Continuous
 62
     3
100
AcDbLine
 10
2739.29871420279
 20
-50.276203094484
 30
0.0
 11
2739.29871420279
 21
-7.276203094484
 31
0.0
  0
LINE
  5
8B
330
79
100
AcDbEntity
  8
0
  6
Continuous
 62
     1
100
AcDbLine
 10
2830.79871420279
 20
-37.276203094484
 30
0.0
 11
2780.79871420279
 21
-37.276203094484
 31
0.0
  0
LINE
  5
8C
330
79
100
AcDbEntity
  8
0
  6
Continuous
 62
     1
100
AcDbLine
 10
2830.79871420279
 20
-30.44286980448401
 30
0.0
 11
2857.79871420279
 21
-30.44286980448401
 31
0.0
  0
LINE
  5
8D
330
79
100
AcDbEntity
  8
0
  6
Continuous
 62
     1
100
AcDbLine
 10
2830.79871420279
 20
-24.276203094484
 30
0.0
 11
2830.79871420279
 21
-50.276203094484
 31
0.0
  0
LINE
  5
8E
330
79
100
AcDbEntity
  8
0
  6
Continuous
 62
     7
100
AcDbLine
 10
2786.85871097338
 20
-11.40537090414049
 30
0.0
 11
2786.85871097338
 21
-11.51710394300442
 31
0.0
  0
LINE
  5
8F
330
79
100
AcDbEntity
  8
0
  6
Continuous
 62
     7
100
AcDbLine
 10
2794.958777149342
 20
-10.0549959847984
 30
0.0
 11
2791.957323240201
 21
-10.05499598479842
 31
0.0
  0
LINE
  5
90
330
79
100
AcDbEntity
  8
0
  6
Continuous
 62
     7
100
AcDbLine
 10
2793.191927647661
 20
-11.8126189686145
 30
0.0
 11
2795.093908309018
 21
-10.493203113364
 31
0.0
  0
LINE
  5
91
330
79
100
AcDbEntity
  8
0
  6
Continuous
 62
     7
100
AcDbLine
 10
2795.036216019842
 20
-11.81261896861452
 30
0.0
 11
2793.191927647661
 21
-11.8126189686145
 31
0.0
  0
LINE
  5
92
330
79
100
AcDbEntity
  8
0
  6
Continuous
 62
     7
100
AcDbLine
 10
2795.093908309018
 20
-12.17184801936401
 30
0.0
 11
2795.093908309018
 21
-11.8701657705864
 31
0.0
  0
LINE
  5
93
330
79
100
AcDbEntity
  8
0
  6
Continuous
 62
     7
100
AcDbLine
 10
2791.957323240201
 20
-12.2293948213358
 30
0.0
 11
2795.036216019842
 21
-12.2293948213358
 31
0.0
  0
LINE
  5
94
330
79
100
AcDbEntity
  8
0
  6
Continuous
 62
     7
100
AcDbLine
 10
2791.899630951025
 20
-11.7626189686145
 30
0.0
 11
2791.899630951025
 21
-12.17184801936401
 31
0.0
  0
LINE
  5
95
330
79
100
AcDbEntity
  8
0
  6
Continuous
 62
     7
100
AcDbLine
 10
2793.838089222089
 20
-10.443494415636
 30
0.0
 11
2791.899630951025
 21
-11.7626189686145
 31
0.0
  0
LINE
  5
96
330
79
100
AcDbEntity
  8
0
  6
Continuous
 62
     7
100
AcDbLine
 10
2791.957323240201
 20
-10.443494415636
 30
0.0
 11
2793.838089222089
 21
-10.443494415636
 31
0.0
  0
LINE
  5
97
330
79
100
AcDbEntity
  8
0
  6
Continuous
 62
     7
100
AcDbLine
 10
2791.899630951025
 20
-10.1126882739736
 30
0.0
 11
2791.899630951025
 21
-10.3858021264609
 31
0.0
  0
LINE
  5
98
330
79
100
AcDbEntity
  8
0
  6
Continuous
 62
     7
100
AcDbLine
 10
2789.005758215691
 20
-10.89788801683931
 30
0.0
 11
2789.005758215691
 21
-10.49983764165302
 31
0.0
  0
LINE
  5
99
330
79
100
AcDbEntity
  8
0
  6
Continuous
 62
     7
100
AcDbLine
 10
2791.378072553196
 20
-10.95423124285632
 30
0.0
 11
2789.063463730976
 21
-10.95423124285632
 31
0.0
  0
LINE
  5
9A
330
79
100
AcDbEntity
  8
0
  6
Continuous
 62
     7
100
AcDbLine
 10
2791.378072553196
 20
-11.29725300310651
 30
0.0
 11
2791.378072553196
 21
-10.95423124285632
 31
0.0
  0
LINE
  5
9B
330
79
100
AcDbEntity
  8
0
  6
Continuous
 62
     7
100
AcDbLine
 10
2789.063463730976
 20
-11.29725300310651
 30
0.0
 11
2791.378072553196
 21
-11.29725300310651
 31
0.0
  0
LINE
  5
9C
330
79
100
AcDbEntity
  8
0
  6
Continuous
 62
     7
100
AcDbLine
 10
2791.378072553196
 20
-11.81261896861452
 30
0.0
 11
2789.063463730976
 21
-11.81261896861452
 31
0.0
  0
LINE
  5
9D
330
79
100
AcDbEntity
  8
0
  6
Continuous
 62
     7
100
AcDbLine
 10
2791.378072553196
 20
-12.2287599680849
 30
0.0
 11
2791.378072553196
 21
-11.81261896861452
 31
0.0
  0
LINE
  5
9E
330
79
100
AcDbEntity
  8
0
  6
Continuous
 62
     7
100
AcDbLine
 10
2788.298849120819
 20
-12.2287599680849
 30
0.0
 11
2791.378072553196
 21
-12.2287599680849
 31
0.0
  0
LINE
  5
9F
330
79
100
AcDbEntity
  8
0
  6
Continuous
 62
     7
100
AcDbLine
 10
2788.161165322031
 20
-10.19267978358651
 30
0.0
 11
2788.161165322031
 21
-12.09107616929681
 31
0.0
  0
LINE
  5
A0
330
79
100
AcDbEntity
  8
0
  6
Continuous
 62
     7
100
AcDbLine
 10
2791.378072553196
 20
-10.0549959847984
 30
0.0
 11
2788.298849120819
 21
-10.0549959847984
 31
0.0
  0
LINE
  5
A1
330
79
100
AcDbEntity
  8
0
  6
Continuous
 62
     7
100
AcDbLine
 10
2791.378072553196
 20
-10.443494415636
 30
0.0
 11
2791.378072553196
 21
-10.0549959847984
 31
0.0
  0
LINE
  5
A2
330
79
100
AcDbEntity
  8
0
  6
Continuous
 62
     7
100
AcDbLine
 10
2789.063463730976
 20
-10.443494415636
 30
0.0
 11
2791.378072553196
 21
-10.443494415636
 31
0.0
  0
LINE
  5
A3
330
79
100
AcDbEntity
  8
0
  6
Continuous
 62
     7
100
AcDbLine
 10
2786.045609446186
 20
-11.00423124285631
 30
0.0
 11
2786.045609446186
 21
-11.34725300310652
 31
0.0
  0
LINE
  5
A4
330
79
100
AcDbEntity
  8
0
  6
Continuous
 62
     7
100
AcDbLine
 10
2787.651748492624
 20
-11.00423124285629
 30
0.0
 11
2786.045609446186
 21
-11.00423124285631
 31
0.0
  0
LINE
  5
A5
330
79
100
AcDbEntity
  8
0
  6
Continuous
 62
     7
100
AcDbLine
 10
2787.651748492624
 20
-11.76392835344451
 30
0.0
 11
2787.651748492624
 21
-11.00423124285629
 31
0.0
  0
LINE
  5
A6
330
79
100
AcDbEntity
  8
0
  6
Continuous
 62
     7
100
AcDbLine
 10
2787.043347460516
 20
-10.0549959847984
 30
0.0
 11
2785.06630862835
 21
-10.0549959847984
 31
0.0
  0
LINE
  5
A7
330
79
100
AcDbEntity
  8
0
  6
Continuous
 62
     7
100
AcDbLine
 10
2787.651748492624
 20
-10.71218813446029
 30
0.0
 11
2787.651748492624
 21
-10.52446996383601
 31
0.0
  0
LINE
  5
A8
330
79
100
AcDbEntity
  8
0
  6
Continuous
 62
     7
100
AcDbLine
 10
2786.857877728488
 20
-10.71218813446029
 30
0.0
 11
2787.651748492624
 21
-10.71218813446029
 31
0.0
  0
LINE
  5
A9
330
79
100
AcDbEntity
  8
0
  6
Continuous
 62
     7
100
AcDbLine
 10
2786.857877728488
 20
-10.63214372040982
 30
0.0
 11
2786.857877728488
 21
-10.71218813446029
 31
0.0
  0
LINE
  5
AA
330
79
100
AcDbEntity
  8
0
  6
Continuous
 62
     7
100
AcDbLine
 10
2786.045609446186
 20
-11.34725300310652
 30
0.0
 11
2786.799246385546
 21
-11.34725300310652
 31
0.0
  0
LINE
  5
AB
330
79
100
AcDbEntity
  8
0
  6
Continuous
 62
     7
100
AcDbLine
 10
2783.630389609808
 20
-9.8315011882643
 30
0.0
 11
2783.630389609808
 21
-12.45689712901619
 31
0.0
  0
LINE
  5
AC
330
79
100
AcDbEntity
  8
0
  6
Continuous
 62
     7
100
AcDbLine
 10
2799.48159074371
 20
-9.69498128710281
 30
0.0
 11
2783.76690951097
 21
-9.69498128710279
 31
0.0
  0
LINE
  5
AD
330
79
100
AcDbEntity
  8
0
  6
Continuous
 62
     7
100
AcDbLine
 10
2799.618110644871
 20
-12.45689712901621
 30
0.0
 11
2799.618110644871
 21
-9.83150118826431
 31
0.0
  0
LINE
  5
AE
330
79
100
AcDbEntity
  8
0
  6
Continuous
 62
     7
100
AcDbLine
 10
2782.771948979612
 20
-12.54723145617499
 30
0.0
 11
2782.771948979612
 21
-9.74116686110549
 31
0.0
  0
LINE
  5
AF
330
79
100
AcDbEntity
  8
0
  6
Continuous
 62
     7
100
AcDbLine
 10
2799.867316998067
 20
-13.0180148200425
 30
0.0
 11
2783.381183256613
 21
-13.0180148200425
 31
0.0
  0
LINE
  5
B0
330
79
100
AcDbEntity
  8
0
  6
Continuous
 62
     7
100
AcDbLine
 10
2800.476551275067
 20
-9.74116686110549
 30
0.0
 11
2800.476551275067
 21
-12.54723145617499
 31
0.0
  0
LINE
  5
B1
330
79
100
AcDbEntity
  8
0
  6
Continuous
 62
     7
100
AcDbLine
 10
2783.381183256613
 20
-9.270383497238
 30
0.0
 11
2799.867316998067
 21
-9.270383497238
 31
0.0
  0
LINE
  5
B2
330
79
100
AcDbEntity
  8
0
  6
Continuous
 62
     7
100
AcDbLine
 10
2799.48159074371
 20
-12.59341703017761
 30
0.0
 11
2783.76690951097
 21
-12.59341703017761
 31
0.0
  0
LINE
  5
B3
330
79
100
AcDbEntity
  8
0
  6
Continuous
 62
     7
100
AcDbLine
 10
2785.444244704274
 20
-10.49473766991899
 30
0.0
 11
2786.719572302559
 21
-10.49473766991899
 31
0.0
  0
LINE
  5
B4
330
79
100
AcDbEntity
  8
0
  6
Continuous
 62
     7
100
AcDbLine
 10
2785.444244704274
 20
-11.75404707966639
 30
0.0
 11
2786.722587855501
 21
-11.75404707966639
 31
0.0
  0
LINE
  5
B5
330
79
100
AcDbEntity
  8
0
  6
Continuous
 62
     7
100
AcDbLine
 10
2785.302037576074
 20
-10.63272566922312
 30
0.0
 11
2785.302037576074
 21
-11.61605908036233
 31
0.0
  0
LINE
  5
B6
330
79
100
AcDbEntity
  8
0
  6
Continuous
 62
     7
100
AcDbLine
 10
2784.457907596242
 20
-10.52446996383601
 30
0.0
 11
2784.457907596242
 21
-11.76392835344451
 31
0.0
  0
LINE
  5
B7
330
79
100
AcDbEntity
  8
0
  6
Continuous
 62
     7
100
AcDbLine
 10
2785.06630862835
 20
-12.2334023324821
 30
0.0
 11
2787.043347460516
 21
-12.2334023324821
 31
0.0
  0
LINE
  5
B8
330
79
100
AcDbEntity
  8
0
  6
Continuous
 62
     7
100
AcDbLine
 10
2789.005758215691
 20
-11.7562757425976
 30
0.0
 11
2789.005758215691
 21
-11.3535962291235
 31
0.0
  0
LINE
  5
B9
330
79
100
AcDbEntity
  8
0
  6
Continuous
 62
     7
100
AcDbLine
 10
2796.418265094824
 20
-10.89788801683931
 30
0.0
 11
2796.418265094824
 21
-10.49983764165302
 31
0.0
  0
LINE
  5
BA
330
79
100
AcDbEntity
  8
0
  6
Continuous
 62
     7
100
AcDbLine
 10
2798.790579432328
 20
-10.95423124285632
 30
0.0
 11
2796.475970610109
 21
-10.95423124285632
 31
0.0
  0
LINE
  5
BB
330
79
100
AcDbEntity
  8
0
  6
Continuous
 62
     7
100
AcDbLine
 10
2798.790579432328
 20
-11.29725300310651
 30
0.0
 11
2798.790579432328
 21
-10.95423124285632
 31
0.0
  0
LINE
  5
BC
330
79
100
AcDbEntity
  8
0
  6
Continuous
 62
     7
100
AcDbLine
 10
2796.475970610109
 20
-11.29725300310651
 30
0.0
 11
2798.790579432328
 21
-11.29725300310651
 31
0.0
  0
LINE
  5
BD
330
79
100
AcDbEntity
  8
0
  6
Continuous
 62
     7
100
AcDbLine
 10
2798.790579432328
 20
-11.81261896861452
 30
0.0
 11
2796.475970610109
 21
-11.81261896861452
 31
0.0
  0
LINE
  5
BE
330
79
100
AcDbEntity
  8
0
  6
Continuous
 62
     7
100
AcDbLine
 10
2798.790579432328
 20
-12.2287599680849
 30
0.0
 11
2798.790579432328
 21
-11.81261896861452
 31
0.0
  0
LINE
  5
BF
330
79
100
AcDbEntity
  8
0
  6
Continuous
 62
     7
100
AcDbLine
 10
2795.711355999952
 20
-12.2287599680849
 30
0.0
 11
2798.790579432328
 21
-12.2287599680849
 31
0.0
  0
LINE
  5
C0
330
79
100
AcDbEntity
  8
0
  6
Continuous
 62
     7
100
AcDbLine
 10
2795.573672201163
 20
-10.19267978358651
 30
0.0
 11
2795.573672201163
 21
-12.09107616929681
 31
0.0
  0
LINE
  5
C1
330
79
100
AcDbEntity
  8
0
  6
Continuous
 62
     7
100
AcDbLine
 10
2798.790579432328
 20
-10.05499598479842
 30
0.0
 11
2795.711355999952
 21
-10.0549959847984
 31
0.0
  0
LINE
  5
C2
330
79
100
AcDbEntity
  8
0
  6
Continuous
 62
     7
100
AcDbLine
 10
2798.790579432328
 20
-10.44349441563601
 30
0.0
 11
2798.790579432328
 21
-10.05499598479842
 31
0.0
  0
LINE
  5
C3
330
79
100
AcDbEntity
  8
0
  6
Continuous
 62
     7
100
AcDbLine
 10
2796.475970610109
 20
-10.44349441563601
 30
0.0
 11
2798.790579432328
 21
-10.44349441563601
 31
0.0
  0
LINE
  5
C4
330
79
100
AcDbEntity
  8
0
  6
Continuous
 62
     7
100
AcDbLine
 10
2796.418265094824
 20
-11.7562757425976
 30
0.0
 11
2796.418265094824
 21
-11.3535962291235
 31
0.0
  0
LINE
  5
C5
330
79
100
AcDbEntity
  8
0
  6
Continuous
 62
     7
100
AcDbLine
 10
2795.093908309018
 20
-10.493203113364
 30
0.0
 11
2795.093908309018
 21
-10.1941875600573
 31
0.0
  0
LINE
  5
C6
330
79
100
AcDbEntity
  8
0
  6
Continuous
 62
     1
100
AcDbLine
 10
2912.79871420279
 20
-37.276203094484
 30
0.0
 11
2857.79871420279
 21
-37.276203094484
 31
0.0
  0
LINE
  5
C7
330
79
100
AcDbEntity
  8
0
  6
Continuous
 62
     3
100
AcDbLine
 10
2780.79871420279
 20
-43.776203094484
 30
0.0
 11
2830.79871420279
 21
-43.776203094484
 31
0.0
  0
LINE
  5
C8
330
79
100
AcDbEntity
  8
0
  6
Continuous
 62
     1
100
AcDbLine
 10
2733.79871420279
 20
-7.276203094484
 30
0.0
 11
2912.79871420279
 21
-7.276203094484
 31
0.0
  0
LINE
  5
C9
330
79
100
AcDbEntity
  8
0
  6
Continuous
 62
     1
100
AcDbLine
 10
2857.79871420279
 20
-37.309536514484
 30
0.0
 11
2830.79871420279
 21
-37.309536514484
 31
0.0
  0
LINE
  5
CA
330
79
100
AcDbEntity
  8
0
  6
Continuous
 62
     3
100
AcDbLine
 10
2821.79871420279
 20
-37.27620309448402
 30
0.0
 11
2821.79871420279
 21
-24.276203094484
 31
0.0
  0
LINE
  5
CB
330
79
100
AcDbEntity
  8
0
  6
Continuous
 62
     3
100
AcDbLine
 10
2808.771636220383
 20
-37.27620309448399
 30
0.0
 11
2808.771636220383
 21
-24.276203094484
 31
0.0
  0
LINE
  5
CC
330
79
100
AcDbEntity
  8
0
  6
Continuous
 62
     3
100
AcDbLine
 10
2780.79871420279
 20
-28.67620309448401
 30
0.0
 11
2830.79871420279
 21
-28.67620309448401
 31
0.0
  0
LINE
  5
CD
330
79
100
AcDbEntity
  8
0
  6
Continuous
 62
     3
100
AcDbLine
 10
2830.79871420279
 20
-32.97620309448399
 30
0.0
 11
2780.79871420279
 21
-32.97620309448399
 31
0.0
  0
LINE
  5
CE
330
79
100
AcDbEntity
  8
0
  6
Continuous
 62
     3
100
AcDbLine
 10
2766.79871420279
 20
-50.276203094484
 30
0.0
 11
2766.79871420279
 21
-7.276203094484
 31
0.0
  0
LINE
  5
CF
330
79
100
AcDbEntity
  8
0
  6
Continuous
 62
     3
100
AcDbLine
 10
2758.79871420279
 20
-50.276203094484
 30
0.0
 11
2758.79871420279
 21
-7.276203094484
 31
0.0
  0
LINE
  5
D0
330
79
100
AcDbEntity
  8
0
  6
Continuous
 62
     3
100
AcDbLine
 10
2746.79871420279
 20
-50.276203094484
 30
0.0
 11
2746.79871420279
 21
-7.276203094484
 31
0.0
  0
LINE
  5
D1
330
79
100
AcDbEntity
  8
0
  6
Continuous
 62
     3
100
AcDbLine
 10
2733.79871420279
 20
-11.576206094484
 30
0.0
 11
2780.79871420279
 21
-11.576206094484
 31
0.0
  0
LINE
  5
D2
330
79
100
AcDbEntity
  8
0
  6
Continuous
 62
     3
100
AcDbLine
 10
2780.79871420279
 20
-15.87620909448401
 30
0.0
 11
2733.79871420279
 21
-15.87620909448401
 31
0.0
  0
LINE
  5
D3
330
79
100
AcDbEntity
  8
0
  6
Continuous
 62
     3
100
AcDbLine
 10
2733.79871420279
 20
-20.176212094484
 30
0.0
 11
2780.79871420279
 21
-20.17621209448402
 31
0.0
  0
LINE
  5
D4
330
79
100
AcDbEntity
  8
0
  6
Continuous
 62
     3
100
AcDbLine
 10
2780.79871420279
 20
-24.47621509448402
 30
0.0
 11
2733.79871420279
 21
-24.47621509448402
 31
0.0
  0
LINE
  5
D5
330
79
100
AcDbEntity
  8
0
  6
Continuous
 62
     3
100
AcDbLine
 10
2733.79871420279
 20
-28.776203094484
 30
0.0
 11
2780.79871420279
 21
-28.776203094484
 31
0.0
  0
LINE
  5
D6
330
79
100
AcDbEntity
  8
0
  6
Continuous
 62
     3
100
AcDbLine
 10
2780.79871420279
 20
-33.07620609448401
 30
0.0
 11
2733.79871420279
 21
-33.07620609448401
 31
0.0
  0
LINE
  5
D7
330
79
100
AcDbEntity
  8
0
  6
Continuous
 62
     3
100
AcDbLine
 10
2733.79871420279
 20
-37.376209094484
 30
0.0
 11
2780.79871420279
 21
-37.37620909448401
 31
0.0
  0
LINE
  5
D8
330
79
100
AcDbEntity
  8
0
  6
Continuous
 62
     3
100
AcDbLine
 10
2780.79871420279
 20
-41.67621209448402
 30
0.0
 11
2733.79871420279
 21
-41.67621209448402
 31
0.0
  0
LINE
  5
D9
330
79
100
AcDbEntity
  8
0
  6
Continuous
 62
     4
100
AcDbLine
 10
2733.79871420279
 20
-45.97620009448399
 30
0.0
 11
2780.79871420279
 21
-45.97620009448397
 31
0.0
  0
LINE
  5
DA
330
79
100
AcDbEntity
  8
0
  6
Continuous
 62
     1
100
AcDbLine
 10
2780.79871420279
 20
-7.276203094484
 30
0.0
 11
2780.79871420279
 21
-50.276203094484
 31
0.0
  0
LINE
  5
DB
330
79
100
AcDbEntity
  8
0
  6
Continuous
 62
     1
100
AcDbLine
 10
2857.79871420279
 20
-50.276203094484
 30
0.0
 11
2857.79871420279
 21
-24.276203094484
 31
0.0
  0
LINE
  5
DC
330
79
100
AcDbEntity
  8
1
  6
Continuous
 62
     4
100
AcDbLine
 10
2835.832015274878
 20
-46.526203094484
 30
0.0
 11
2842.832015274878
 21
-45.526203094484
 31
0.0
  0
LINE
  5
DD
330
79
100
AcDbEntity
  8
1
  6
Continuous
 62
     4
100
AcDbLine
 10
2842.832015274878
 20
-45.526203094484
 30
0.0
 11
2842.832015274878
 21
-49.526203094484
 31
0.0
  0
LINE
  5
DE
330
79
100
AcDbEntity
  8
1
  6
Continuous
 62
     4
100
AcDbLine
 10
2842.832015274878
 20
-49.526203094484
 30
0.0
 11
2835.832015274878
 21
-48.526203094484
 31
0.0
  0
LINE
  5
DF
330
79
100
AcDbEntity
  8
1
  6
Continuous
 62
     4
100
AcDbLine
 10
2835.832015274878
 20
-48.526203094484
 30
0.0
 11
2835.832015274878
 21
-46.526203094484
 31
0.0
  0
LINE
  5
E0
330
79
100
AcDbEntity
  8
1
  6
DOT_CENTER
 62
     7
100
AcDbLine
 10
2835.119173169172
 20
-47.526203094484
 30
0.0
 11
2843.516824338099
 21
-47.526203094484
 31
0.0
  0
LINE
  5
E1
330
79
100
AcDbEntity
  8
1
  6
DOT_CENTER
 62
     7
100
AcDbLine
 10
2847.224878101002
 20
-47.526203094484
 30
0.0
 11
2852.377982227389
 21
-47.526203094484
 31
0.0
  0
LINE
  5
E2
330
79
100
AcDbEntity
  8
1
  6
DOT_CENTER
 62
     7
100
AcDbLine
 10
2849.733267411201
 20
-49.94870558137415
 30
0.0
 11
2849.733267411201
 21
-45.06825246696528
 31
0.0
  0
LINE
  5
E3
330
79
100
AcDbEntity
  8
0
  6
Continuous
 62
     1
100
AcDbLine
 10
2780.79871420279
 20
-24.276203094484
 30
0.0
 11
2912.79871420279
 21
-24.276203094484
 31
0.0
  0
LINE
  5
E4
330
79
100
AcDbEntity
  8
1
  6
Continuous
 62
     1
100
AcDbLine
 10
2821.79871420279
 20
-24.276203094484
 30
0.0
 11
2821.79871420279
 21
-7.276203094484
 31
0.0
  0
ARC
  5
E5
330
79
100
AcDbEntity
  8
0
  6
Continuous
 62
     7
100
AcDbCircle
 10
2783.76690951097
 20
-9.83150118826431
 30
0.0
 40
0.1365199011615204
100
AcDbArc
 50
90.0
 51
179.999999999997
  0
ARC
  5
E6
330
79
100
AcDbEntity
  8
0
  6
Continuous
 62
     7
100
AcDbCircle
 10
2783.76690951097
 20
-12.45689712901619
 30
0.0
 40
0.1365199011620462
100
AcDbArc
 50
180.0
 51
270.0
  0
ARC
  5
E7
330
79
100
AcDbEntity
  8
0
  6
Continuous
 62
     7
100
AcDbCircle
 10
2799.48159074371
 20
-9.83150118826429
 30
0.0
 40
0.1365199011611367
100
AcDbArc
 50
359.999999999991
 51
90.0
  0
ARC
  5
E8
330
79
100
AcDbEntity
  8
0
  6
Continuous
 62
     7
100
AcDbCircle
 10
2799.48159074371
 20
-12.45689712901619
 30
0.0
 40
0.1365199011614209
100
AcDbArc
 50
270.0
 51
359.999999999991
  0
ARC
  5
E9
330
79
100
AcDbEntity
  8
0
  6
Continuous
 62
     7
100
AcDbCircle
 10
2786.799246385546
 20
-11.406733193408
 30
0.0
 40
0.0594801903012563
100
AcDbArc
 50
1.31237392907108
 51
90.0
  0
ARC
  5
EA
330
79
100
AcDbEntity
  8
0
  6
Continuous
 62
     7
100
AcDbCircle
 10
2789.062657218502
 20
-10.89733527123931
 30
0.0
 40
0.056901687572329
100
AcDbArc
 50
180.5565825808398
 51
270.8121254433481
  0
ARC
  5
EB
330
79
100
AcDbEntity
  8
0
  6
Continuous
 62
     7
100
AcDbCircle
 10
2789.062657218502
 20
-10.50039038725291
 30
0.0
 40
0.0569016875725389
100
AcDbArc
 50
89.18787455665048
 51
179.443417419271
  0
ARC
  5
EC
330
79
100
AcDbEntity
  8
0
  6
Continuous
 62
     7
100
AcDbCircle
 10
2789.062657218502
 20
-11.35414897472339
 30
0.0
 40
0.0569016875725087
100
AcDbArc
 50
89.18787455665006
 51
179.443417419271
  0
ARC
  5
ED
330
79
100
AcDbEntity
  8
0
  6
Continuous
 62
     7
100
AcDbCircle
 10
2789.062657218502
 20
-11.75572299699761
 30
0.0
 40
0.0569016875723289
100
AcDbArc
 50
180.5565825808291
 51
270.8121254433495
  0
ARC
  5
EE
330
79
100
AcDbEntity
  8
0
  6
Continuous
 62
     7
100
AcDbCircle
 10
2796.475164097635
 20
-10.89733527123931
 30
0.0
 40
0.056901687572329
100
AcDbArc
 50
180.5565825808398
 51
270.8121254433481
  0
ARC
  5
EF
330
79
100
AcDbEntity
  8
0
  6
Continuous
 62
     7
100
AcDbCircle
 10
2796.475164097635
 20
-10.50039038725291
 30
0.0
 40
0.0569016875725283
100
AcDbArc
 50
89.18787455665034
 51
179.443417419271
  0
ARC
  5
F0
330
79
100
AcDbEntity
  8
0
  6
Continuous
 62
     7
100
AcDbCircle
 10
2796.475164097635
 20
-11.35414897472339
 30
0.0
 40
0.0569016875725087
100
AcDbArc
 50
89.18787455665006
 51
179.443417419271
  0
ARC
  5
F1
330
79
100
AcDbEntity
  8
0
  6
Continuous
 62
     7
100
AcDbCircle
 10
2796.475164097635
 20
-11.75572299699761
 30
0.0
 40
0.0569016875723289
100
AcDbArc
 50
180.5565825808291
 51
270.8121254433495
  0
ARC
  5
F2
330
79
100
AcDbEntity
  8
0
  6
Continuous
 62
     7
100
AcDbCircle
 10
2791.957323240201
 20
-10.11268827397361
 30
0.0
 40
0.0576922891751899
100
AcDbArc
 50
90.0
 51
179.9999999999894
  0
ARC
  5
F3
330
79
100
AcDbEntity
  8
0
  6
Continuous
 62
     7
100
AcDbCircle
 10
2791.957323240201
 20
-10.3858021264609
 30
0.0
 40
0.057692289175975
100
AcDbArc
 50
180.0
 51
270.0
  0
ARC
  5
F4
330
79
100
AcDbEntity
  8
0
  6
Continuous
 62
     7
100
AcDbCircle
 10
2791.957250496599
 20
-12.17177527576229
 30
0.0
 40
0.0576195914929001
100
AcDbArc
 50
180.0723348146754
 51
270.0723348147329
  0
ARC
  5
F5
330
79
100
AcDbEntity
  8
0
  6
Continuous
 62
     7
100
AcDbCircle
 10
2795.036288763444
 20
-12.17177527576229
 30
0.0
 40
0.0576195914922133
100
AcDbArc
 50
269.9276651848149
 51
359.927665185324
  0
ARC
  5
F6
330
79
100
AcDbEntity
  8
0
  6
Continuous
 62
     7
100
AcDbCircle
 10
2795.036288763444
 20
-11.87023851418808
 30
0.0
 40
0.0576195914924453
100
AcDbArc
 50
0.07233481463538
 51
90.07233481518495
  0
CIRCLE
  5
F7
330
79
100
AcDbEntity
  8
1
  6
Continuous
 62
     4
100
AcDbCircle
 10
2849.733267411201
 20
-47.526203094484
 30
0.0
 40
1.0
  0
CIRCLE
  5
F8
330
79
100
AcDbEntity
  8
1
  6
Continuous
 62
     4
100
AcDbCircle
 10
2849.733267411201
 20
-47.526203094484
 30
0.0
 40
2.0
  0
SPLINE
  5
F9
330
79
100
AcDbEntity
  8
0
  6
Continuous
 62
     7
100
AcDbSpline
210
0.0
220
0.0
230
1.0
 70
     8
 71
     3
 72
    13
 73
     9
 74
     7
 42
0.000000001
 43
0.0000000001
 44
0.00000001
 40
0.0
 40
0.0
 40
0.0
 40
0.0
 40
0.1601947125885622
 40
0.3210951636652399
 40
0.4607710770952214
 40
0.600207929153221
 40
0.7244156580467012
 40
0.8468165924376677
 40
0.8468165924376677
 40
0.8468165924376677
 40
0.8468165924376677
 10
2783.381183256613
 20
-9.270383497238
 30
0.0
 10
2783.32767901641
 20
-9.273624463433773
 30
0.0
 10
2783.220434824403
 20
-9.280120688246473
 30
0.0
 10
2783.073536926117
 20
-9.33091610099396
 30
0.0
 10
2782.946576965681
 20
-9.406676064344584
 30
0.0
 10
2782.851707850776
 20
-9.503656793102632
 30
0.0
 10
2782.786272621827
 20
-9.61786359314158
 30
0.0
 10
2782.776700144674
 20
-9.7002670155947
 30
0.0
 10
2782.771948979612
 20
-9.74116686110549
 30
0.0
 11
2783.381183256613
 21
-9.270383497238
 31
0.0
 11
2783.221884238135
 21
-9.287300001905871
 31
0.0
 11
2783.069377727657
 21
-9.338590543381109
 31
0.0
 11
2782.950234692274
 21
-9.41148977788891
 31
0.0
 11
2782.852972125758
 21
-9.511402888718717
 31
0.0
 11
2782.794141857079
 21
-9.620794663941982
 31
0.0
 11
2782.771948979612
 21
-9.74116686110549
 31
0.0
  0
SPLINE
  5
FA
330
79
100
AcDbEntity
  8
0
  6
Continuous
 62
     7
100
AcDbSpline
210
0.0
220
0.0
230
1.0
 70
     8
 71
     3
 72
    13
 73
     9
 74
     7
 42
0.000000001
 43
0.0000000001
 44
0.00000001
 40
0.0
 40
0.0
 40
0.0
 40
0.0
 40
0.1601947125885617
 40
0.3210951636652439
 40
0.4607710770952411
 40
0.6002079291532648
 40
0.7244156580467529
 40
0.84681659243766
 40
0.84681659243766
 40
0.84681659243766
 40
0.84681659243766
 10
2783.381183256613
 20
-13.0180148200425
 30
0.0
 10
2783.32767901641
 20
-13.01477385384673
 30
0.0
 10
2783.220434824402
 20
-13.00827762903403
 30
0.0
 10
2783.073536926117
 20
-12.95748221628654
 30
0.0
 10
2782.946576965681
 20
-12.88172225293588
 30
0.0
 10
2782.851707850776
 20
-12.7847415241778
 30
0.0
 10
2782.786272621827
 20
-12.67053472413886
 30
0.0
 10
2782.776700144675
 20
-12.58813130168576
 30
0.0
 10
2782.771948979612
 20
-12.54723145617499
 30
0.0
 11
2783.381183256613
 21
-13.0180148200425
 31
0.0
 11
2783.221884238135
 21
-13.00109831537464
 31
0.0
 11
2783.069377727657
 21
-12.94980777389938
 31
0.0
 11
2782.950234692274
 21
-12.87690853939155
 31
0.0
 11
2782.852972125758
 21
-12.77699542856171
 31
0.0
 11
2782.794141857079
 21
-12.66760365333844
 31
0.0
 11
2782.771948979612
 21
-12.54723145617499
 31
0.0
  0
SPLINE
  5
FB
330
79
100
AcDbEntity
  8
0
  6
Continuous
 62
     7
100
AcDbSpline
210
0.0
220
0.0
230
1.0
 70
     8
 71
     3
 72
    13
 73
     9
 74
     7
 42
0.000000001
 43
0.0000000001
 44
0.00000001
 40
0.0
 40
0.0
 40
0.0
 40
0.0
 40
0.1601947125881094
 40
0.3210951636652227
 40
0.460771077094832
 40
0.6002079291528557
 40
0.724415658045913
 40
0.8468165924368202
 40
0.8468165924368202
 40
0.8468165924368202
 40
0.8468165924368202
 10
2799.867316998067
 20
-13.0180148200425
 30
0.0
 10
2799.920821238271
 20
-13.01477385384669
 30
0.0
 10
2800.028065430278
 20
-13.00827762903389
 30
0.0
 10
2800.174963328563
 20
-12.95748221628679
 30
0.0
 10
2800.301923288999
 20
-12.88172225293566
 30
0.0
 10
2800.396792403904
 20
-12.78474152417808
 30
0.0
 10
2800.462227632851
 20
-12.67053472413859
 30
0.0
 10
2800.471800110004
 20
-12.58813130168571
 30
0.0
 10
2800.476551275067
 20
-12.54723145617499
 30
0.0
 11
2799.867316998067
 21
-13.0180148200425
 31
0.0
 11
2800.026616016545
 21
-13.00109831537464
 31
0.0
 11
2800.179122527023
 21
-12.94980777389938
 31
0.0
 11
2800.298265562406
 21
-12.87690853939155
 31
0.0
 11
2800.395528128922
 21
-12.77699542856171
 31
0.0
 11
2800.4543583976
 21
-12.66760365333844
 31
0.0
 11
2800.476551275067
 21
-12.54723145617499
 31
0.0
  0
SPLINE
  5
FC
330
79
100
AcDbEntity
  8
0
  6
Continuous
 62
     7
100
AcDbSpline
210
0.0
220
0.0
230
1.0
 70
     8
 71
     3
 72
    13
 73
     9
 74
     7
 42
0.000000001
 43
0.0000000001
 44
0.00000001
 40
0.0
 40
0.0
 40
0.0
 40
0.0
 40
0.16019471258811
 40
0.3210951636652188
 40
0.4607710770948123
 40
0.6002079291528118
 40
0.7244156580458613
 40
0.8468165924368278
 40
0.8468165924368278
 40
0.8468165924368278
 40
0.8468165924368278
 10
2799.867316998067
 20
-9.270383497238
 30
0.0
 10
2799.92082123827
 20
-9.27362446343382
 30
0.0
 10
2800.028065430276
 20
-9.280120688246617
 30
0.0
 10
2800.174963328564
 20
-9.3309161009937
 30
0.0
 10
2800.301923288999
 20
-9.406676064344797
 30
0.0
 10
2800.396792403903
 20
-9.503656793102351
 30
0.0
 10
2800.462227632851
 20
-9.617863593141848
 30
0.0
 10
2800.471800110004
 20
-9.700267015594745
 30
0.0
 10
2800.476551275067
 20
-9.74116686110549
 30
0.0
 11
2799.867316998067
 21
-9.270383497238
 31
0.0
 11
2800.026616016545
 21
-9.287300001905871
 31
0.0
 11
2800.179122527023
 21
-9.338590543381109
 31
0.0
 11
2800.298265562406
 21
-9.41148977788891
 31
0.0
 11
2800.395528128922
 21
-9.511402888718717
 31
0.0
 11
2800.4543583976
 21
-9.620794663941982
 31
0.0
 11
2800.476551275067
 21
-9.74116686110549
 31
0.0
  0
SPLINE
  5
FD
330
79
100
AcDbEntity
  8
0
  6
Continuous
 62
     7
100
AcDbSpline
210
0.0
220
0.0
230
1.0
 70
     8
 71
     3
 72
    13
 73
     9
 74
     7
 42
0.000000001
 43
0.0000000001
 44
0.00000001
 40
0.0
 40
0.0
 40
0.0
 40
0.0
 40
0.1486424004248804
 40
0.2982382241031418
 40
0.439049643903787
 40
0.5790300713330891
 40
0.7141201425453509
 40
0.8476890257810381
 40
0.8476890257810381
 40
0.8476890257810381
 40
0.8476890257810381
 10
2785.06630862835
 20
-10.0549959847984
 30
0.0
 10
2785.016675842073
 20
-10.05784463219856
 30
0.0
 10
2784.917091915964
 20
-10.06356021318695
 30
0.0
 10
2784.776287287343
 20
-10.10806244592969
 30
0.0
 10
2784.648228609505
 20
-10.17498708740245
 30
0.0
 10
2784.544954643012
 20
-10.26971963790338
 30
0.0
 10
2784.473552083651
 20
-10.39003632755187
 30
0.0
 10
2784.463102698845
 20
-10.47982822265846
 30
0.0
 10
2784.457907596242
 20
-10.52446996383601
 30
0.0
 11
2785.06630862835
 21
-10.0549959847984
 31
0.0
 11
2784.918388479802
 21
-10.06963129890014
 31
0.0
 11
2784.775254865034
 21
-10.11312473558357
 31
0.0
 11
2784.651456793154
 21
-10.1802208900305
 31
0.0
 11
2784.548982585527
 21
-10.27558103726595
 31
0.0
 11
2784.482513397255
 21
-10.3931870550697
 31
0.0
 11
2784.457907596242
 21
-10.52446996383601
 31
0.0
  0
SPLINE
  5
FE
330
79
100
AcDbEntity
  8
0
  6
Continuous
 62
     7
100
AcDbSpline
210
0.0
220
0.0
230
1.0
 70
     8
 71
     3
 72
    13
 73
     9
 74
     7
 42
0.000000001
 43
0.0000000001
 44
0.00000001
 40
0.0
 40
0.0
 40
0.0
 40
0.0
 40
0.1486424004248804
 40
0.2982382241031418
 40
0.4390496439041868
 40
0.5790300713334889
 40
0.7141201425455269
 40
0.8476890257812141
 40
0.8476890257812141
 40
0.8476890257812141
 40
0.8476890257812141
 10
2787.043347460516
 20
-10.0549959847984
 30
0.0
 10
2787.092980246792
 20
-10.05784463219855
 30
0.0
 10
2787.192564172905
 20
-10.06356021318692
 30
0.0
 10
2787.333368801522
 20
-10.10806244592981
 30
0.0
 10
2787.461427479363
 20
-10.17498708740233
 30
0.0
 10
2787.564701445854
 20
-10.26971963790327
 30
0.0
 10
2787.636104005216
 20
-10.390036327552
 30
0.0
 10
2787.646553390021
 20
-10.47982822265848
 30
0.0
 10
2787.651748492624
 20
-10.52446996383601
 30
0.0
 11
2787.043347460516
 21
-10.0549959847984
 31
0.0
 11
2787.191267609064
 21
-10.06963129890014
 31
0.0
 11
2787.334401223832
 21
-10.11312473558357
 31
0.0
 11
2787.458199295712
 21
-10.1802208900305
 31
0.0
 11
2787.56067350334
 21
-10.27558103726595
 31
0.0
 11
2787.627142691611
 21
-10.3931870550697
 31
0.0
 11
2787.651748492624
 21
-10.52446996383601
 31
0.0
  0
SPLINE
  5
FF
330
79
100
AcDbEntity
  8
0
  6
Continuous
 62
     7
100
AcDbSpline
210
0.0
220
0.0
230
1.0
 70
     8
 71
     3
 72
    13
 73
     9
 74
     7
 42
0.000000001
 43
0.0000000001
 44
0.00000001
 40
0.0
 40
0.0
 40
0.0
 40
0.0
 40
0.1486424004248799
 40
0.2982382241031434
 40
0.4390496439042002
 40
0.5790300713335096
 40
0.7141201425455228
 40
0.847689025781182
 40
0.847689025781182
 40
0.847689025781182
 40
0.847689025781182
 10
2787.043347460516
 20
-12.2334023324821
 30
0.0
 10
2787.092980246792
 20
-12.23055368508195
 30
0.0
 10
2787.192564172903
 20
-12.22483810409358
 30
0.0
 10
2787.333368801523
 20
-12.18033587135069
 30
0.0
 10
2787.461427479362
 20
-12.11341122987815
 30
0.0
 10
2787.564701445854
 20
-12.0186786793772
 30
0.0
 10
2787.636104005216
 20
-11.8983619897285
 30
0.0
 10
2787.646553390021
 20
-11.80857009462203
 30
0.0
 10
2787.651748492624
 20
-11.76392835344451
 30
0.0
 11
2787.043347460516
 21
-12.2334023324821
 31
0.0
 11
2787.191267609064
 21
-12.21876701838036
 31
0.0
 11
2787.334401223832
 21
-12.17527358169693
 31
0.0
 11
2787.458199295712
 21
-12.10817742724998
 31
0.0
 11
2787.56067350334
 21
-12.01281728001451
 31
0.0
 11
2787.627142691611
 21
-11.89521126221079
 31
0.0
 11
2787.651748492624
 21
-11.76392835344451
 31
0.0
  0
SPLINE
  5
100
330
79
100
AcDbEntity
  8
0
  6
Continuous
 62
     7
100
AcDbSpline
210
0.0
220
0.0
230
1.0
 70
     8
 71
     3
 72
    13
 73
     9
 74
     7
 42
0.000000001
 43
0.0000000001
 44
0.00000001
 40
0.0
 40
0.0
 40
0.0
 40
0.0
 40
0.0328394639210036
 40
0.0655975961560558
 40
0.102266438746536
 40
0.1389211524013565
 40
0.1782532702855353
 40
0.2177267563661158
 40
0.2177267563661158
 40
0.2177267563661158
 40
0.2177267563661158
 10
2785.444244704274
 20
-10.49473766991899
 30
0.0
 10
2785.433261813001
 20
-10.49559782470311
 30
0.0
 10
2785.411323233105
 20
-10.49731601831257
 30
0.0
 10
2785.379610165075
 20
-10.51107427953597
 30
0.0
 10
2785.350090665698
 20
-10.53084681925684
 30
0.0
 10
2785.323981193676
 20
-10.55824320246653
 30
0.0
 10
2785.305510302573
 20
-10.59311879995014
 30
0.0
 10
2785.303196530373
 20
-10.61950759922667
 30
0.0
 10
2785.302037576074
 20
-10.63272566922312
 30
0.0
 11
2785.444244704274
 21
-10.49473766991899
 31
0.0
 11
2785.411696172372
 21
-10.4990992674447
 31
0.0
 11
2785.381314875779
 21
-10.51134966331746
 31
0.0
 11
2785.35093958714
 21
-10.53189098867565
 31
0.0
 11
2785.325871025201
 21
-10.55863300439985
 31
0.0
 11
2785.308096994681
 21
-10.59372003263213
 31
0.0
 11
2785.302037576074
 21
-10.63272566922312
 31
0.0
  0
SPLINE
  5
101
330
79
100
AcDbEntity
  8
0
  6
Continuous
 62
     7
100
AcDbSpline
210
0.0
220
0.0
230
1.0
 70
     8
 71
     3
 72
    13
 73
     9
 74
     7
 42
0.000000001
 43
0.0000000001
 44
0.00000001
 40
0.0
 40
0.0
 40
0.0
 40
0.0
 40
0.1486424004248799
 40
0.2982382241031434
 40
0.4390496439038004
 40
0.5790300713331098
 40
0.7141201425453467
 40
0.8476890257810059
 40
0.8476890257810059
 40
0.8476890257810059
 40
0.8476890257810059
 10
2785.06630862835
 20
-12.2334023324821
 30
0.0
 10
2785.016675842073
 20
-12.23055368508195
 30
0.0
 10
2784.917091915963
 20
-12.22483810409356
 30
0.0
 10
2784.776287287343
 20
-12.18033587135081
 30
0.0
 10
2784.648228609505
 20
-12.11341122987802
 30
0.0
 10
2784.544954643013
 20
-12.01867867937708
 30
0.0
 10
2784.473552083649
 20
-11.89836198972863
 30
0.0
 10
2784.463102698846
 20
-11.80857009462204
 30
0.0
 10
2784.457907596242
 20
-11.76392835344451
 30
0.0
 11
2785.06630862835
 21
-12.2334023324821
 31
0.0
 11
2784.918388479802
 21
-12.21876701838036
 31
0.0
 11
2784.775254865034
 21
-12.17527358169693
 31
0.0
 11
2784.651456793154
 21
-12.10817742724998
 31
0.0
 11
2784.548982585527
 21
-12.01281728001451
 31
0.0
 11
2784.482513397255
 21
-11.89521126221079
 31
0.0
 11
2784.457907596242
 21
-11.76392835344451
 31
0.0
  0
SPLINE
  5
102
330
79
100
AcDbEntity
  8
0
  6
Continuous
 62
     7
100
AcDbSpline
210
0.0
220
0.0
230
1.0
 70
     8
 71
     3
 72
    13
 73
     9
 74
     7
 42
0.000000001
 43
0.0000000001
 44
0.00000001
 40
0.0
 40
0.0
 40
0.0
 40
0.0
 40
0.0328394639210027
 40
0.0655975961560435
 40
0.1022664387465069
 40
0.1389211524013157
 40
0.1782532702855103
 40
0.2177267563660873
 40
0.2177267563660873
 40
0.2177267563660873
 40
0.2177267563660873
 10
2785.444244704274
 20
-11.75404707966639
 30
0.0
 10
2785.433261813001
 20
-11.75318692488227
 30
0.0
 10
2785.411323233106
 20
-11.75146873127281
 30
0.0
 10
2785.379610165073
 20
-11.73771047004945
 30
0.0
 10
2785.350090665699
 20
-11.71793793032861
 30
0.0
 10
2785.323981193676
 20
-11.69054154711893
 30
0.0
 10
2785.305510302572
 20
-11.65566594963531
 30
0.0
 10
2785.303196530373
 20
-11.62927715035878
 30
0.0
 10
2785.302037576074
 20
-11.61605908036233
 30
0.0
 11
2785.444244704274
 21
-11.75404707966639
 31
0.0
 11
2785.411696172372
 21
-11.74968548214068
 31
0.0
 11
2785.381314875779
 21
-11.73743508626796
 31
0.0
 11
2785.35093958714
 21
-11.7168937609098
 31
0.0
 11
2785.325871025201
 21
-11.69015174518562
 31
0.0
 11
2785.308096994681
 21
-11.65506471695331
 31
0.0
 11
2785.302037576074
 21
-11.61605908036233
 31
0.0
  0
SPLINE
  5
103
330
79
100
AcDbEntity
  8
0
  6
Continuous
 62
     7
100
AcDbSpline
210
0.0
220
0.0
230
1.0
 70
     8
 71
     3
 72
    14
 73
    10
 74
     8
 42
0.000000001
 43
0.0000000001
 44
0.00000001
 40
0.0
 40
0.0
 40
0.0
 40
0.0
 40
0.0375510686555652
 40
0.0754042245957581
 40
0.1094159246331619
 40
0.1434580642386515
 40
0.1709669566842731
 40
0.2205583835081826
 40
0.3151355988249413
 40
0.3151355988249413
 40
0.3151355988249413
 40
0.3151355988249413
 10
2786.722587855501
 20
-11.75404707966639
 30
0.0
 10
2786.735138693132
 20
-11.7533051233559
 30
0.0
 10
2786.760341334683
 20
-11.75181522982419
 30
0.0
 10
2786.794909937003
 20
-11.73783987095457
 30
0.0
 10
2786.822405902825
 20
-11.71521430445148
 30
0.0
 10
2786.841984422618
 20
-11.68948023444624
 30
0.0
 10
2786.854328592218
 20
-11.65406915093626
 30
0.0
 10
2786.857488723779
 20
-11.59653725357041
 30
0.0
 10
2786.858226793884
 20
-11.54857079826987
 30
0.0
 10
2786.85871097338
 20
-11.51710394300442
 30
0.0
 11
2786.722587855501
 21
-11.75404707966639
 31
0.0
 11
2786.75989822859
 21
-11.74980216710036
 31
0.0
 11
2786.79500080443
 21
-11.73563633539042
 31
0.0
 11
2786.821467396612
 21
-11.7142747962546
 31
0.0
 11
2786.841556709497
 21
-11.6867923133996
 31
0.0
 11
2786.850966533444
 21
-11.66094285616203
 31
0.0
 11
2786.856433991526
 21
-11.6116537423907
 31
0.0
 11
2786.85871097338
 21
-11.51710394300442
 31
0.0
  0
SPLINE
  5
104
330
79
100
AcDbEntity
  8
0
  6
Continuous
 62
     7
100
AcDbSpline
210
0.0
220
0.0
230
1.0
 70
     8
 71
     3
 72
    13
 73
     9
 74
     7
 42
0.000000001
 43
0.0000000001
 44
0.00000001
 40
0.0
 40
0.0
 40
0.0
 40
0.0
 40
0.03032493640444
 40
0.0604417804406943
 40
0.0959479228026344
 40
0.1315593618836094
 40
0.1736623514499151
 40
0.2160932422794637
 40
0.2160932422794637
 40
0.2160932422794637
 40
0.2160932422794637
 10
2786.857877728488
 20
-10.63214372040982
 30
0.0
 10
2786.857204549401
 20
-10.62200453233502
 30
0.0
 10
2786.855862796382
 20
-10.60179573388412
 30
0.0
 10
2786.844161442577
 20
-10.57160502147419
 30
0.0
 10
2786.826135489928
 20
-10.5428504908549
 30
0.0
 10
2786.799030600034
 20
-10.51601704957021
 30
0.0
 10
2786.762070103616
 20
-10.49784361228397
 30
0.0
 10
2786.733774822086
 20
-10.49577565309549
 30
0.0
 10
2786.719572302559
 20
-10.49473766991899
 30
0.0
 11
2786.857877728488
 21
-10.63214372040982
 31
0.0
 11
2786.854340429317
 21
-10.60202579549178
 31
0.0
 11
2786.844043218062
 21
-10.57372399521797
 31
0.0
 11
2786.825066929347
 21
-10.54371421718455
 31
0.0
 11
2786.799471229406
 21
-10.51895467621879
 31
0.0
 11
2786.76160291496
 21
-10.50055215730652
 31
0.0
 11
2786.719572302559
 21
-10.49473766991899
 31
0.0
  0
SPLINE
  5
105
330
79
100
AcDbEntity
  8
0
  6
Continuous
 62
     7
100
AcDbSpline
210
0.0
220
0.0
230
1.0
 70
     8
 71
     3
 72
    13
 73
     9
 74
     7
 42
0.000000001
 43
0.0000000001
 44
0.00000001
 40
0.0
 40
0.0
 40
0.0
 40
0.0
 40
0.0381152507058748
 40
0.0763355471219251
 40
0.1127548705347207
 40
0.1486421485067029
 40
0.1827728946266989
 40
0.2174479353555482
 40
0.2174479353555482
 40
0.2174479353555482
 40
0.2174479353555482
 10
2788.298849120819
 20
-10.0549959847984
 30
0.0
 10
2788.286097202894
 20
-10.05596415793175
 30
0.0
 10
2788.260558224689
 20
-10.05790318682445
 30
0.0
 10
2788.225682892071
 20
-10.07366421763631
 30
0.0
 10
2788.196132995885
 20
-10.0960228482673
 30
0.0
 10
2788.173829274351
 20
-10.12438126111229
 30
0.0
 10
2788.162530655929
 20
-10.15811156505614
 30
0.0
 10
2788.161622822417
 20
-10.18109643565612
 30
0.0
 10
2788.161165322031
 20
-10.19267978358651
 30
0.0
 11
2788.298849120819
 21
-10.0549959847984
 31
0.0
 11
2788.261074096209
 21
-10.06007732020692
 31
0.0
 11
2788.225946805841
 21
-10.07513934940499
 31
0.0
 11
2788.197051133785
 21
-10.09730706058758
 31
0.0
 11
2788.175330485191
 21
-10.12587470503908
 31
0.0
 11
2788.164193154971
 21
-10.15813718880428
 31
0.0
 11
2788.161165322031
 21
-10.19267978358651
 31
0.0
  0
SPLINE
  5
106
330
79
100
AcDbEntity
  8
0
  6
Continuous
 62
     7
100
AcDbSpline
210
0.0
220
0.0
230
1.0
 70
     8
 71
     3
 72
    13
 73
     9
 74
     7
 42
0.000000001
 43
0.0000000001
 44
0.00000001
 40
0.0
 40
0.0
 40
0.0
 40
0.0
 40
0.038115250705871
 40
0.0763355471219038
 40
0.1127548705346843
 40
0.1486421485066792
 40
0.1827728946267205
 40
0.2174479353555822
 40
0.2174479353555822
 40
0.2174479353555822
 40
0.2174479353555822
 10
2788.298849120819
 20
-12.2287599680849
 30
0.0
 10
2788.286097202894
 20
-12.22779179495156
 30
0.0
 10
2788.260558224689
 20
-12.22585276605887
 30
0.0
 10
2788.225682892071
 20
-12.21009173524707
 30
0.0
 10
2788.196132995886
 20
-12.1877331046161
 30
0.0
 10
2788.173829274349
 20
-12.15937469177107
 30
0.0
 10
2788.16253065593
 20
-12.12564438782721
 30
0.0
 10
2788.161622822417
 20
-12.1026595172272
 30
0.0
 10
2788.161165322031
 20
-12.09107616929681
 30
0.0
 11
2788.298849120819
 21
-12.2287599680849
 31
0.0
 11
2788.261074096209
 21
-12.22367863267641
 31
0.0
 11
2788.225946805841
 21
-12.20861660347838
 31
0.0
 11
2788.197051133785
 21
-12.18644889229582
 31
0.0
 11
2788.175330485191
 21
-12.1578812478443
 31
0.0
 11
2788.164193154971
 21
-12.12561876407906
 31
0.0
 11
2788.161165322031
 21
-12.09107616929681
 31
0.0
  0
SPLINE
  5
107
330
79
100
AcDbEntity
  8
0
  6
Continuous
 62
     7
100
AcDbSpline
210
0.0
220
0.0
230
1.0
 70
     8
 71
     3
 72
    13
 73
     9
 74
     7
 42
0.000000001
 43
0.0000000001
 44
0.00000001
 40
0.0
 40
0.0
 40
0.0
 40
0.0
 40
0.0381152507063255
 40
0.0763355471223758
 40
0.1127548705355322
 40
0.1486421485075144
 40
0.1827728946275104
 40
0.2174479353563994
 40
0.2174479353563994
 40
0.2174479353563994
 40
0.2174479353563994
 10
2795.711355999952
 20
-10.0549959847984
 30
0.0
 10
2795.698604082027
 20
-10.05596415793172
 30
0.0
 10
2795.673065103821
 20
-10.05790318682436
 30
0.0
 10
2795.638189771205
 20
-10.07366421763645
 30
0.0
 10
2795.608639875017
 20
-10.09602284826713
 30
0.0
 10
2795.586336153482
 20
-10.12438126111231
 30
0.0
 10
2795.575037535062
 20
-10.15811156505616
 30
0.0
 10
2795.57412970155
 20
-10.18109643565613
 30
0.0
 10
2795.573672201163
 20
-10.19267978358651
 30
0.0
 11
2795.711355999952
 21
-10.0549959847984
 31
0.0
 11
2795.673580975342
 21
-10.06007732020692
 31
0.0
 11
2795.638453684974
 21
-10.07513934940499
 31
0.0
 11
2795.609558012917
 21
-10.09730706058758
 31
0.0
 11
2795.587837364324
 21
-10.12587470503908
 31
0.0
 11
2795.576700034103
 21
-10.15813718880428
 31
0.0
 11
2795.573672201163
 21
-10.19267978358651
 31
0.0
  0
SPLINE
  5
108
330
79
100
AcDbEntity
  8
0
  6
Continuous
 62
     7
100
AcDbSpline
210
0.0
220
0.0
230
1.0
 70
     8
 71
     3
 72
    13
 73
     9
 74
     7
 42
0.000000001
 43
0.0000000001
 44
0.00000001
 40
0.0
 40
0.0
 40
0.0
 40
0.0
 40
0.0381152507063217
 40
0.0763355471223545
 40
0.1127548705354958
 40
0.1486421485074907
 40
0.182772894627532
 40
0.2174479353564334
 40
0.2174479353564334
 40
0.2174479353564334
 40
0.2174479353564334
 10
2795.711355999952
 20
-12.2287599680849
 30
0.0
 10
2795.698604082027
 20
-12.22779179495159
 30
0.0
 10
2795.673065103821
 20
-12.22585276605896
 30
0.0
 10
2795.638189771204
 20
-12.21009173524692
 30
0.0
 10
2795.608639875018
 20
-12.18773310461627
 30
0.0
 10
2795.586336153482
 20
-12.15937469177106
 30
0.0
 10
2795.575037535062
 20
-12.12564438782719
 30
0.0
 10
2795.574129701549
 20
-12.10265951722719
 30
0.0
 10
2795.573672201163
 20
-12.09107616929681
 30
0.0
 11
2795.711355999952
 21
-12.2287599680849
 31
0.0
 11
2795.673580975342
 21
-12.22367863267641
 31
0.0
 11
2795.638453684974
 21
-12.20861660347838
 31
0.0
 11
2795.609558012917
 21
-12.18644889229582
 31
0.0
 11
2795.587837364324
 21
-12.1578812478443
 31
0.0
 11
2795.576700034103
 21
-12.12561876407906
 31
0.0
 11
2795.573672201163
 21
-12.09107616929681
 31
0.0
  0
SPLINE
  5
109
330
79
100
AcDbEntity
  8
0
  6
Continuous
 62
     7
100
AcDbSpline
210
0.0
220
0.0
230
1.0
 70
     8
 71
     3
 72
    13
 73
     9
 74
     7
 42
0.000000001
 43
0.0000000001
 44
0.00000001
 40
0.0
 40
0.0
 40
0.0
 40
0.0
 40
0.0353323687868829
 40
0.0704203788310048
 40
0.1027083994744887
 40
0.1352293285016729
 40
0.174011110151694
 40
0.2125287313227952
 40
0.2125287313227952
 40
0.2125287313227952
 40
0.2125287313227952
 10
2795.093908309018
 20
-10.1941875600573
 30
0.0
 10
2795.093022114908
 20
-10.18236565515052
 30
0.0
 10
2795.091255841307
 20
-10.15880360760165
 30
0.0
 10
2795.076799715188
 20
-10.1270371252474
 30
0.0
 10
2795.056111988785
 20
-10.10066571877243
 30
0.0
 10
2795.02985443368
 20
-10.07815678359239
 30
0.0
 10
2794.997561005204
 20
-10.05918861024927
 30
0.0
 10
2794.971675615517
 20
-10.05639033429505
 30
0.0
 10
2794.958777149342
 20
-10.0549959847984
 30
0.0
 11
2795.093908309018
 21
-10.1941875600573
 31
0.0
 11
2795.089199230478
 21
-10.15917040757153
 31
0.0
 11
2795.075193364226
 21
-10.12699892433752
 31
0.0
 11
2795.055414107307
 21
-10.1014783950083
 31
0.0
 11
2795.030839448264
 21
-10.08017822791669
 31
0.0
 11
2794.99668918845
 21
-10.06179925741985
 31
0.0
 11
2794.958777149342
 21
-10.0549959847984
 31
0.0
  0
MTEXT
  5
10B
330
79
100
AcDbEntity
  8
0
 62
     3
100
AcDbMText
 10
2782.527894651648
 20
-26.52620309448403
 30
0.0
 40
1.8
 41
0.0
 71
     4
 72
     1
  1
RoHS Compliant
  7
CONVERTER_11
 73
     1
 44
0.90036014405762
  0
MTEXT
  5
10C
330
79
100
AcDbEntity
  8
0
 62
     3
100
AcDbMText
 10
2781.527894651648
 20
-26.52620309448403
 30
0.0
 40
1.8
 41
0.0
 71
     4
 72
     1
  1
_____________
  7
CONVERTER_11
 73
     1
 44
0.90036014405762
  0
MTEXT
  5
10E
330
79
100
AcDbEntity
  8
0
 62
     4
100
AcDbMText
 10
2844.421429616469
 20
-42.07620309448399
 30
0.0
 40
3.5
 41
0.0
 71
     5
 72
     1
  1
D
  7
CONVERTER_12
 73
     1
 44
1.02040816326531
  0
MTEXT
  5
110
330
79
100
AcDbEntity
  8
0
 62
     3
100
AcDbMText
 10
2781.527894651648
 20
-35.126203094484
 30
0.0
 40
1.8
 41
0.0
 71
     4
 72
     1
  1
-
  7
CONVERTER_13
 73
     1
 44
0.90036014405762
  0
MTEXT
  5
112
330
79
100
AcDbEntity
  8
0
 62
     3
100
AcDbMText
 10
2781.527894651648
 20
-30.82620309448402
 30
0.0
 40
1.8
 41
0.0
 71
     4
 72
     1
  1
erstellt / drawn
  7
CONVERTER_14
 73
     1
 44
0.90036014405762
  0
TEXT
  5
113
330
79
100
AcDbEntity
  8
0
 62
     4
100
AcDbText
 10
2802.358328029991
 20
-10.82785262172951
 30
0.0
 40
2.2
  1
GEZE GmbH
 41
0.9
  7
CONVERTER_12
100
AcDbText
  0
MTEXT
  5
114
330
79
100
AcDbEntity
  8
0
 62
     3
100
AcDbMText
 10
2802.358328029991
 20
-18.55932985050382
 30
0.0
 40
1.8
 41
0.0
 71
     7
 72
     1
  1
P.O. Box 13 63\P71226 Leonberg\PGermany
  7
CONVERTER_14
 73
     1
 44
0.78031212484994
  0
MTEXT
  5
115
330
79
100
AcDbEntity
  8
0
 62
     3
100
AcDbMText
 10
2858.79871420279
 20
-29.37620309448399
 30
0.0
 40
1.8
 41
0.0
 71
     7
 72
     1
  1
Material-Nr.\PID-no.
  7
CONVERTER_14
 73
     1
 44
0.84033613445378
  0
TEXT
  5
116
330
79
100
AcDbEntity
  8
0
 62
     3
100
AcDbText
 10
2858.79871420279
 20
-39.876203094484
 30
0.0
 40
1.8
  1
Zeichnungs-Nr. / document-no.
 41
0.72
  7
CONVERTER_14
100
AcDbText
  0
TEXT
  5
117
330
79
100
AcDbEntity
  8
0
 62
     3
100
AcDbText
 10
2831.99871420279
 20
-39.54286984498401
 30
0.0
 40
1.8
  1
Sprache / language
 41
0.72
  7
CONVERTER_14
100
AcDbText
  0
MTEXT
  5
118
330
79
100
AcDbEntity
  8
0
 62
     3
100
AcDbMText
 10
2831.513614622009
 20
-35.91441484555031
 30
0.0
 40
1.8
 41
0.0
 71
     7
 72
     1
  1
Ma\U+00dfstab\Pscale
  7
CONVERTER_14
 73
     1
 44
0.84033613445378
  0
TEXT
  5
119
330
79
100
AcDbEntity
  8
0
 62
     3
100
AcDbText
 10
2822.59867120279
 20
-9.676197094484
 30
0.0
 40
1.8
  1
Benennung / designation
 41
0.72
  7
CONVERTER_14
100
AcDbText
  0
MTEXT
  5
11A
330
79
100
AcDbEntity
  8
0
 62
     3
100
AcDbMText
 10
2781.527894651648
 20
-47.026203094484
 30
0.0
 40
1.8
 41
0.0
 71
     4
 72
     1
  1
Ersetzt durch:\Psubst. with:
  7
CONVERTER_14
 73
     1
 44
0.84033613445378
  0
MTEXT
  5
11B
330
79
100
AcDbEntity
  8
0
 62
     3
100
AcDbMText
 10
2781.527894651648
 20
-40.526203094484
 30
0.0
 40
1.8
 41
0.0
 71
     4
 72
     1
  1
Ersatz f\U+00fcr:\Psubst. for:
  7
CONVERTER_14
 73
     1
 44
0.84033613445378
  0
MTEXT
  5
11C
330
79
100
AcDbEntity
  8
0
 62
     3
100
AcDbMText
 10
2831.612053020837
 20
-29.12189100359251
 30
0.0
 40
1.8
 41
0.0
 71
     7
 72
     1
  1
Blatt / von\Psheet / of
  7
CONVERTER_14
 73
     1
 44
0.84033613445378
  0
MTEXT
  5
11E
330
79
100
AcDbEntity
  8
0
 62
     3
100
AcDbMText
 10
2815.29871420279
 20
-27.57864707796781
 30
0.0
 40
1.8
 41
0.0
 71
     8
 72
     1
  1
Datum/date
  7
CONVERTER_15
 73
     1
 44
0.90036014405762
  0
MTEXT
  5
11F
330
79
100
AcDbEntity
  8
0
 62
     3
100
AcDbMText
 10
2826.29871420279
 20
-27.57864707796781
 30
0.0
 40
1.8
 41
0.0
 71
     8
 72
     1
  1
Name
  7
CONVERTER_15
 73
     1
 44
0.90036014405762
  0
MTEXT
  5
121
330
79
100
AcDbEntity
  8
0
 62
     7
100
AcDbMText
 10
2742.99871420279
 20
-47.91577380243089
 30
0.0
 40
1.3
 41
0.0
 71
     8
 72
     1
  1
Dok.version
  7
CONVERTER_16
 73
     1
 44
0.7202881152461
  0
MTEXT
  5
122
330
79
100
AcDbEntity
  8
0
 62
     7
100
AcDbMText
 10
2742.99871420279
 20
-49.7157738024309
 30
0.0
 40
1.3
 41
0.0
 71
     8
 72
     1
  1
doc.version
  7
CONVERTER_16
 73
     1
 44
0.7202881152461
  0
MTEXT
  5
123
330
79
100
AcDbEntity
  8
0
 62
     7
100
AcDbMText
 10
2753.29871420279
 20
-49.7157738024309
 30
0.0
 40
1.3
 41
0.0
 71
     8
 72
     1
  1
date
  7
CONVERTER_14
 73
     1
 44
0.7202881152461
  0
MTEXT
  5
124
330
79
100
AcDbEntity
  8
0
 62
     7
100
AcDbMText
 10
2753.29871420279
 20
-47.91577380243089
 30
0.0
 40
1.3
 41
0.0
 71
     8
 72
     1
  1
Datum
  7
CONVERTER_14
 73
     1
 44
0.7202881152461
  0
MTEXT
  5
125
330
79
100
AcDbEntity
  8
0
 62
     7
100
AcDbMText
 10
2762.29871420279
 20
-49.7157738024309
 30
0.0
 40
1.3
 41
0.0
 71
     8
 72
     1
  1
name
  7
CONVERTER_14
 73
     1
 44
0.7202881152461
  0
MTEXT
  5
126
330
79
100
AcDbEntity
  8
0
 62
     7
100
AcDbMText
 10
2762.29871420279
 20
-47.91577380243089
 30
0.0
 40
1.3
 41
0.0
 71
     8
 72
     1
  1
Name
  7
CONVERTER_14
 73
     1
 44
0.7202881152461
  0
MTEXT
  5
127
330
79
100
AcDbEntity
  8
0
 62
     7
100
AcDbMText
 10
2773.79871420279
 20
-49.7157738024309
 30
0.0
 40
1.3
 41
0.0
 71
     8
 72
     1
  1
Doc. change no.
  7
CONVERTER_14
 73
     1
 44
0.7202881152461
  0
MTEXT
  5
128
330
79
100
AcDbEntity
  8
0
 62
     7
100
AcDbMText
 10
2773.79871420279
 20
-47.91577380243089
 30
0.0
 40
1.3
 41
0.0
 71
     8
 72
     1
  1
Mitteilungs-Nr.
  7
CONVERTER_14
 73
     1
 44
0.7202881152461
  0
MTEXT
  5
129
330
79
100
AcDbEntity
  8
0
 62
     4
100
AcDbMText
 10
2851.99427161921
 20
-27.776203094484
 30
0.0
 40
5.0
 41
0.0
 71
     5
 72
     1
  1
/
  7
CONVERTER_12
 73
     1
 44
1.02040816326531
  0
MTEXT
  5
12A
330
79
100
AcDbEntity
  8
0
 62
     7
100
AcDbMText
 10
2742.99871420279
 20
-43.82620609448401
 30
0.0
 40
2.0
 41
0.0
 71
     5
 72
     1
  1
00
  7
CONVERTER_12
 73
     1
 44
1.02040816326531
  0
MTEXT
  5
12B
330
79
100
AcDbEntity
  8
0
 62
     7
100
AcDbMText
 10
2742.99871420279
 20
-39.52621809448399
 30
0.0
 40
2.0
 41
0.0
 71
     5
 72
     1
  1
 
  7
CONVERTER_12
 73
     1
 44
1.02040816326531
  0
MTEXT
  5
12C
330
79
100
AcDbEntity
  8
0
 62
     7
100
AcDbMText
 10
2742.99871420279
 20
-35.22623009448401
 30
0.0
 40
2.0
 41
0.0
 71
     5
 72
     1
  1
 
  7
CONVERTER_12
 73
     1
 44
1.02040816326531
  0
MTEXT
  5
12D
330
79
100
AcDbEntity
  8
0
 62
     7
100
AcDbMText
 10
2742.99871420279
 20
-30.92624209448399
 30
0.0
 40
2.0
 41
0.0
 71
     5
 72
     1
  1
 
  7
CONVERTER_12
 73
     1
 44
1.02040816326531
  0
MTEXT
  5
12E
330
79
100
AcDbEntity
  8
0
 62
     7
100
AcDbMText
 10
2742.99871420279
 20
-26.62625409448402
 30
0.0
 40
2.0
 41
0.0
 71
     5
 72
     1
  1
 
  7
CONVERTER_12
 73
     1
 44
1.02040816326531
  0
MTEXT
  5
12F
330
79
100
AcDbEntity
  8
0
 62
     7
100
AcDbMText
 10
2742.99871420279
 20
-22.32626609448399
 30
0.0
 40
2.0
 41
0.0
 71
     5
 72
     1
  1
 
  7
CONVERTER_12
 73
     1
 44
1.02040816326531
  0
MTEXT
  5
130
330
79
100
AcDbEntity
  8
0
 62
     7
100
AcDbMText
 10
2742.99871420279
 20
-18.02627809448401
 30
0.0
 40
2.0
 41
0.0
 71
     5
 72
     1
  1
 
  7
CONVERTER_12
 73
     1
 44
1.02040816326531
  0
MTEXT
  5
132
330
79
100
AcDbEntity
  8
0
 62
     7
100
AcDbMText
 10
2752.79871420279
 20
-13.72629009448401
 30
0.0
 40
2.0
 41
0.0
 71
     5
 72
     1
  1
 
  7
CONVERTER_17
 73
     1
 44
1.02040816326531
  0
MTEXT
  5
133
330
79
100
AcDbEntity
  8
0
 62
     7
100
AcDbMText
 10
2742.99871420279
 20
-9.42630209448402
 30
0.0
 40
2.0
 41
0.0
 71
     5
 72
     1
  1
 
  7
CONVERTER_12
 73
     1
 44
1.02040816326531
  0
MTEXT
  5
134
330
79
100
AcDbEntity
  8
0
 62
     7
100
AcDbMText
 10
2773.79871420279
 20
-9.42630209448402
 30
0.0
 40
2.0
 41
0.0
 71
     5
 72
     1
  1
 
  7
CONVERTER_12
 73
     1
 44
1.02040816326531
  0
MTEXT
  5
135
330
79
100
AcDbEntity
  8
0
 62
     7
100
AcDbMText
 10
2762.59871420279
 20
-13.72629009448401
 30
0.0
 40
2.0
 41
0.0
 71
     5
 72
     1
  1
 
  7
CONVERTER_14
 73
     1
 44
1.02040816326531
  0
MTEXT
  5
136
330
79
100
AcDbEntity
  8
0
 62
     7
100
AcDbMText
 10
2762.59871420279
 20
-18.02627809448401
 30
0.0
 40
2.0
 41
0.0
 71
     5
 72
     1
  1
 
  7
CONVERTER_14
 73
     1
 44
1.02040816326531
  0
MTEXT
  5
137
330
79
100
AcDbEntity
  8
0
 62
     7
100
AcDbMText
 10
2762.59871420279
 20
-22.32626609448399
 30
0.0
 40
2.0
 41
0.0
 71
     5
 72
     1
  1
 
  7
CONVERTER_14
 73
     1
 44
1.02040816326531
  0
MTEXT
  5
138
330
79
100
AcDbEntity
  8
0
 62
     7
100
AcDbMText
 10
2752.79871420279
 20
-26.62625409448402
 30
0.0
 40
2.0
 41
0.0
 71
     5
 72
     1
  1
 
  7
CONVERTER_17
 73
     1
 44
1.02040816326531
  0
MTEXT
  5
139
330
79
100
AcDbEntity
  8
0
 62
     7
100
AcDbMText
 10
2762.59871420279
 20
-30.92624209448399
 30
0.0
 40
2.0
 41
0.0
 71
     5
 72
     1
  1
 
  7
CONVERTER_14
 73
     1
 44
1.02040816326531
  0
MTEXT
  5
13A
330
79
100
AcDbEntity
  8
0
 62
     7
100
AcDbMText
 10
2773.79871420279
 20
-35.22623009448401
 30
0.0
 40
2.0
 41
0.0
 71
     5
 72
     1
  1
 
  7
CONVERTER_12
 73
     1
 44
1.02040816326531
  0
MTEXT
  5
13B
330
79
100
AcDbEntity
  8
0
 62
     7
100
AcDbMText
 10
2773.79871420279
 20
-39.52621809448399
 30
0.0
 40
2.0
 41
0.0
 71
     5
 72
     1
  1
 
  7
CONVERTER_12
 73
     1
 44
1.02040816326531
  0
MTEXT
  5
13C
330
79
100
AcDbEntity
  8
0
 62
     7
100
AcDbMText
 10
2752.79871420279
 20
-43.82620609448401
 30
0.0
 40
2.0
 41
0.0
 71
     5
 72
     1
  1
09.11.17
  7
CONVERTER_17
 73
     1
 44
1.02040816326531
  0
MTEXT
  5
13D
330
79
100
AcDbEntity
  8
0
 62
     7
100
AcDbMText
 10
2762.59871420279
 20
-43.82620609448401
 30
0.0
 40
2.0
 41
0.0
 71
     5
 72
     1
  1
tbt7
  7
CONVERTER_14
 73
     1
 44
1.02040816326531
  0
MTEXT
  5
13E
330
79
100
AcDbEntity
  8
0
 62
     7
100
AcDbMText
 10
2773.79871420279
 20
-30.92624209448399
 30
0.0
 40
2.0
 41
0.0
 71
     5
 72
     1
  1
 
  7
CONVERTER_12
 73
     1
 44
1.02040816326531
  0
MTEXT
  5
13F
330
79
100
AcDbEntity
  8
0
 62
     7
100
AcDbMText
 10
2752.79871420279
 20
-35.22623009448401
 30
0.0
 40
2.0
 41
0.0
 71
     5
 72
     1
  1
 
  7
CONVERTER_17
 73
     1
 44
1.02040816326531
  0
MTEXT
  5
140
330
79
100
AcDbEntity
  8
0
 62
     7
100
AcDbMText
 10
2773.79871420279
 20
-43.82620609448401
 30
0.0
 40
2.0
 41
0.0
 71
     5
 72
     1
  1
*
  7
CONVERTER_12
 73
     1
 44
1.02040816326531
  0
MTEXT
  5
141
330
79
100
AcDbEntity
  8
0
 62
     7
100
AcDbMText
 10
2752.79871420279
 20
-39.52621809448399
 30
0.0
 40
2.0
 41
0.0
 71
     5
 72
     1
  1
 
  7
CONVERTER_17
 73
     1
 44
1.02040816326531
  0
MTEXT
  5
142
330
79
100
AcDbEntity
  8
0
 62
     7
100
AcDbMText
 10
2752.79871420279
 20
-30.92624209448399
 30
0.0
 40
2.0
 41
0.0
 71
     5
 72
     1
  1
 
  7
CONVERTER_17
 73
     1
 44
1.02040816326531
  0
MTEXT
  5
143
330
79
100
AcDbEntity
  8
0
 62
     7
100
AcDbMText
 10
2752.79871420279
 20
-22.32626609448399
 30
0.0
 40
2.0
 41
0.0
 71
     5
 72
     1
  1
 
  7
CONVERTER_17
 73
     1
 44
1.02040816326531
  0
MTEXT
  5
144
330
79
100
AcDbEntity
  8
0
 62
     7
100
AcDbMText
 10
2752.79871420279
 20
-18.02627809448401
 30
0.0
 40
2.0
 41
0.0
 71
     5
 72
     1
  1
 
  7
CONVERTER_17
 73
     1
 44
1.02040816326531
  0
MTEXT
  5
145
330
79
100
AcDbEntity
  8
0
 62
     7
100
AcDbMText
 10
2752.79871420279
 20
-9.42630209448402
 30
0.0
 40
2.0
 41
0.0
 71
     5
 72
     1
  1
 
  7
CONVERTER_17
 73
     1
 44
1.02040816326531
  0
MTEXT
  5
146
330
79
100
AcDbEntity
  8
0
 62
     7
100
AcDbMText
 10
2762.59871420279
 20
-39.52621809448399
 30
0.0
 40
2.0
 41
0.0
 71
     5
 72
     1
  1
 
  7
CONVERTER_14
 73
     1
 44
1.02040816326531
  0
MTEXT
  5
147
330
79
100
AcDbEntity
  8
0
 62
     7
100
AcDbMText
 10
2762.59871420279
 20
-35.22623009448401
 30
0.0
 40
2.0
 41
0.0
 71
     5
 72
     1
  1
 
  7
CONVERTER_14
 73
     1
 44
1.02040816326531
  0
MTEXT
  5
148
330
79
100
AcDbEntity
  8
0
 62
     7
100
AcDbMText
 10
2762.59871420279
 20
-26.62625409448402
 30
0.0
 40
2.0
 41
0.0
 71
     5
 72
     1
  1
 
  7
CONVERTER_14
 73
     1
 44
1.02040816326531
  0
MTEXT
  5
149
330
79
100
AcDbEntity
  8
0
 62
     7
100
AcDbMText
 10
2762.59871420279
 20
-9.42630209448402
 30
0.0
 40
2.0
 41
0.0
 71
     5
 72
     1
  1
 
  7
CONVERTER_14
 73
     1
 44
1.02040816326531
  0
MTEXT
  5
14A
330
79
100
AcDbEntity
  8
0
 62
     7
100
AcDbMText
 10
2773.79871420279
 20
-26.62625409448402
 30
0.0
 40
2.0
 41
0.0
 71
     5
 72
     1
  1
 
  7
CONVERTER_12
 73
     1
 44
1.02040816326531
  0
MTEXT
  5
14B
330
79
100
AcDbEntity
  8
0
 62
     7
100
AcDbMText
 10
2773.79871420279
 20
-22.32626609448399
 30
0.0
 40
2.0
 41
0.0
 71
     5
 72
     1
  1
 
  7
CONVERTER_12
 73
     1
 44
1.02040816326531
  0
MTEXT
  5
14C
330
79
100
AcDbEntity
  8
0
 62
     7
100
AcDbMText
 10
2773.79871420279
 20
-18.02627809448401
 30
0.0
 40
2.0
 41
0.0
 71
     5
 72
     1
  1
 
  7
CONVERTER_12
 73
     1
 44
1.02040816326531
  0
MTEXT
  5
14D
330
79
100
AcDbEntity
  8
0
 62
     7
100
AcDbMText
 10
2773.79871420279
 20
-13.72629009448401
 30
0.0
 40
2.0
 41
0.0
 71
     5
 72
     1
  1
 
  7
CONVERTER_12
 73
     1
 44
1.02040816326531
  0
MTEXT
  5
14E
330
79
100
AcDbEntity
  8
0
 62
     7
100
AcDbMText
 10
2742.99871420279
 20
-13.72629009448401
 30
0.0
 40
2.0
 41
0.0
 71
     5
 72
     1
  1
 
  7
CONVERTER_12
 73
     1
 44
1.02040816326531
  0
MTEXT
  5
14F
330
79
100
AcDbEntity
  8
0
 62
     3
100
AcDbMText
 10
2815.285175211587
 20
-30.46258787664561
 30
0.0
 40
2.0
 41
0.0
 71
     5
 72
     1
  1
09.11.17
  7
CONVERTER_17
 73
     1
 44
1.02040816326531
  0
MTEXT
  5
150
330
79
100
AcDbEntity
  8
0
 62
     3
100
AcDbMText
 10
2826.29871420279
 20
-30.46258787664561
 30
0.0
 40
2.0
 41
0.0
 71
     5
 72
     1
  1
tbt7
  7
CONVERTER_17
 73
     1
 44
1.02040816326531
  0
MTEXT
  5
151
330
79
100
AcDbEntity
  8
0
 62
     1
100
AcDbMText
 10
2844.977417687007
 20
-34.0649527870809
 30
0.0
 40
5.0
 41
0.0
 71
     5
 72
     1
  1
1:2
  7
CONVERTER_12
 73
     1
 44
1.02040816326531
  0
MTEXT
  5
152
330
79
100
AcDbEntity
  8
0
 62
     3
100
AcDbMText
 10
2815.285175211587
 20
-34.78803396378089
 30
0.0
 40
2.0
 41
0.0
 71
     5
 72
     1
  1
 
  7
CONVERTER_17
 73
     1
 44
1.02040816326531
  0
MTEXT
  5
153
330
79
100
AcDbEntity
  8
0
 62
     3
100
AcDbMText
 10
2811.541722389205
 20
-47.8660674260075
 30
0.0
 40
2.5
 41
0.0
 71
     5
 72
     1
  1
 
  7
CONVERTER_12
 73
     1
 44
1.02040816326531
  0
MTEXT
  5
154
330
79
100
AcDbEntity
  8
0
 62
     3
100
AcDbMText
 10
2811.541722389205
 20
-40.3660674260075
 30
0.0
 40
2.5
 41
0.0
 71
     5
 72
     1
  1
 
  7
CONVERTER_12
 73
     1
 44
1.02040816326531
  0
MTEXT
  5
155
330
79
100
AcDbEntity
  8
0
 62
     3
100
AcDbMText
 10
2826.29871420279
 20
-34.78803396378089
 30
0.0
 40
2.0
 41
0.0
 71
     5
 72
     1
  1
 
  7
CONVERTER_17
 73
     1
 44
1.02040816326531
  0
MTEXT
  5
156
330
79
100
AcDbEntity
  8
0
 62
     4
100
AcDbMText
 10
2868.79871420279
 20
-20.72523215553551
 30
0.0
 40
3.5
 41
0.0
 71
     5
 72
     1
  1
fuer / for glass fitting PT40
  7
CONVERTER_14
 73
     1
 44
1.02040816326531
  0
MTEXT
  5
157
330
79
100
AcDbEntity
  8
0
 62
     1
100
AcDbMText
 10
2868.79871420279
 20
-13.83696555064182
 30
0.0
 40
4.5
 41
0.0
 71
     5
 72
     1
  1
Glasbearbeitung / glass machining
  7
CONVERTER_13
 73
     1
 44
1.02040816326531
  0
MTEXT
  5
158
330
79
100
AcDbEntity
  8
0
 62
     1
100
AcDbMText
 10
2887.79871420279
 20
-31.76605191242581
 30
0.0
 40
5.0
 41
0.0
 71
     5
 72
     1
  1
 
  7
CONVERTER_12
 73
     1
 44
1.02040816326531
  0
MTEXT
  5
159
330
79
100
AcDbEntity
  8
0
 62
     1
100
AcDbMText
 10
2887.79871420279
 20
-44.89068400875613
 30
0.0
 40
5.0
 41
0.0
 71
     5
 72
     1
  1
21300-9-0967
  7
CONVERTER_14
 73
     1
 44
1.02040816326531
  0
MTEXT
  5
15A
330
79
100
AcDbEntity
  8
0
 62
     4
100
AcDbMText
 10
2855.214517647114
 20
-27.776203094484
 30
0.0
 40
3.5
 41
0.0
 71
     5
 72
     1
  1
-
  7
CONVERTER_12
 73
     1
 44
1.02040816326531
  0
MTEXT
  5
15B
330
79
100
AcDbEntity
  8
0
 62
     4
100
AcDbMText
 10
2848.421429616469
 20
-27.776203094484
 30
0.0
 40
3.5
 41
0.0
 71
     5
 72
     1
  1
1
  7
CONVERTER_12
 73
     1
 44
1.02040816326531
  0
MTEXT
  5
15C
330
79
100
AcDbEntity
  8
0
 62
     7
100
AcDbMText
 10
2736.39871420279
 20
-48.17157676736529
 30
0.0
 40
1.3
 41
0.0
 71
     8
 72
     1
  1
EMPB
  7
CONVERTER_14
 73
     1
 44
0.7202881152461
  0
TEXT
  5
15E
330
79
100
AcDbEntity
  8
0
 62
     4
100
AcDbText
 10
2781.826309922648
 20
-23.13533804258091
 30
0.0
 40
2.5
  1
vertraulich / confidential
 41
0.765
  7
CONVERTER_18
100
AcDbText
  0
MTEXT
  5
15F
330
79
100
AcDbEntity
  8
0
 62
     4
100
AcDbMText
 10
2735.99871420279
 20
-43.82620609448401
 30
0.0
 40
2.0
 41
0.0
 71
     5
 72
     1
  1
 
  7
CONVERTER_17
 73
     1
 44
1.02040816326531
  0
MTEXT
  5
160
330
79
100
AcDbEntity
  8
0
 62
     4
100
AcDbMText
 10
2735.99871420279
 20
-39.52621809448399
 30
0.0
 40
2.0
 41
0.0
 71
     5
 72
     1
  1
 
  7
CONVERTER_17
 73
     1
 44
1.02040816326531
  0
MTEXT
  5
161
330
79
100
AcDbEntity
  8
0
 62
     4
100
AcDbMText
 10
2735.99871420279
 20
-35.22623009448401
 30
0.0
 40
2.0
 41
0.0
 71
     5
 72
     1
  1
 
  7
CONVERTER_17
 73
     1
 44
1.02040816326531
  0
MTEXT
  5
162
330
79
100
AcDbEntity
  8
0
 62
     4
100
AcDbMText
 10
2735.99871420279
 20
-30.92624209448399
 30
0.0
 40
2.0
 41
0.0
 71
     5
 72
     1
  1
 
  7
CONVERTER_17
 73
     1
 44
1.02040816326531
  0
MTEXT
  5
163
330
79
100
AcDbEntity
  8
0
 62
     4
100
AcDbMText
 10
2735.99871420279
 20
-26.62625409448402
 30
0.0
 40
2.0
 41
0.0
 71
     5
 72
     1
  1
 
  7
CONVERTER_17
 73
     1
 44
1.02040816326531
  0
MTEXT
  5
164
330
79
100
AcDbEntity
  8
0
 62
     4
100
AcDbMText
 10
2735.99871420279
 20
-22.32626609448399
 30
0.0
 40
2.0
 41
0.0
 71
     5
 72
     1
  1
 
  7
CONVERTER_17
 73
     1
 44
1.02040816326531
  0
MTEXT
  5
165
330
79
100
AcDbEntity
  8
0
 62
     4
100
AcDbMText
 10
2735.99871420279
 20
-18.02627809448401
 30
0.0
 40
2.0
 41
0.0
 71
     5
 72
     1
  1
 
  7
CONVERTER_17
 73
     1
 44
1.02040816326531
  0
MTEXT
  5
166
330
79
100
AcDbEntity
  8
0
 62
     4
100
AcDbMText
 10
2735.99871420279
 20
-13.72629009448401
 30
0.0
 40
2.0
 41
0.0
 71
     5
 72
     1
  1
 
  7
CONVERTER_17
 73
     1
 44
1.02040816326531
  0
MTEXT
  5
167
330
79
100
AcDbEntity
  8
0
 62
     4
100
AcDbMText
 10
2735.99871420279
 20
-9.42630209448402
 30
0.0
 40
2.0
 41
0.0
 71
     5
 72
     1
  1
 
  7
CONVERTER_17
 73
     1
 44
1.02040816326531
  0
MTEXT
  5
168
330
79
100
AcDbEntity
  8
1
 62
     7
100
AcDbMText
 10
2695.405279408822
 20
-47.276203094484
 30
0.0
 40
2.0
 41
0.0
 71
     5
 72
     1
  1
EMPB = Erstmusterpr\U+00fcfbericht /First sample test report
  7
CONVERTER_18
 73
     1
 44
1.02040816326531
  0
MTEXT
  5
169
330
79
100
AcDbEntity
  8
0
 62
     4
100
AcDbMText
 10
2503.466508873771
 20
-49.76465371297392
 30
0.0
 40
1.2
 41
0.0
 71
     7
 72
     1
  3
Diese Zeichnung entspricht dem Entwicklungsstand des Zeichnungsdatums bzw. der letzten \U+00c4nderungseintragung. Aus der\PBenutzung der Zeichnung k\U+00f6nnen keine Anspr\U+00fcche, gleich welcher Art, einschlie\U+00dflich Schadenersatzanspr\U+00fc
  3
che, abgeleitet\Pund gegen GEZE geltend gemacht werden. Die Zeichnung bleibt unser Eigentum und ist Dritten nur f\U+00fcr die Vertragsdauer zur\PBenutzung \U+00fcberlassen. S\U+00e4mtliche sich aus der Zeichnung ergebenden Anspr\U+00fcche stehen aus
  3
schlie\U+00dflich GEZE zu.\POhne vorherige Zustimmung von GEZE darf diese Zeichnung weder vervielf\U+00e4ltigt noch Dritten zug\U+00e4nglich gemacht werden.\PThis drawing shows the actual state of product development at the date of the drawing or th
  3
e revision date. No claims for\Pdamages in any form can be made against GEZE as a result of the interpretation of this drawing. This drawing remains the\Pproperty of GEZE and is made available to third parties only for the duration of contractural o
  1
bligations. All rights connected\Pwith this drawing remain in possession of GEZE. This drawing may not be copied or handed over to third parties without the\Pexpress consent of GEZE.
  7
CONVERTER_18
 73
     1
 44
0.84033613445378
  0
ENDBLK
  5
7B
330
79
100
AcDbEntity
  8
0
100
AcDbBlockEnd
  0
BLOCK
  5
7E
330
7C
100
AcDbEntity
  8
0
100
AcDbBlockBegin
  2
rahmen
 70
     0
 10
5005.59742840558
 20
-100.552406188968
 30
0.0
  3
rahmen
  1
rahmen
  0
INSERT
  5
7D
330
7C
100
AcDbEntity
  8
1
100
AcDbBlockReference
  2
a3kl
 10
5005.59742840558
 20
-100.552406188968
 30
0.0
 41
2.0
 42
2.0
 43
2.0
  0
ENDBLK
  5
7F
330
7C
100
AcDbEntity
  8
0
100
AcDbBlockEnd
  0
BLOCK
  5
1B6
330
1AF
100
AcDbEntity
  8
0
100
AcDbBlockBegin
  2
*D3
 70
     1
 10
0.0
 20
0.0
 30
0.0
  3
*D3
  1
*D3
  0
LINE
  5
1B0
330
1AF
100
AcDbEntity
  8
1
  6
Continuous
 62
     3
100
AcDbLine
 10
5599.616133383696
 20
384.1799920685751
 30
0.0
 11
5524.616133383696
 21
384.1799920685751
 31
0.0
  0
LINE
  5
1B1
330
1AF
100
AcDbEntity
  8
1
  6
Continuous
 62
     3
100
AcDbLine
 10
5599.616133383696
 20
358.123460960548
 30
0.0
 11
5599.616133383696
 21
388.1799920685751
 31
0.0
  0
LINE
  5
1B2
330
1AF
100
AcDbEntity
  8
1
  6
Continuous
 62
     3
100
AcDbLine
 10
5524.616133383696
 20
368.123460960548
 30
0.0
 11
5524.616133383696
 21
388.1799920685751
 31
0.0
  0
SOLID
  5
1B3
330
1AF
100
AcDbEntity
  8
1
 62
     3
100
AcDbTrace
 10
5592.616133383696
 20
383.2584245854634
 30
0.0
 11
5592.616133383696
 21
385.1015595516869
 31
0.0
 12
5599.616133383696
 22
384.1799920685751
 32
0.0
 13
5599.616133383696
 23
384.1799920685751
 33
0.0
  0
SOLID
  5
1B4
330
1AF
100
AcDbEntity
  8
1
 62
     3
100
AcDbTrace
 10
5531.616133383696
 20
385.1015595516869
 30
0.0
 11
5531.616133383696
 21
383.2584245854634
 31
0.0
 12
5524.616133383696
 22
384.1799920685751
 32
0.0
 13
5524.616133383696
 23
384.1799920685751
 33
0.0
  0
MTEXT
  5
1B5
330
1AF
100
AcDbEntity
  8
1
 62
     4
100
AcDbMText
 10
5556.78465728408
 20
386.1799920685751
 30
0.0
 40
6.99999999999974
 41
0.0
 71
     7
 72
     1
  1
75
  7
CONVERTER_12
 11
0.9999999999970619
 21
2.424068405545306E-6
 31
0.0
 73
     1
 44
0.60024009603842
  0
ENDBLK
  5
1B7
330
1AF
100
AcDbEntity
  8
0
100
AcDbBlockEnd
  0
BLOCK
  5
1C1
330
1BA
100
AcDbEntity
  8
0
100
AcDbBlockBegin
  2
*D4
 70
     1
 10
0.0
 20
0.0
 30
0.0
  3
*D4
  1
*D4
  0
LINE
  5
1BB
330
1BA
100
AcDbEntity
  8
1
  6
Continuous
 62
     3
100
AcDbLine
 10
5599.616133383696
 20
398.5313884143981
 30
0.0
 11
5444.616133383696
 21
398.5313884143981
 31
0.0
  0
LINE
  5
1BC
330
1BA
100
AcDbEntity
  8
1
  6
Continuous
 62
     3
100
AcDbLine
 10
5599.616133383696
 20
358.123460960548
 30
0.0
 11
5599.616133383696
 21
402.5313884143981
 31
0.0
  0
LINE
  5
1BD
330
1BA
100
AcDbEntity
  8
1
  6
Continuous
 62
     3
100
AcDbLine
 10
5444.616133383696
 20
381.778558648894
 30
0.0
 11
5444.616133383696
 21
402.5313884143981
 31
0.0
  0
SOLID
  5
1BE
330
1BA
100
AcDbEntity
  8
1
 62
     3
100
AcDbTrace
 10
5592.616133383696
 20
397.6098209312864
 30
0.0
 11
5592.616133383696
 21
399.4529558975099
 31
0.0
 12
5599.616133383696
 22
398.5313884143981
 32
0.0
 13
5599.616133383696
 23
398.5313884143981
 33
0.0
  0
SOLID
  5
1BF
330
1BA
100
AcDbEntity
  8
1
 62
     3
100
AcDbTrace
 10
5451.616133383696
 20
399.4529558975099
 30
0.0
 11
5451.616133383696
 21
397.6098209312864
 31
0.0
 12
5444.616133383696
 22
398.5313884143981
 32
0.0
 13
5444.616133383696
 23
398.5313884143981
 33
0.0
  0
MTEXT
  5
1C0
330
1BA
100
AcDbEntity
  8
1
 62
     4
100
AcDbMText
 10
5513.28639859421
 20
400.5313884143981
 30
0.0
 40
6.99999999999974
 41
0.0
 71
     7
 72
     1
  1
155
  7
CONVERTER_12
 11
0.9999999999970619
 21
2.424068405545306E-6
 31
0.0
 73
     1
 44
0.60024009603842
  0
ENDBLK
  5
1C2
330
1BA
100
AcDbEntity
  8
0
100
AcDbBlockEnd
  0
BLOCK
  5
1CC
330
1C5
100
AcDbEntity
  8
0
100
AcDbBlockBegin
  2
*D5
 70
     1
 10
0.0
 20
0.0
 30
0.0
  3
*D5
  1
*D5
  0
LINE
  5
1C6
330
1C5
100
AcDbEntity
  8
1
  6
Continuous
 62
     3
100
AcDbLine
 10
5599.616133383696
 20
418.6045293680672
 30
0.0
 11
5431.734285044299
 21
418.6045293680672
 31
0.0
  0
LINE
  5
1C7
330
1C5
100
AcDbEntity
  8
1
  6
Continuous
 62
     3
100
AcDbLine
 10
5599.616133383696
 20
358.1234609605481
 30
0.0
 11
5599.616133383696
 21
422.6045293680672
 31
0.0
  0
LINE
  5
1C8
330
1C5
100
AcDbEntity
  8
1
  6
Continuous
 62
     3
100
AcDbLine
 10
5431.734285044299
 20
391.2622811328681
 30
0.0
 11
5431.734285044299
 21
422.6045293680672
 31
0.0
  0
SOLID
  5
1C9
330
1C5
100
AcDbEntity
  8
1
 62
     3
100
AcDbTrace
 10
5592.616133383696
 20
417.6829618849555
 30
0.0
 11
5592.616133383696
 21
419.526096851179
 31
0.0
 12
5599.616133383696
 22
418.6045293680672
 32
0.0
 13
5599.616133383696
 23
418.6045293680672
 33
0.0
  0
SOLID
  5
1CA
330
1C5
100
AcDbEntity
  8
1
 62
     3
100
AcDbTrace
 10
5438.734285044299
 20
419.526096851179
 30
0.0
 11
5438.734285044299
 21
417.6829618849555
 31
0.0
 12
5431.734285044299
 22
418.6045293680672
 32
0.0
 13
5431.734285044299
 23
418.6045293680672
 33
0.0
  0
MTEXT
  5
1CB
330
1C5
100
AcDbEntity
  8
1
 62
     4
100
AcDbMText
 10
5507.214653986361
 20
420.6045293680672
 30
0.0
 40
6.99999999999974
 41
0.0
 71
     7
 72
     1
  1
168
  7
CONVERTER_12
 11
0.9999999999970619
 21
2.424068405545306E-6
 31
0.0
 73
     1
 44
0.60024009603842
  0
ENDBLK
  5
1CD
330
1C5
100
AcDbEntity
  8
0
100
AcDbBlockEnd
  0
BLOCK
  5
1D7
330
1D0
100
AcDbEntity
  8
0
100
AcDbBlockBegin
  2
*D6
 70
     1
 10
0.0
 20
0.0
 30
0.0
  3
*D6
  1
*D6
  0
LINE
  5
1D1
330
1D0
100
AcDbEntity
  8
1
  6
Continuous
 62
     3
100
AcDbLine
 10
5599.616133383696
 20
418.6264235302671
 30
0.0
 11
5629.616133383696
 21
418.6264235302671
 31
0.0
  0
LINE
  5
1D2
330
1D0
100
AcDbEntity
  8
1
  6
Continuous
 62
     3
100
AcDbLine
 10
5599.616133383696
 20
358.123460960548
 30
0.0
 11
5599.616133383696
 21
422.6264235302671
 31
0.0
  0
LINE
  5
1D3
330
1D0
100
AcDbEntity
  8
1
  6
Continuous
 62
     3
100
AcDbLine
 10
5629.616133383696
 20
383.299621679176
 30
0.0
 11
5629.616133383696
 21
422.6264235302671
 31
0.0
  0
SOLID
  5
1D4
330
1D0
100
AcDbEntity
  8
1
 62
     3
100
AcDbTrace
 10
5606.616133383696
 20
419.5479910133789
 30
0.0
 11
5606.616133383696
 21
417.7048560471554
 31
0.0
 12
5599.616133383696
 22
418.6264235302671
 32
0.0
 13
5599.616133383696
 23
418.6264235302671
 33
0.0
  0
SOLID
  5
1D5
330
1D0
100
AcDbEntity
  8
1
 62
     3
100
AcDbTrace
 10
5622.616133383696
 20
417.7048560471554
 30
0.0
 11
5622.616133383696
 21
419.5479910133789
 31
0.0
 12
5629.616133383696
 22
418.6264235302671
 32
0.0
 13
5629.616133383696
 23
418.6264235302671
 33
0.0
  0
MTEXT
  5
1D6
330
1D0
100
AcDbEntity
  8
1
 62
     4
100
AcDbMText
 10
5607.8914563335
 20
420.6264235302671
 30
0.0
 40
6.99999999999974
 41
0.0
 71
     7
 72
     1
  1
30
  7
CONVERTER_12
 11
0.9999999999970619
 21
2.424068405545306E-6
 31
0.0
 73
     1
 44
0.60024009603842
  0
ENDBLK
  5
1D8
330
1D0
100
AcDbEntity
  8
0
100
AcDbBlockEnd
  0
BLOCK
  5
1E2
330
1DB
100
AcDbEntity
  8
0
100
AcDbBlockBegin
  2
*D7
 70
     1
 10
0.0
 20
0.0
 30
0.0
  3
*D7
  1
*D7
  0
LINE
  5
1DC
330
1DB
100
AcDbEntity
  8
1
  6
Continuous
 62
     3
100
AcDbLine
 10
5629.616133383696
 20
437.6509662755171
 30
0.0
 11
5431.734285044299
 21
437.6509662755171
 31
0.0
  0
LINE
  5
1DD
330
1DB
100
AcDbEntity
  8
1
  6
Continuous
 62
     3
100
AcDbLine
 10
5629.616133383696
 20
383.299621679176
 30
0.0
 11
5629.616133383696
 21
441.6509662755171
 31
0.0
  0
LINE
  5
1DE
330
1DB
100
AcDbEntity
  8
1
  6
Continuous
 62
     3
100
AcDbLine
 10
5431.734285044299
 20
391.262281132868
 30
0.0
 11
5431.734285044299
 21
441.6509662755171
 31
0.0
  0
SOLID
  5
1DF
330
1DB
100
AcDbEntity
  8
1
 62
     3
100
AcDbTrace
 10
5622.616133383696
 20
436.7293987924054
 30
0.0
 11
5622.616133383696
 21
438.5725337586289
 31
0.0
 12
5629.616133383696
 22
437.6509662755171
 32
0.0
 13
5629.616133383696
 23
437.6509662755171
 33
0.0
  0
SOLID
  5
1E0
330
1DB
100
AcDbEntity
  8
1
 62
     3
100
AcDbTrace
 10
5438.734285044299
 20
438.5725337586289
 30
0.0
 11
5438.734285044299
 21
436.7293987924054
 31
0.0
 12
5431.734285044299
 22
437.6509662755171
 32
0.0
 13
5431.734285044299
 23
437.6509662755171
 33
0.0
  0
MTEXT
  5
1E1
330
1DB
100
AcDbEntity
  8
1
 62
     4
100
AcDbMText
 10
5522.98000536414
 20
439.6509662755171
 30
0.0
 40
6.99999999999974
 41
0.0
 71
     7
 72
     1
  1
198
  7
CONVERTER_12
 11
0.9999999999970619
 21
2.424068405545306E-6
 31
0.0
 73
     1
 44
0.60024009603842
  0
ENDBLK
  5
1E3
330
1DB
100
AcDbEntity
  8
0
100
AcDbBlockEnd
  0
BLOCK
  5
1ED
330
1E6
100
AcDbEntity
  8
0
100
AcDbBlockBegin
  2
*D8
 70
     1
 10
0.0
 20
0.0
 30
0.0
  3
*D8
  1
*D8
  0
LINE
  5
1E7
330
1E6
100
AcDbEntity
  8
1
  6
Continuous
 62
     3
100
AcDbLine
 10
5593.616133383696
 20
266.4195397694771
 30
0.0
 11
5629.616133383696
 21
266.4195397694771
 31
0.0
  0
LINE
  5
1E8
330
1E6
100
AcDbEntity
  8
1
  6
Continuous
 62
     3
100
AcDbLine
 10
5629.616133383696
 20
278.702986962437
 30
0.0
 11
5629.616133383696
 21
262.4195397694771
 31
0.0
  0
LINE
  5
1E9
330
1E6
100
AcDbEntity
  8
1
  6
Continuous
 62
     3
100
AcDbLine
 10
5593.616133383696
 20
246.163092158812
 30
0.0
 11
5593.616133383696
 21
270.4195397694771
 31
0.0
  0
SOLID
  5
1EA
330
1E6
100
AcDbEntity
  8
1
 62
     3
100
AcDbTrace
 10
5600.616133383696
 20
267.3411072525889
 30
0.0
 11
5600.616133383696
 21
265.4979722863654
 31
0.0
 12
5593.616133383696
 22
266.4195397694771
 32
0.0
 13
5593.616133383696
 23
266.4195397694771
 33
0.0
  0
SOLID
  5
1EB
330
1E6
100
AcDbEntity
  8
1
 62
     3
100
AcDbTrace
 10
5622.616133383696
 20
265.4979722863654
 30
0.0
 11
5622.616133383696
 21
267.3411072525889
 31
0.0
 12
5629.616133383696
 22
266.4195397694771
 32
0.0
 13
5629.616133383696
 23
266.4195397694771
 33
0.0
  0
MTEXT
  5
1EC
330
1E6
100
AcDbEntity
  8
1
 62
     4
100
AcDbMText
 10
5605.79010997806
 20
268.4195397694771
 30
0.0
 40
6.99999999999974
 41
0.0
 71
     7
 72
     1
  1
36
  7
CONVERTER_12
 11
0.9999999999970619
 21
2.424068405545306E-6
 31
0.0
 73
     1
 44
0.60024009603842
  0
ENDBLK
  5
1EE
330
1E6
100
AcDbEntity
  8
0
100
AcDbBlockEnd
  0
BLOCK
  5
1F8
330
1F1
100
AcDbEntity
  8
0
100
AcDbBlockBegin
  2
*D9
 70
     1
 10
0.0
 20
0.0
 30
0.0
  3
*D9
  1
*D9
  0
LINE
  5
1F2
330
1F1
100
AcDbEntity
  8
1
  6
Continuous
 62
     3
100
AcDbLine
 10
5592.616133383696
 20
183.8829762789521
 30
0.0
 11
5524.412216325595
 21
183.8829762789521
 31
0.0
  0
LINE
  5
1F3
330
1F1
100
AcDbEntity
  8
1
  6
Continuous
 62
     3
100
AcDbLine
 10
5592.616133383696
 20
172.2055093551682
 30
0.0
 11
5592.616133383696
 21
187.8829762789521
 31
0.0
  0
LINE
  5
1F4
330
1F1
100
AcDbEntity
  8
1
  6
Continuous
 62
     3
100
AcDbLine
 10
5524.412216325595
 20
172.2055093551682
 30
0.0
 11
5524.412216325595
 21
187.8829762789521
 31
0.0
  0
SOLID
  5
1F5
330
1F1
100
AcDbEntity
  8
1
 62
     3
100
AcDbTrace
 10
5585.616133383696
 20
182.9614087958404
 30
0.0
 11
5585.616133383696
 21
184.8045437620639
 31
0.0
 12
5592.616133383696
 22
183.8829762789521
 32
0.0
 13
5592.616133383696
 23
183.8829762789521
 33
0.0
  0
SOLID
  5
1F6
330
1F1
100
AcDbEntity
  8
1
 62
     3
100
AcDbTrace
 10
5531.412216325595
 20
184.8045437620639
 30
0.0
 11
5531.412216325595
 21
182.9614087958404
 31
0.0
 12
5524.412216325595
 22
183.8829762789521
 32
0.0
 13
5524.412216325595
 23
183.8829762789521
 33
0.0
  0
MTEXT
  5
1F7
330
1F1
100
AcDbEntity
  8
1
 62
     4
100
AcDbMText
 10
5555.01300178734
 20
185.8829762789521
 30
0.0
 40
6.99999999999974
 41
0.0
 71
     7
 72
     1
  1
68
  7
CONVERTER_12
 11
0.9999999999970619
 21
2.424068405545306E-6
 31
0.0
 73
     1
 44
0.60024009603842
  0
ENDBLK
  5
1F9
330
1F1
100
AcDbEntity
  8
0
100
AcDbBlockEnd
  0
BLOCK
  5
203
330
1FC
100
AcDbEntity
  8
0
100
AcDbBlockBegin
  2
*D10
 70
     1
 10
0.0
 20
0.0
 30
0.0
  3
*D10
  1
*D10
  0
LINE
  5
1FD
330
1FC
100
AcDbEntity
  8
1
  6
Continuous
 62
     3
100
AcDbLine
 10
5592.616133383696
 20
197.6440903747061
 30
0.0
 11
5444.616133383696
 21
197.6440903747061
 31
0.0
  0
LINE
  5
1FE
330
1FC
100
AcDbEntity
  8
1
  6
Continuous
 62
     3
100
AcDbLine
 10
5592.616133383696
 20
172.2055093551682
 30
0.0
 11
5592.616133383696
 21
201.6440903747061
 31
0.0
  0
LINE
  5
1FF
330
1FC
100
AcDbEntity
  8
1
  6
Continuous
 62
     3
100
AcDbLine
 10
5444.616133383696
 20
186.1642690342246
 30
0.0
 11
5444.616133383696
 21
201.6440903747061
 31
0.0
  0
SOLID
  5
200
330
1FC
100
AcDbEntity
  8
1
 62
     3
100
AcDbTrace
 10
5585.616133383696
 20
196.7225228915944
 30
0.0
 11
5585.616133383696
 21
198.5656578578179
 31
0.0
 12
5592.616133383696
 22
197.6440903747061
 32
0.0
 13
5592.616133383696
 23
197.6440903747061
 33
0.0
  0
SOLID
  5
201
330
1FC
100
AcDbEntity
  8
1
 62
     3
100
AcDbTrace
 10
5451.616133383696
 20
198.5656578578179
 30
0.0
 11
5451.616133383696
 21
196.7225228915944
 31
0.0
 12
5444.616133383696
 22
197.6440903747061
 32
0.0
 13
5444.616133383696
 23
197.6440903747061
 33
0.0
  0
MTEXT
  5
202
330
1FC
100
AcDbEntity
  8
1
 62
     4
100
AcDbMText
 10
5513.90319818533
 20
199.6440903747061
 30
0.0
 40
6.99999999999974
 41
0.0
 71
     7
 72
     1
  1
148
  7
CONVERTER_12
 11
0.9999999999970619
 21
2.424068405545306E-6
 31
0.0
 73
     1
 44
0.60024009603842
  0
ENDBLK
  5
204
330
1FC
100
AcDbEntity
  8
0
100
AcDbBlockEnd
  0
BLOCK
  5
20E
330
207
100
AcDbEntity
  8
0
100
AcDbBlockBegin
  2
*D11
 70
     1
 10
0.0
 20
0.0
 30
0.0
  3
*D11
  1
*D11
  0
LINE
  5
208
330
207
100
AcDbEntity
  8
1
  6
Continuous
 62
     3
100
AcDbLine
 10
5592.616133383696
 20
213.5770616910181
 30
0.0
 11
5431.616133383696
 21
213.5770616910181
 31
0.0
  0
LINE
  5
209
330
207
100
AcDbEntity
  8
1
  6
Continuous
 62
     3
100
AcDbLine
 10
5592.616133383696
 20
217.596701742064
 30
0.0
 11
5592.616133383696
 21
209.5770616910181
 31
0.0
  0
LINE
  5
20A
330
207
100
AcDbEntity
  8
1
  6
Continuous
 62
     3
100
AcDbLine
 10
5431.616133383696
 20
195.187012967624
 30
0.0
 11
5431.616133383696
 21
217.5770616910181
 31
0.0
  0
SOLID
  5
20B
330
207
100
AcDbEntity
  8
1
 62
     3
100
AcDbTrace
 10
5585.616133383696
 20
212.6554942079064
 30
0.0
 11
5585.616133383696
 21
214.4986291741299
 31
0.0
 12
5592.616133383696
 22
213.5770616910181
 32
0.0
 13
5592.616133383696
 23
213.5770616910181
 33
0.0
  0
SOLID
  5
20C
330
207
100
AcDbEntity
  8
1
 62
     3
100
AcDbTrace
 10
5438.616133383696
 20
214.4986291741299
 30
0.0
 11
5438.616133383696
 21
212.6554942079064
 31
0.0
 12
5431.616133383696
 22
213.5770616910181
 32
0.0
 13
5431.616133383696
 23
213.5770616910181
 33
0.0
  0
MTEXT
  5
20D
330
207
100
AcDbEntity
  8
1
 62
     4
100
AcDbMText
 10
5504.105217714649
 20
215.5770616910181
 30
0.0
 40
6.99999999999974
 41
0.0
 71
     7
 72
     1
  1
161
  7
CONVERTER_12
 11
0.9999999999970619
 21
2.424068405545306E-6
 31
0.0
 73
     1
 44
0.60024009603842
  0
ENDBLK
  5
20F
330
207
100
AcDbEntity
  8
0
100
AcDbBlockEnd
  0
BLOCK
  5
219
330
212
100
AcDbEntity
  8
0
100
AcDbBlockBegin
  2
*D12
 70
     1
 10
0.0
 20
0.0
 30
0.0
  3
*D12
  1
*D12
  0
LINE
  5
213
330
212
100
AcDbEntity
  8
1
  6
Continuous
 62
     3
100
AcDbLine
 10
5593.616133383696
 20
213.5418151319721
 30
0.0
 11
5629.616133383696
 21
213.5418151319721
 31
0.0
  0
LINE
  5
214
330
212
100
AcDbEntity
  8
1
  6
Continuous
 62
     3
100
AcDbLine
 10
5629.616133383696
 20
186.4017096640508
 30
0.0
 11
5629.616133383696
 21
217.5418151319721
 31
0.0
  0
LINE
  5
215
330
212
100
AcDbEntity
  8
1
  6
Continuous
 62
     3
100
AcDbLine
 10
5593.616133383696
 20
217.596701742062
 30
0.0
 11
5593.616133383696
 21
209.5418151319721
 31
0.0
  0
SOLID
  5
216
330
212
100
AcDbEntity
  8
1
 62
     3
100
AcDbTrace
 10
5600.616133383696
 20
214.4633826150839
 30
0.0
 11
5600.616133383696
 21
212.6202476488604
 31
0.0
 12
5593.616133383696
 22
213.5418151319721
 32
0.0
 13
5593.616133383696
 23
213.5418151319721
 33
0.0
  0
SOLID
  5
217
330
212
100
AcDbEntity
  8
1
 62
     3
100
AcDbTrace
 10
5622.616133383696
 20
212.6202476488604
 30
0.0
 11
5622.616133383696
 21
214.4633826150839
 31
0.0
 12
5629.616133383696
 22
213.5418151319721
 32
0.0
 13
5629.616133383696
 23
213.5418151319721
 33
0.0
  0
MTEXT
  5
218
330
212
100
AcDbEntity
  8
1
 62
     4
100
AcDbMText
 10
5607.66536779468
 20
215.5418151319721
 30
0.0
 40
6.99999999999974
 41
0.0
 71
     7
 72
     1
  1
36
  7
CONVERTER_12
 11
0.9999999999970619
 21
2.424068405545306E-6
 31
0.0
 73
     1
 44
0.60024009603842
  0
ENDBLK
  5
21A
330
212
100
AcDbEntity
  8
0
100
AcDbBlockEnd
  0
BLOCK
  5
226
330
21D
100
AcDbEntity
  8
0
100
AcDbBlockBegin
  2
*D13
 70
     1
 10
0.0
 20
0.0
 30
0.0
  3
*D13
  1
*D13
  0
LINE
  5
21E
330
21D
100
AcDbEntity
  8
1
  6
Continuous
 62
     3
100
AcDbLine
 10
5593.616133383696
 20
225.5792610756502
 30
0.0
 11
5607.616133383695
 21
225.5792610756502
 31
0.0
  0
LINE
  5
21F
330
21D
100
AcDbEntity
  8
1
  6
Continuous
 62
     3
100
AcDbLine
 10
5592.616133383696
 20
225.5792610756502
 30
0.0
 11
5593.616133383696
 21
225.5792610756502
 31
0.0
  0
LINE
  5
220
330
21D
100
AcDbEntity
  8
1
  6
Continuous
 62
     3
100
AcDbLine
 10
5578.616133383697
 20
225.5792610756502
 30
0.0
 11
5592.616133383696
 21
225.5792610756502
 31
0.0
  0
LINE
  5
221
330
21D
100
AcDbEntity
  8
1
  6
Continuous
 62
     3
100
AcDbLine
 10
5593.616133383696
 20
217.596701742062
 30
0.0
 11
5593.616133383696
 21
229.5792610756502
 31
0.0
  0
LINE
  5
222
330
21D
100
AcDbEntity
  8
1
  6
Continuous
 62
     3
100
AcDbLine
 10
5592.616133383696
 20
217.596701742064
 30
0.0
 11
5592.616133383696
 21
229.5792610756502
 31
0.0
  0
SOLID
  5
223
330
21D
100
AcDbEntity
  8
1
 62
     3
100
AcDbTrace
 10
5585.616133383696
 20
224.6576935925384
 30
0.0
 11
5585.616133383696
 21
226.5008285587619
 31
0.0
 12
5592.616133383696
 22
225.5792610756502
 32
0.0
 13
5592.616133383696
 23
225.5792610756502
 33
0.0
  0
SOLID
  5
224
330
21D
100
AcDbEntity
  8
1
 62
     3
100
AcDbTrace
 10
5600.616133383696
 20
226.5008285587619
 30
0.0
 11
5600.616133383696
 21
224.6576935925384
 31
0.0
 12
5593.616133383696
 22
225.5792610756502
 32
0.0
 13
5593.616133383696
 23
225.5792610756502
 33
0.0
  0
MTEXT
  5
225
330
21D
100
AcDbEntity
  8
1
 62
     4
100
AcDbMText
 10
5583.2541456409
 20
227.5792610756502
 30
0.0
 40
6.99999999999974
 41
0.0
 71
     7
 72
     1
  1
1
  7
CONVERTER_12
 11
0.9999999999970619
 21
2.424068405545306E-6
 31
0.0
 73
     1
 44
0.60024009603842
  0
ENDBLK
  5
227
330
21D
100
AcDbEntity
  8
0
100
AcDbBlockEnd
  0
BLOCK
  5
231
330
22A
100
AcDbEntity
  8
0
100
AcDbBlockBegin
  2
*D14
 70
     1
 10
0.0
 20
0.0
 30
0.0
  3
*D14
  1
*D14
  0
LINE
  5
22B
330
22A
100
AcDbEntity
  8
1
  6
Continuous
 62
     3
100
AcDbLine
 10
5653.79347982671
 20
98.20550935516822
 30
0.0
 11
5653.79347982671
 21
171.2055093551682
 31
0.0
  0
LINE
  5
22C
330
22A
100
AcDbEntity
  8
1
  6
Continuous
 62
     3
100
AcDbLine
 10
5644.126497916542
 20
98.20550935516822
 30
0.0
 11
5657.79347982671
 21
98.20550935516822
 31
0.0
  0
LINE
  5
22D
330
22A
100
AcDbEntity
  8
1
  6
Continuous
 62
     3
100
AcDbLine
 10
5643.651613259101
 20
171.2055093551682
 30
0.0
 11
5657.79347982671
 21
171.2055093551682
 31
0.0
  0
SOLID
  5
22E
330
22A
100
AcDbEntity
  8
1
 62
     3
100
AcDbTrace
 10
5652.871912343598
 20
105.205509355168
 30
0.0
 11
5654.715047309822
 21
105.205509355168
 31
0.0
 12
5653.79347982671
 22
98.20550935516822
 32
0.0
 13
5653.79347982671
 23
98.20550935516822
 33
0.0
  0
SOLID
  5
22F
330
22A
100
AcDbEntity
  8
1
 62
     3
100
AcDbTrace
 10
5654.715047309822
 20
164.2055093551685
 30
0.0
 11
5652.871912343598
 21
164.2055093551685
 31
0.0
 12
5653.79347982671
 22
171.2055093551682
 32
0.0
 13
5653.79347982671
 23
171.2055093551682
 33
0.0
  0
MTEXT
  5
230
330
22A
100
AcDbEntity
  8
1
 62
     4
100
AcDbMText
 10
5651.79347982671
 20
131.5320192992132
 30
0.0
 40
6.99999999999974
 41
0.0
 71
     7
 72
     1
  1
73
  7
CONVERTER_12
 11
0.0
 21
1.0
 31
0.0
 73
     1
 44
0.60024009603842
  0
ENDBLK
  5
232
330
22A
100
AcDbEntity
  8
0
100
AcDbBlockEnd
  0
BLOCK
  5
23C
330
235
100
AcDbEntity
  8
0
100
AcDbBlockBegin
  2
*D15
 70
     1
 10
0.0
 20
0.0
 30
0.0
  3
*D15
  1
*D15
  0
LINE
  5
236
330
235
100
AcDbEntity
  8
1
  6
Continuous
 62
     3
100
AcDbLine
 10
5609.87273370929
 20
135.2055093551682
 30
0.0
 11
5609.87273370929
 21
171.2055093551682
 31
0.0
  0
LINE
  5
237
330
235
100
AcDbEntity
  8
1
  6
Continuous
 62
     3
100
AcDbLine
 10
5643.651613259101
 20
171.2055093551682
 30
0.0
 11
5605.87273370929
 21
171.2055093551682
 31
0.0
  0
LINE
  5
238
330
235
100
AcDbEntity
  8
1
  6
Continuous
 62
     3
100
AcDbLine
 10
5431.616133383673
 20
135.2055093551682
 30
0.0
 11
5613.87273370929
 21
135.2055093551682
 31
0.0
  0
SOLID
  5
239
330
235
100
AcDbEntity
  8
1
 62
     3
100
AcDbTrace
 10
5608.951166226178
 20
142.2055093551679
 30
0.0
 11
5610.794301192402
 21
142.2055093551679
 31
0.0
 12
5609.87273370929
 22
135.2055093551682
 32
0.0
 13
5609.87273370929
 23
135.2055093551682
 33
0.0
  0
SOLID
  5
23A
330
235
100
AcDbEntity
  8
1
 62
     3
100
AcDbTrace
 10
5610.794301192402
 20
164.2055093551684
 30
0.0
 11
5608.951166226178
 21
164.2055093551684
 31
0.0
 12
5609.87273370929
 22
171.2055093551682
 32
0.0
 13
5609.87273370929
 23
171.2055093551682
 33
0.0
  0
MTEXT
  5
23B
330
235
100
AcDbEntity
  8
1
 62
     4
100
AcDbMText
 10
5607.87273370929
 20
149.4344981299492
 30
0.0
 40
6.99999999999974
 41
0.0
 71
     7
 72
     1
  1
36
  7
CONVERTER_12
 11
0.0
 21
1.0
 31
0.0
 73
     1
 44
0.60024009603842
  0
ENDBLK
  5
23D
330
235
100
AcDbEntity
  8
0
100
AcDbBlockEnd
  0
BLOCK
  5
247
330
240
100
AcDbEntity
  8
0
100
AcDbBlockBegin
  2
*D16
 70
     1
 10
0.0
 20
0.0
 30
0.0
  3
*D16
  1
*D16
  0
LINE
  5
241
330
240
100
AcDbEntity
  8
1
  6
Continuous
 62
     3
100
AcDbLine
 10
5575.73601192889
 20
172.2055093551682
 30
0.0
 11
5575.73601192889
 21
135.2055093551682
 31
0.0
  0
LINE
  5
242
330
240
100
AcDbEntity
  8
1
  6
Continuous
 62
     3
100
AcDbLine
 10
5431.616133383673
 20
135.2055093551682
 30
0.0
 11
5579.73601192889
 21
135.2055093551682
 31
0.0
  0
LINE
  5
243
330
240
100
AcDbEntity
  8
1
  6
Continuous
 62
     3
100
AcDbLine
 10
5592.616133383696
 20
172.2055093551682
 30
0.0
 11
5571.73601192889
 21
172.2055093551682
 31
0.0
  0
SOLID
  5
244
330
240
100
AcDbEntity
  8
1
 62
     3
100
AcDbTrace
 10
5576.657579412002
 20
165.2055093551685
 30
0.0
 11
5574.814444445778
 21
165.2055093551685
 31
0.0
 12
5575.73601192889
 22
172.2055093551682
 32
0.0
 13
5575.73601192889
 23
172.2055093551682
 33
0.0
  0
SOLID
  5
245
330
240
100
AcDbEntity
  8
1
 62
     3
100
AcDbTrace
 10
5574.814444445778
 20
142.2055093551679
 30
0.0
 11
5576.657579412002
 21
142.2055093551679
 31
0.0
 12
5575.73601192889
 22
135.2055093551682
 32
0.0
 13
5575.73601192889
 23
135.2055093551682
 33
0.0
  0
MTEXT
  5
246
330
240
100
AcDbEntity
  8
1
 62
     4
100
AcDbMText
 10
5573.73601192889
 20
147.5116827081612
 30
0.0
 40
6.99999999999974
 41
0.0
 71
     7
 72
     1
  1
37
  7
CONVERTER_12
 11
0.0
 21
1.0
 31
0.0
 73
     1
 44
0.60024009603842
  0
ENDBLK
  5
248
330
240
100
AcDbEntity
  8
0
100
AcDbBlockEnd
  0
BLOCK
  5
252
330
24B
100
AcDbEntity
  8
0
100
AcDbBlockBegin
  2
*D17
 70
     1
 10
0.0
 20
0.0
 30
0.0
  3
*D17
  1
*D17
  0
LINE
  5
24C
330
24B
100
AcDbEntity
  8
1
  6
Continuous
 62
     3
100
AcDbLine
 10
5427.19440269305
 20
135.2055093551682
 30
0.0
 11
5427.19440269305
 21
171.2055093551682
 31
0.0
  0
LINE
  5
24D
330
24B
100
AcDbEntity
  8
1
  6
Continuous
 62
     3
100
AcDbLine
 10
5431.616133383673
 20
135.2055093551682
 30
0.0
 11
5423.19440269305
 21
135.2055093551682
 31
0.0
  0
LINE
  5
24E
330
24B
100
AcDbEntity
  8
1
  6
Continuous
 62
     3
100
AcDbLine
 10
5432.750060394442
 20
171.2055093551682
 30
0.0
 11
5423.19440269305
 21
171.2055093551682
 31
0.0
  0
SOLID
  5
24F
330
24B
100
AcDbEntity
  8
1
 62
     3
100
AcDbTrace
 10
5426.272835209938
 20
142.2055093551679
 30
0.0
 11
5428.115970176162
 21
142.2055093551679
 31
0.0
 12
5427.19440269305
 22
135.2055093551682
 32
0.0
 13
5427.19440269305
 23
135.2055093551682
 33
0.0
  0
SOLID
  5
250
330
24B
100
AcDbEntity
  8
1
 62
     3
100
AcDbTrace
 10
5428.115970176162
 20
164.2055093551684
 30
0.0
 11
5426.272835209938
 21
164.2055093551684
 31
0.0
 12
5427.19440269305
 22
171.2055093551682
 32
0.0
 13
5427.19440269305
 23
171.2055093551682
 33
0.0
  0
MTEXT
  5
251
330
24B
100
AcDbEntity
  8
1
 62
     4
100
AcDbMText
 10
5425.19440269305
 20
148.4725817325182
 30
0.0
 40
6.99999999999974
 41
0.0
 71
     7
 72
     1
  1
36
  7
CONVERTER_12
 11
0.0
 21
1.0
 31
0.0
 73
     1
 44
0.60024009603842
  0
ENDBLK
  5
253
330
24B
100
AcDbEntity
  8
0
100
AcDbBlockEnd
  0
BLOCK
  5
25F
330
256
100
AcDbEntity
  8
0
100
AcDbBlockBegin
  2
*D18
 70
     1
 10
0.0
 20
0.0
 30
0.0
  3
*D18
  1
*D18
  0
LINE
  5
257
330
256
100
AcDbEntity
  8
1
  6
Continuous
 62
     3
100
AcDbLine
 10
5650.57674804961
 20
316.1234609605484
 30
0.0
 11
5650.57674804961
 21
330.1234609605479
 31
0.0
  0
LINE
  5
258
330
256
100
AcDbEntity
  8
1
  6
Continuous
 62
     3
100
AcDbLine
 10
5650.57674804961
 20
330.1234609605479
 30
0.0
 11
5650.57674804961
 21
331.1234609605479
 31
0.0
  0
LINE
  5
259
330
256
100
AcDbEntity
  8
1
  6
Continuous
 62
     3
100
AcDbLine
 10
5650.57674804961
 20
331.1234609605479
 30
0.0
 11
5650.57674804961
 21
345.1234609605474
 31
0.0
  0
LINE
  5
25A
330
256
100
AcDbEntity
  8
1
  6
Continuous
 62
     3
100
AcDbLine
 10
5662.836158863352
 20
330.1234609605479
 30
0.0
 11
5646.57674804961
 21
330.1234609605479
 31
0.0
  0
LINE
  5
25B
330
256
100
AcDbEntity
  8
1
  6
Continuous
 62
     3
100
AcDbLine
 10
5663.402337328106
 20
331.1234609605479
 30
0.0
 11
5646.57674804961
 21
331.1234609605479
 31
0.0
  0
SOLID
  5
25C
330
256
100
AcDbEntity
  8
1
 62
     3
100
AcDbTrace
 10
5651.498315532722
 20
323.1234609605482
 30
0.0
 11
5649.655180566498
 21
323.1234609605482
 31
0.0
 12
5650.57674804961
 22
330.1234609605479
 32
0.0
 13
5650.57674804961
 23
330.1234609605479
 33
0.0
  0
SOLID
  5
25D
330
256
100
AcDbEntity
  8
1
 62
     3
100
AcDbTrace
 10
5649.655180566498
 20
338.1234609605476
 30
0.0
 11
5651.498315532722
 21
338.1234609605476
 31
0.0
 12
5650.57674804961
 22
331.1234609605479
 32
0.0
 13
5650.57674804961
 23
331.1234609605479
 33
0.0
  0
MTEXT
  5
25E
330
256
100
AcDbEntity
  8
1
 62
     4
100
AcDbMText
 10
5648.57674804961
 20
318.118437273152
 30
0.0
 40
6.99999999999974
 41
0.0
 71
     7
 72
     1
  1
1
  7
CONVERTER_12
 11
0.0
 21
1.0
 31
0.0
 73
     1
 44
0.60024009603842
  0
ENDBLK
  5
260
330
256
100
AcDbEntity
  8
0
100
AcDbBlockEnd
  0
BLOCK
  5
26A
330
263
100
AcDbEntity
  8
0
100
AcDbBlockBegin
  2
*D19
 70
     1
 10
0.0
 20
0.0
 30
0.0
  3
*D19
  1
*D19
  0
LINE
  5
264
330
263
100
AcDbEntity
  8
1
  6
Continuous
 62
     3
100
AcDbLine
 10
5663.79772424825
 20
331.1234609605478
 30
0.0
 11
5663.79772424825
 21
367.1234609605478
 31
0.0
  0
LINE
  5
265
330
263
100
AcDbEntity
  8
1
  6
Continuous
 62
     3
100
AcDbLine
 10
5663.402337328106
 20
331.1234609605478
 30
0.0
 11
5667.79772424825
 21
331.1234609605478
 31
0.0
  0
LINE
  5
266
330
263
100
AcDbEntity
  8
1
  6
Continuous
 62
     3
100
AcDbLine
 10
5644.075063372177
 20
367.1234609605478
 30
0.0
 11
5667.79772424825
 21
367.1234609605478
 31
0.0
  0
SOLID
  5
267
330
263
100
AcDbEntity
  8
1
 62
     3
100
AcDbTrace
 10
5662.876156765138
 20
338.1234609605476
 30
0.0
 11
5664.719291731362
 21
338.1234609605476
 31
0.0
 12
5663.79772424825
 22
331.1234609605478
 32
0.0
 13
5663.79772424825
 23
331.1234609605478
 33
0.0
  0
SOLID
  5
268
330
263
100
AcDbEntity
  8
1
 62
     3
100
AcDbTrace
 10
5664.719291731362
 20
360.1234609605481
 30
0.0
 11
5662.876156765138
 21
360.1234609605481
 31
0.0
 12
5663.79772424825
 22
367.1234609605478
 32
0.0
 13
5663.79772424825
 23
367.1234609605478
 33
0.0
  0
MTEXT
  5
269
330
263
100
AcDbEntity
  8
1
 62
     4
100
AcDbMText
 10
5661.79772424825
 20
345.1573756337392
 30
0.0
 40
6.99999999999974
 41
0.0
 71
     7
 72
     1
  1
36
  7
CONVERTER_12
 11
0.0
 21
1.0
 31
0.0
 73
     1
 44
0.60024009603842
  0
ENDBLK
  5
26B
330
263
100
AcDbEntity
  8
0
100
AcDbBlockEnd
  0
BLOCK
  5
275
330
26E
100
AcDbEntity
  8
0
100
AcDbBlockBegin
  2
*D20
 70
     1
 10
0.0
 20
0.0
 30
0.0
  3
*D20
  1
*D20
  0
LINE
  5
26F
330
26E
100
AcDbEntity
  8
1
  6
Continuous
 62
     3
100
AcDbLine
 10
5680.74769373369
 20
367.1234609605478
 30
0.0
 11
5680.74769373369
 21
294.123460960548
 31
0.0
  0
LINE
  5
270
330
26E
100
AcDbEntity
  8
1
  6
Continuous
 62
     3
100
AcDbLine
 10
5644.075063372177
 20
367.1234609605478
 30
0.0
 11
5684.74769373369
 21
367.1234609605478
 31
0.0
  0
LINE
  5
271
330
26E
100
AcDbEntity
  8
1
  6
Continuous
 62
     3
100
AcDbLine
 10
5645.825069535965
 20
294.123460960548
 30
0.0
 11
5684.74769373369
 21
294.123460960548
 31
0.0
  0
SOLID
  5
272
330
26E
100
AcDbEntity
  8
1
 62
     3
100
AcDbTrace
 10
5681.669261216802
 20
360.1234609605481
 30
0.0
 11
5679.826126250578
 21
360.1234609605481
 31
0.0
 12
5680.74769373369
 22
367.1234609605478
 32
0.0
 13
5680.74769373369
 23
367.1234609605478
 33
0.0
  0
SOLID
  5
273
330
26E
100
AcDbEntity
  8
1
 62
     3
100
AcDbTrace
 10
5679.826126250578
 20
301.1234609605477
 30
0.0
 11
5681.669261216802
 21
301.1234609605477
 31
0.0
 12
5680.74769373369
 22
294.123460960548
 32
0.0
 13
5680.74769373369
 23
294.123460960548
 33
0.0
  0
MTEXT
  5
274
330
26E
100
AcDbEntity
  8
1
 62
     4
100
AcDbMText
 10
5678.74769373369
 20
317.6704201849984
 30
0.0
 40
6.99999999999974
 41
0.0
 71
     7
 72
     1
  1
\C4;(\C4;73\C4;)
  7
CONVERTER_12
 11
0.0
 21
1.0
 31
0.0
 73
     1
 44
0.60024009603842
  0
ENDBLK
  5
276
330
26E
100
AcDbEntity
  8
0
100
AcDbBlockEnd
  0
BLOCK
  5
280
330
279
100
AcDbEntity
  8
0
100
AcDbBlockBegin
  2
*D21
 70
     1
 10
0.0
 20
0.0
 30
0.0
  3
*D21
  1
*D21
  0
LINE
  5
27A
330
279
100
AcDbEntity
  8
1
  6
Continuous
 62
     3
100
AcDbLine
 10
5559.6760307258
 20
331.1234609605478
 30
0.0
 11
5559.6760307258
 21
368.123460960548
 31
0.0
  0
LINE
  5
27B
330
279
100
AcDbEntity
  8
1
  6
Continuous
 62
     3
100
AcDbLine
 10
5599.616133383696
 20
331.1234609605478
 30
0.0
 11
5555.6760307258
 21
331.1234609605478
 31
0.0
  0
LINE
  5
27C
330
279
100
AcDbEntity
  8
1
  6
Continuous
 62
     3
100
AcDbLine
 10
5589.616133383696
 20
368.123460960548
 30
0.0
 11
5555.6760307258
 21
368.123460960548
 31
0.0
  0
SOLID
  5
27D
330
279
100
AcDbEntity
  8
1
 62
     3
100
AcDbTrace
 10
5558.754463242688
 20
338.1234609605476
 30
0.0
 11
5560.597598208912
 21
338.1234609605476
 31
0.0
 12
5559.6760307258
 22
331.1234609605478
 32
0.0
 13
5559.6760307258
 23
331.1234609605478
 33
0.0
  0
SOLID
  5
27E
330
279
100
AcDbEntity
  8
1
 62
     3
100
AcDbTrace
 10
5560.597598208912
 20
361.1234609605482
 30
0.0
 11
5558.754463242688
 21
361.1234609605482
 31
0.0
 12
5559.6760307258
 22
368.123460960548
 32
0.0
 13
5559.6760307258
 23
368.123460960548
 33
0.0
  0
MTEXT
  5
27F
330
279
100
AcDbEntity
  8
1
 62
     4
100
AcDbMText
 10
5557.6760307258
 20
344.5438213276371
 30
0.0
 40
6.99999999999974
 41
0.0
 71
     7
 72
     1
  1
37
  7
CONVERTER_12
 11
0.0
 21
1.0
 31
0.0
 73
     1
 44
0.60024009603842
  0
ENDBLK
  5
281
330
279
100
AcDbEntity
  8
0
100
AcDbBlockEnd
  0
BLOCK
  5
28B
330
284
100
AcDbEntity
  8
0
100
AcDbBlockBegin
  2
*D22
 70
     1
 10
0.0
 20
0.0
 30
0.0
  3
*D22
  1
*D22
  0
LINE
  5
285
330
284
100
AcDbEntity
  8
1
  6
Continuous
 62
     3
100
AcDbLine
 10
5413.32248173368
 20
331.1234609605478
 30
0.0
 11
5413.32248173368
 21
367.1234609605478
 31
0.0
  0
LINE
  5
286
330
284
100
AcDbEntity
  8
1
  6
Continuous
 62
     3
100
AcDbLine
 10
5428.529935621223
 20
367.1234609605478
 30
0.0
 11
5409.32248173368
 21
367.1234609605478
 31
0.0
  0
LINE
  5
287
330
284
100
AcDbEntity
  8
1
  6
Continuous
 62
     3
100
AcDbLine
 10
5431.766793052168
 20
331.1234609605478
 30
0.0
 11
5409.32248173368
 21
331.1234609605478
 31
0.0
  0
SOLID
  5
288
330
284
100
AcDbEntity
  8
1
 62
     3
100
AcDbTrace
 10
5412.400914250568
 20
338.1234609605476
 30
0.0
 11
5414.244049216793
 21
338.1234609605476
 31
0.0
 12
5413.32248173368
 22
331.1234609605478
 32
0.0
 13
5413.32248173368
 23
331.1234609605478
 33
0.0
  0
SOLID
  5
289
330
284
100
AcDbEntity
  8
1
 62
     3
100
AcDbTrace
 10
5414.244049216793
 20
360.1234609605481
 30
0.0
 11
5412.400914250568
 21
360.1234609605481
 31
0.0
 12
5413.32248173368
 22
367.1234609605478
 32
0.0
 13
5413.32248173368
 23
367.1234609605478
 33
0.0
  0
MTEXT
  5
28A
330
284
100
AcDbEntity
  8
1
 62
     4
100
AcDbMText
 10
5411.32248173368
 20
347.0937747166791
 30
0.0
 40
6.99999999999974
 41
0.0
 71
     7
 72
     1
  1
36
  7
CONVERTER_12
 11
0.0
 21
1.0
 31
0.0
 73
     1
 44
0.60024009603842
  0
ENDBLK
  5
28C
330
284
100
AcDbEntity
  8
0
100
AcDbBlockEnd
  0
BLOCK
  5
298
330
28F
100
AcDbEntity
  8
0
100
AcDbBlockBegin
  2
*D23
 70
     1
 10
0.0
 20
0.0
 30
0.0
  3
*D23
  1
*D23
  0
LINE
  5
290
330
28F
100
AcDbEntity
  8
1
  6
Continuous
 62
     3
100
AcDbLine
 10
5593.616133383696
 20
312.93219457405
 30
0.0
 11
5574.523382693171
 21
312.93219457405
 31
0.0
  0
LINE
  5
291
330
28F
100
AcDbEntity
  8
1
  6
Continuous
 62
     3
100
AcDbLine
 10
5599.616133383696
 20
312.93219457405
 30
0.0
 11
5593.616133383696
 21
312.93219457405
 31
0.0
  0
LINE
  5
292
330
28F
100
AcDbEntity
  8
1
  6
Continuous
 62
     3
100
AcDbLine
 10
5613.616133383696
 20
312.93219457405
 30
0.0
 11
5599.616133383696
 21
312.93219457405
 31
0.0
  0
LINE
  5
293
330
28F
100
AcDbEntity
  8
1
  6
Continuous
 62
     3
100
AcDbLine
 10
5593.616133383696
 20
330.1234609605479
 30
0.0
 11
5593.616133383696
 21
308.93219457405
 31
0.0
  0
LINE
  5
294
330
28F
100
AcDbEntity
  8
1
  6
Continuous
 62
     3
100
AcDbLine
 10
5599.616133383696
 20
331.1234609605479
 30
0.0
 11
5599.616133383696
 21
308.93219457405
 31
0.0
  0
SOLID
  5
295
330
28F
100
AcDbEntity
  8
1
 62
     3
100
AcDbTrace
 10
5606.616133383696
 20
313.8537620571618
 30
0.0
 11
5606.616133383696
 21
312.0106270909383
 31
0.0
 12
5599.616133383696
 22
312.93219457405
 32
0.0
 13
5599.616133383696
 23
312.93219457405
 33
0.0
  0
SOLID
  5
296
330
28F
100
AcDbEntity
  8
1
 62
     3
100
AcDbTrace
 10
5586.616133383696
 20
312.0106270909383
 30
0.0
 11
5586.616133383696
 21
313.8537620571618
 31
0.0
 12
5593.616133383696
 22
312.93219457405
 32
0.0
 13
5593.616133383696
 23
312.93219457405
 33
0.0
  0
MTEXT
  5
297
330
28F
100
AcDbEntity
  8
1
 62
     4
100
AcDbMText
 10
5573.333382693187
 20
316.9321806598974
 30
0.0
 40
7.0
 41
0.0
 71
     7
 72
     1
  1
\C4;(\C4;6\C4;)
  7
CONVERTER_12
 11
0.9999999999970619
 21
2.424068405545306E-6
 31
0.0
 73
     1
 44
0.60024009603842
  0
ENDBLK
  5
299
330
28F
100
AcDbEntity
  8
0
100
AcDbBlockEnd
  0
BLOCK
  5
2A3
330
29C
100
AcDbEntity
  8
0
100
AcDbBlockBegin
  2
*D24
 70
     1
 10
0.0
 20
0.0
 30
0.0
  3
*D24
  1
*D24
  0
LINE
  5
29D
330
29C
100
AcDbEntity
  8
1
  6
Continuous
 62
     3
100
AcDbLine
 10
5663.79772424825
 20
330.1234609605479
 30
0.0
 11
5663.79772424825
 21
294.123460960548
 31
0.0
  0
LINE
  5
29E
330
29C
100
AcDbEntity
  8
1
  6
Continuous
 62
     3
100
AcDbLine
 10
5662.836158863352
 20
330.1234609605479
 30
0.0
 11
5667.79772424825
 21
330.1234609605479
 31
0.0
  0
LINE
  5
29F
330
29C
100
AcDbEntity
  8
1
  6
Continuous
 62
     3
100
AcDbLine
 10
5645.825069535965
 20
294.123460960548
 30
0.0
 11
5667.79772424825
 21
294.123460960548
 31
0.0
  0
SOLID
  5
2A0
330
29C
100
AcDbEntity
  8
1
 62
     3
100
AcDbTrace
 10
5664.719291731362
 20
323.1234609605479
 30
0.0
 11
5662.876156765138
 21
323.1234609605479
 31
0.0
 12
5663.79772424825
 22
330.1234609605479
 32
0.0
 13
5663.79772424825
 23
330.1234609605479
 33
0.0
  0
SOLID
  5
2A1
330
29C
100
AcDbEntity
  8
1
 62
     3
100
AcDbTrace
 10
5662.876156765138
 20
301.123460960548
 30
0.0
 11
5664.719291731362
 21
301.123460960548
 31
0.0
 12
5663.79772424825
 22
294.123460960548
 32
0.0
 13
5663.79772424825
 23
294.123460960548
 33
0.0
  0
MTEXT
  5
2A2
330
29C
100
AcDbEntity
  8
1
 62
     4
100
AcDbMText
 10
5659.79772424825
 20
305.300231885532
 30
0.0
 40
7.0
 41
0.0
 71
     7
 72
     1
  1
36
  7
CONVERTER_12
 11
0.0
 21
1.0
 31
0.0
 73
     1
 44
0.60024009603842
  0
ENDBLK
  5
2A4
330
29C
100
AcDbEntity
  8
0
100
AcDbBlockEnd
  0
BLOCK
  5
2AB
330
2A7
100
AcDbEntity
  8
0
100
AcDbBlockBegin
  2
*D25
 70
     1
 10
0.0
 20
0.0
 30
0.0
  3
*D25
  1
*D25
  0
LINE
  5
2A8
330
2A7
100
AcDbEntity
  8
1
  6
Continuous
 62
     3
100
AcDbLine
 10
5514.917048364697
 20
313.8250701066622
 30
0.0
 11
5496.370623794152
 21
362.9712477549952
 31
0.0
  0
SOLID
  5
2A9
330
2A7
100
AcDbEntity
  8
1
 62
     3
100
AcDbTrace
 10
5499.704321964396
 20
356.7474432002518
 30
0.0
 11
5497.979889802079
 21
356.0966896207107
 31
0.0
 12
5496.370623794152
 22
362.9712477549952
 32
0.0
 13
5496.370623794152
 23
362.9712477549952
 33
0.0
  0
MTEXT
  5
2AA
330
2A7
100
AcDbEntity
  8
1
 62
     4
100
AcDbMText
 10
5511.054404587881
 20
329.7253085656729
 30
0.0
 40
6.99999999999974
 41
0.0
 71
     7
 72
     1
  1
\C4;R\C4;80
  7
CONVERTER_12
 11
0.3530688698692935
 21
-0.9355973349305886
 31
0.0
 73
     1
 44
0.60024009603842
  0
ENDBLK
  5
2AC
330
2A7
100
AcDbEntity
  8
0
100
AcDbBlockEnd
  0
BLOCK
  5
2B2
330
2AE
100
AcDbEntity
  8
0
100
AcDbBlockBegin
  2
*D26
 70
     1
 10
0.0
 20
0.0
 30
0.0
  3
*D26
  1
*D26
  0
LINE
  5
2AF
330
2AE
100
AcDbEntity
  8
1
  6
Continuous
 62
     3
100
AcDbLine
 10
5457.355392349115
 20
337.43851887349
 30
0.0
 11
5481.400181678629
 21
291.6908340386058
 31
0.0
  0
SOLID
  5
2B0
330
2AE
100
AcDbEntity
  8
1
 62
     3
100
AcDbTrace
 10
5461.427876978629
 20
331.6710102633274
 30
0.0
 11
5459.796369358825
 21
330.813496770584
 31
0.0
 12
5457.355392349115
 22
337.43851887349
 32
0.0
 13
5457.355392349115
 23
337.43851887349
 33
0.0
  0
MTEXT
  5
2B1
330
2AE
100
AcDbEntity
  8
1
 62
     4
100
AcDbMText
 10
5475.614927707569
 20
306.9966641856548
 30
0.0
 40
6.99999999999974
 41
0.0
 71
     7
 72
     1
  1
\C4;R\C4;55
  7
CONVERTER_12
 11
0.4652472599445074
 21
-0.8851807652192448
 31
0.0
 73
     1
 44
0.60024009603842
  0
ENDBLK
  5
2B3
330
2AE
100
AcDbEntity
  8
0
100
AcDbBlockEnd
  0
BLOCK
  5
2B9
330
2B5
100
AcDbEntity
  8
0
100
AcDbBlockBegin
  2
*D27
 70
     1
 10
0.0
 20
0.0
 30
0.0
  3
*D27
  1
*D27
  0
LINE
  5
2B6
330
2B5
100
AcDbEntity
  8
1
  6
Continuous
 62
     3
100
AcDbLine
 10
5578.040587802637
 20
342.6747678126907
 30
0.0
 11
5595.612494431334
 21
366.1261888820987
 31
0.0
  0
SOLID
  5
2B7
330
2B5
100
AcDbEntity
  8
1
 62
     3
100
AcDbTrace
 10
5592.152547080857
 20
359.9716742011631
 30
0.0
 11
5590.677536315119
 21
361.0768844728632
 31
0.0
 12
5595.612494431334
 22
366.1261888820987
 32
0.0
 13
5595.612494431334
 23
366.1261888820987
 33
0.0
  0
MTEXT
  5
2B8
330
2B5
100
AcDbEntity
  8
1
 62
     4
100
AcDbMText
 10
5578.035074256998
 20
346.0027656493507
 30
0.0
 40
6.99999999999974
 41
0.0
 71
     7
 72
     1
  1
\C4;R\C4;10
  7
CONVERTER_12
 11
0.5996361047638169
 21
0.8002727921550731
 31
0.0
 73
     1
 44
0.60024009603842
  0
ENDBLK
  5
2BA
330
2B5
100
AcDbEntity
  8
0
100
AcDbBlockEnd
  0
BLOCK
  5
2C0
330
2BC
100
AcDbEntity
  8
0
100
AcDbBlockBegin
  2
*D28
 70
     1
 10
0.0
 20
0.0
 30
0.0
  3
*D28
  1
*D28
  0
LINE
  5
2BD
330
2BC
100
AcDbEntity
  8
1
  6
Continuous
 62
     3
100
AcDbLine
 10
5496.055593710429
 20
137.9456963978569
 30
0.0
 11
5482.259505365649
 21
160.1992514107948
 31
0.0
  0
SOLID
  5
2BE
330
2BC
100
AcDbEntity
  8
1
 62
     3
100
AcDbTrace
 10
5486.731127846312
 20
154.7353810777478
 30
0.0
 11
5485.164607302973
 21
153.7642168841058
 31
0.0
 12
5482.259505365649
 22
160.1992514107948
 32
0.0
 13
5482.259505365649
 23
160.1992514107948
 33
0.0
  0
MTEXT
  5
2BF
330
2BC
100
AcDbEntity
  8
1
 62
     4
100
AcDbMText
 10
5489.19843693695
 20
152.8022438091475
 30
0.0
 40
6.99999999999974
 41
0.0
 71
     7
 72
     1
  1
\C4;R\C4;80
  7
CONVERTER_12
 11
0.5269088869993351
 21
-0.8499217756953412
 31
0.0
 73
     1
 44
0.60024009603842
  0
ENDBLK
  5
2C1
330
2BC
100
AcDbEntity
  8
0
100
AcDbBlockEnd
  0
BLOCK
  5
2C7
330
2C3
100
AcDbEntity
  8
0
100
AcDbBlockBegin
  2
*D29
 70
     1
 10
0.0
 20
0.0
 30
0.0
  3
*D29
  1
*D29
  0
LINE
  5
2C4
330
2C3
100
AcDbEntity
  8
1
  6
Continuous
 62
     3
100
AcDbLine
 10
5462.611553431847
 20
144.8074886802193
 30
0.0
 11
5491.628608561037
 21
102.3800788012927
 31
0.0
  0
SOLID
  5
2C5
330
2C3
100
AcDbEntity
  8
1
 62
     3
100
AcDbTrace
 10
5467.323885225152
 20
139.5498070907995
 30
0.0
 11
5465.802528284617
 21
138.5093170316445
 31
0.0
 12
5462.611553431847
 22
144.8074886802193
 32
0.0
 13
5462.611553431847
 23
144.8074886802193
 33
0.0
  0
MTEXT
  5
2C6
330
2C3
100
AcDbEntity
  8
1
 62
     4
100
AcDbMText
 10
5484.111609028449
 20
116.913912363951
 30
0.0
 40
6.99999999999974
 41
0.0
 71
     7
 72
     1
  1
\C4;R\C4;55
  7
CONVERTER_12
 11
0.564521903290955
 21
-0.825418088428378
 31
0.0
 73
     1
 44
0.60024009603842
  0
ENDBLK
  5
2C8
330
2C3
100
AcDbEntity
  8
0
100
AcDbBlockEnd
  0
BLOCK
  5
2CF
330
2CA
100
AcDbEntity
  8
0
100
AcDbBlockBegin
  2
*D30
 70
     1
 10
0.0
 20
0.0
 30
0.0
  3
*D30
  1
*D30
  0
LINE
  5
2CB
330
2CA
100
AcDbEntity
  8
1
  6
Continuous
 62
     3
100
AcDbLine
 10
5425.555898765367
 20
163.6584929715765
 30
0.0
 11
5480.829282461625
 21
185.5443270489309
 31
0.0
  0
SOLID
  5
2CC
330
2CA
100
AcDbEntity
  8
1
 62
     3
100
AcDbTrace
 10
5460.08290916994
 20
178.3208542803286
 30
0.0
 11
5460.761454037611
 21
176.6071672125496
 31
0.0
 12
5453.913808807272
 22
174.8869807617984
 32
0.0
 13
5453.913808807272
 23
174.8869807617984
 33
0.0
  0
SOLID
  5
2CD
330
2CA
100
AcDbEntity
  8
1
 62
     3
100
AcDbTrace
 10
5429.149357597453
 20
164.0901644300078
 30
0.0
 11
5428.470812729782
 21
165.8038514977868
 31
0.0
 12
5435.31845796012
 22
167.524037948538
 32
0.0
 13
5435.31845796012
 23
167.524037948538
 33
0.0
  0
MTEXT
  5
2CE
330
2CA
100
AcDbEntity
  8
1
 62
     4
100
AcDbMText
 10
5464.993563292413
 20
181.4251525692788
 30
0.0
 40
6.99999999999974
 41
0.0
 71
     7
 72
     1
  1
\C4;{\Fgdt;n}\C4;20
  7
CONVERTER_12
 11
0.9297675423575732
 21
0.3681471406630211
 31
0.0
 73
     1
 44
0.60024009603842
  0
ENDBLK
  5
2D0
330
2CA
100
AcDbEntity
  8
0
100
AcDbBlockEnd
  0
BLOCK
  5
2D7
330
2D2
100
AcDbEntity
  8
0
100
AcDbBlockBegin
  2
*D31
 70
     1
 10
0.0
 20
0.0
 30
0.0
  3
*D31
  1
*D31
  0
LINE
  5
2D3
330
2D2
100
AcDbEntity
  8
1
  6
Continuous
 62
     3
100
AcDbLine
 10
5426.334845275334
 20
357.8474432212885
 30
0.0
 11
5477.287486713301
 21
383.7010703311046
 31
0.0
  0
SOLID
  5
2D4
330
2D2
100
AcDbEntity
  8
1
 62
     3
100
AcDbTrace
 10
5459.359227116423
 20
375.6375947282294
 30
0.0
 11
5460.193224806302
 21
373.9939419799305
 31
0.0
 12
5453.53383489997
 22
371.6483476626257
 32
0.0
 13
5453.53383489997
 23
371.6483476626257
 33
0.0
  0
SOLID
  5
2D5
330
2D2
100
AcDbEntity
  8
1
 62
     3
100
AcDbTrace
 10
5429.87303965097
 20
358.6093271928663
 30
0.0
 11
5429.03904196109
 21
360.2529799411652
 31
0.0
 12
5435.698431867422
 22
362.59857425847
 32
0.0
 13
5435.698431867422
 23
362.59857425847
 33
0.0
  0
MTEXT
  5
2D6
330
2D2
100
AcDbEntity
  8
1
 62
     4
100
AcDbMText
 10
5461.900162110456
 20
378.1361946301854
 30
0.0
 40
6.99999999999974
 41
0.0
 71
     7
 72
     1
  1
\C4;{\Fgdt;n}\C4;20\C4;
  7
CONVERTER_12
 11
0.891770151627422
 21
0.4524886702077792
 31
0.0
 73
     1
 44
0.60024009603842
  0
ENDBLK
  5
2D8
330
2D2
100
AcDbEntity
  8
0
100
AcDbBlockEnd
  0
BLOCK
  5
2DF
330
2DA
100
AcDbEntity
  8
0
100
AcDbBlockBegin
  2
*D32
 70
     1
 10
0.0
 20
0.0
 30
0.0
  3
*D32
  1
*D32
  0
LINE
  5
2DB
330
2DA
100
AcDbEntity
  8
1
  6
Continuous
 62
     3
100
AcDbLine
 10
5643.479059714443
 20
113.3074719279031
 30
0.0
 11
5604.466558930558
 21
70.80812419637098
 31
0.0
  0
SOLID
  5
2DC
330
2DA
100
AcDbEntity
  8
1
 62
     3
100
AcDbTrace
 10
5618.798949482014
 20
85.05872955693967
 30
0.0
 11
5617.441146785604
 21
86.3051317156899
 31
0.0
 12
5622.853730295527
 22
90.83869834407805
 32
0.0
 13
5622.853730295527
 23
90.83869834407805
 33
0.0
  0
SOLID
  5
2DD
330
2DA
100
AcDbEntity
  8
1
 62
     3
100
AcDbTrace
 10
5640.433317285379
 20
111.3522891533968
 30
0.0
 11
5641.791119981788
 21
110.1058869946465
 31
0.0
 12
5636.378536471865
 22
105.5723203662584
 32
0.0
 13
5636.378536471865
 23
105.5723203662584
 33
0.0
  0
MTEXT
  5
2DE
330
2DA
100
AcDbEntity
  8
1
 62
     4
100
AcDbMText
 10
5603.318633747575
 20
75.47265716058845
 30
0.0
 40
7.0
 41
0.0
 71
     7
 72
     1
  1
\C4;{\Fgdt;n}\C4;20
  7
CONVERTER_12
 11
0.6762403088169204
 21
0.7366811011090187
 31
0.0
 73
     1
 44
0.60024009603842
  0
ENDBLK
  5
2E0
330
2DA
100
AcDbEntity
  8
0
100
AcDbBlockEnd
  0
BLOCK
  5
2E7
330
2E2
100
AcDbEntity
  8
0
100
AcDbBlockBegin
  2
*D33
 70
     1
 10
0.0
 20
0.0
 30
0.0
  3
*D33
  1
*D33
  0
LINE
  5
2E3
330
2E2
100
AcDbEntity
  8
1
  6
Continuous
 62
     3
100
AcDbLine
 10
5616.042520044348
 20
155.8429893498478
 30
0.0
 11
5653.972590654007
 21
198.7719761992762
 31
0.0
  0
SOLID
  5
2E4
330
2E2
100
AcDbEntity
  8
1
 62
     3
100
AcDbTrace
 10
5640.181685962885
 20
184.5553552465011
 30
0.0
 11
5641.562915123427
 21
183.3349649360742
 31
0.0
 12
5636.237408183379
 22
178.6994215528854
 32
0.0
 13
5636.237408183379
 23
178.6994215528854
 33
0.0
  0
SOLID
  5
2E5
330
2E2
100
AcDbEntity
  8
1
 62
     3
100
AcDbTrace
 10
5619.050580804507
 20
157.8556634638353
 30
0.0
 11
5617.669351643965
 21
159.0760537742622
 31
0.0
 12
5622.994858584014
 22
163.7115971574509
 32
0.0
 13
5622.994858584014
 23
163.7115971574509
 33
0.0
  0
MTEXT
  5
2E6
330
2E2
100
AcDbEntity
  8
1
 62
     4
100
AcDbMText
 10
5640.222075500236
 20
189.2503727100562
 30
0.0
 40
7.0
 41
0.0
 71
     7
 72
     1
  1
\C4;{\Fgdt;n}\C4;20
  7
CONVERTER_12
 11
0.6621274799682042
 21
0.7493912197717261
 31
0.0
 73
     1
 44
0.60024009603842
  0
ENDBLK
  5
2E8
330
2E2
100
AcDbEntity
  8
0
100
AcDbBlockEnd
  0
BLOCK
  5
2EF
330
2EA
100
AcDbEntity
  8
0
100
AcDbBlockBegin
  2
*D34
 70
     1
 10
0.0
 20
0.0
 30
0.0
  3
*D34
  1
*D34
  0
LINE
  5
2EB
330
2EA
100
AcDbEntity
  8
1
  6
Continuous
 62
     3
100
AcDbLine
 10
5647.417396308603
 20
304.2903207647522
 30
0.0
 11
5599.320571631869
 21
276.8207150643854
 31
0.0
  0
SOLID
  5
2EC
330
2EA
100
AcDbEntity
  8
1
 62
     3
100
AcDbTrace
 10
5615.311156685038
 20
284.8921594121864
 30
0.0
 11
5614.397064255681
 21
286.4926535653489
 31
0.0
 12
5620.932590493498
 22
289.1640171536192
 32
0.0
 13
5620.932590493498
 23
289.1640171536192
 33
0.0
  0
SOLID
  5
2ED
330
2EA
100
AcDbEntity
  8
1
 62
     3
100
AcDbTrace
 10
5643.921110082354
 20
303.3547625089096
 30
0.0
 11
5644.835202511712
 21
301.7542683557472
 31
0.0
 12
5638.299676273895
 22
299.0829047674769
 32
0.0
 13
5638.299676273895
 23
299.0829047674769
 33
0.0
  0
MTEXT
  5
2EE
330
2EA
100
AcDbEntity
  8
1
 62
     4
100
AcDbMText
 10
5599.64661651789
 20
281.6133442731079
 30
0.0
 40
7.0
 41
0.0
 71
     7
 72
     1
  1
\C4;{\Fgdt;n}\C4;20
  7
CONVERTER_12
 11
0.8683542890198386
 21
0.4959443806928864
 31
0.0
 73
     1
 44
0.60024009603842
  0
ENDBLK
  5
2F0
330
2EA
100
AcDbEntity
  8
0
100
AcDbBlockEnd
  0
BLOCK
  5
2F7
330
2F2
100
AcDbEntity
  8
0
100
AcDbBlockBegin
  2
*D35
 70
     1
 10
0.0
 20
0.0
 30
0.0
  3
*D35
  1
*D35
  0
LINE
  5
2F3
330
2F2
100
AcDbEntity
  8
1
  6
Continuous
 62
     3
100
AcDbLine
 10
5612.660868985148
 20
355.6009174403298
 30
0.0
 11
5659.678882016885
 21
387.5536542810928
 31
0.0
  0
SOLID
  5
2F4
330
2F2
100
AcDbEntity
  8
1
 62
     3
100
AcDbTrace
 10
5643.158606229761
 20
377.4409565791332
 30
0.0
 11
5644.194586857174
 21
375.9165253267174
 31
0.0
 12
5637.886994065915
 22
372.7442138972396
 32
0.0
 13
5637.886994065915
 23
372.7442138972396
 33
0.0
  0
SOLID
  5
2F5
330
2F2
100
AcDbEntity
  8
1
 62
     3
100
AcDbTrace
 10
5616.073660537631
 20
356.8059653419625
 30
0.0
 11
5615.037679910219
 21
358.3303965943783
 31
0.0
 12
5621.345272701477
 22
361.5027080238561
 32
0.0
 13
5621.345272701477
 23
361.5027080238561
 33
0.0
  0
MTEXT
  5
2F6
330
2F2
100
AcDbEntity
  8
1
 62
     4
100
AcDbMText
 10
5643.998703094285
 20
381.7338957847927
 30
0.0
 40
7.0
 41
0.0
 71
     7
 72
     1
  1
\C4;{\Fgdt;n}\C4;20
  7
CONVERTER_12
 11
0.8270860682218668
 21
0.5620752936691787
 31
0.0
 73
     1
 44
0.60024009603842
  0
ENDBLK
  5
2F8
330
2F2
100
AcDbEntity
  8
0
100
AcDbBlockEnd
  0
ENDSEC
  0
SECTION
  2
ENTITIES
  0
INSERT
  5
80
330
1F
100
AcDbEntity
  8
0
100
AcDbBlockReference
  2
rahmen
 10
5005.59742840558
 20
-100.552406188968
 30
0.0
  0
POINT
  5
16A
330
1F
100
AcDbEntity
  8
DUENN
 62
     3
100
AcDbPoint
 10
5663.109171639094
 20
331.1234609605479
 30
0.0
  0
POINT
  5
16B
330
1F
100
AcDbEntity
  8
DUENN
 62
     3
100
AcDbPoint
 10
5639.616133383696
 20
367.1234609605479
 30
0.0
  0
POINT
  5
16C
330
1F
100
AcDbEntity
  8
DUENN
 62
     3
100
AcDbPoint
 10
5663.009171639093
 20
331.1234609605479
 30
0.0
  0
POINT
  5
16D
330
1F
100
AcDbEntity
  8
DUENN
 62
     3
100
AcDbPoint
 10
5642.082522144926
 20
294.123460960548
 30
0.0
  0
POINT
  5
16E
330
1F
100
AcDbEntity
  8
DUENN
 62
     3
100
AcDbPoint
 10
5599.616133383696
 20
331.1234609605479
 30
0.0
  0
POINT
  5
16F
330
1F
100
AcDbEntity
  8
DUENN
 62
     3
100
AcDbPoint
 10
5589.616133383696
 20
368.123460960548
 30
0.0
  0
POINT
  5
170
330
1F
100
AcDbEntity
  8
DUENN
 62
     3
100
AcDbPoint
 10
5431.616133383696
 20
331.1234609605479
 30
0.0
  0
POINT
  5
171
330
1F
100
AcDbEntity
  8
DUENN
 62
     3
100
AcDbPoint
 10
5444.616133383696
 20
367.1234609605479
 30
0.0
  0
POINT
  5
172
330
1F
100
AcDbEntity
  8
DUENN
 62
     3
100
AcDbPoint
 10
5599.616133383696
 20
358.123460960548
 30
0.0
  0
POINT
  5
173
330
1F
100
AcDbEntity
  8
DUENN
 62
     3
100
AcDbPoint
 10
5643.340513479046
 20
98.20550935516822
 30
0.0
  0
POINT
  5
174
330
1F
100
AcDbEntity
  8
DUENN
 62
     3
100
AcDbPoint
 10
5643.340513479046
 20
171.2055093551682
 30
0.0
  0
POINT
  5
175
330
1F
100
AcDbEntity
  8
DUENN
 62
     3
100
AcDbPoint
 10
5524.616133383696
 20
172.2055093551682
 30
0.0
  0
POINT
  5
176
330
1F
100
AcDbEntity
  8
DUENN
 62
     3
100
AcDbPoint
 10
5593.616133383696
 20
135.2055093551682
 30
0.0
  0
POINT
  5
177
330
1F
100
AcDbEntity
  8
DUENN
 62
     3
100
AcDbPoint
 10
5629.616133383696
 20
88.2055093551682
 30
0.0
  0
POINT
  5
178
330
1F
100
AcDbEntity
  8
DUENN
 62
     3
100
AcDbPoint
 10
5629.616133383696
 20
108.2055093551682
 30
0.0
  0
POINT
  5
179
330
1F
100
AcDbEntity
  8
DUENN
 62
     3
100
AcDbPoint
 10
5444.616133383696
 20
161.2055093551682
 30
0.0
  0
POINT
  5
17A
330
1F
100
AcDbEntity
  8
DUENN
 62
     3
100
AcDbPoint
 10
5444.616133383696
 20
181.2055093551682
 30
0.0
  0
POINT
  5
17B
330
1F
100
AcDbEntity
  8
DUENN
 62
     3
100
AcDbPoint
 10
5432.750060394442
 20
171.2055093551682
 30
0.0
  0
POINT
  5
17C
330
1F
100
AcDbEntity
  8
DUENN
 62
     3
100
AcDbPoint
 10
5420.429441782007
 20
135.2055093551682
 30
0.0
  0
POINT
  5
17D
330
1F
100
AcDbEntity
  8
DUENN
 62
     3
100
AcDbPoint
 10
5444.616133383696
 20
183.5993980022308
 30
0.0
  0
POINT
  5
17E
330
1F
100
AcDbEntity
  8
DUENN
 62
     3
100
AcDbPoint
 10
5431.616133383673
 20
135.2055093551682
 30
0.0
  0
POINT
  5
17F
330
1F
100
AcDbEntity
  8
DUENN
 62
     3
100
AcDbPoint
 10
5639.616133383696
 20
171.2055093551682
 30
0.0
  0
POINT
  5
180
330
1F
100
AcDbEntity
  8
DUENN
 62
     3
100
AcDbPoint
 10
5593.616133383696
 20
258.163092158812
 30
0.0
  0
POINT
  5
181
330
1F
100
AcDbEntity
  8
DEFPOINTS
 62
     3
100
AcDbPoint
 10
5629.616133383696
 20
294.123460960548
 30
0.0
  0
POINT
  5
182
330
1F
100
AcDbEntity
  8
1
 62
     3
 60
     1
100
AcDbPoint
 10
5313.734285044299
 20
368.869122767609
 30
0.0
  0
POINT
  5
183
330
1F
100
AcDbEntity
  8
1
 62
     3
 60
     1
100
AcDbPoint
 10
5313.734285044299
 20
380.869122767609
 30
0.0
  0
LINE
  5
184
330
1F
100
AcDbEntity
  8
MITTELLINIE
  6
MITTELLINIE
 62
     3
100
AcDbLine
 10
5613.52716166021
 20
367.1234609605479
 30
0.0
 11
5644.075063372177
 21
367.1234609605479
 31
0.0
  0
LINE
  5
185
330
1F
100
AcDbEntity
  8
MITTELLINIE
  6
MITTELLINIE
 62
     3
100
AcDbLine
 10
5614.676932337733
 20
294.123460960548
 30
0.0
 11
5645.825069535965
 21
294.123460960548
 31
0.0
  0
LINE
  5
186
330
1F
100
AcDbEntity
  8
DICK
  6
Continuous
 62
     1
100
AcDbLine
 10
5599.616133383696
 20
358.123460960548
 30
0.0
 11
5599.616133383696
 21
331.1234609605479
 31
0.0
  0
LINE
  5
187
330
1F
100
AcDbEntity
  8
DICK
  6
Continuous
 62
     1
100
AcDbLine
 10
5524.616133383696
 20
368.123460960548
 30
0.0
 11
5589.616133383696
 21
368.123460960548
 31
0.0
  0
LINE
  5
188
330
1F
100
AcDbEntity
  8
DICK
  6
Continuous
 62
     1
100
AcDbLine
 10
5593.616133383696
 20
330.1234609605479
 30
0.0
 11
5662.836158863352
 21
330.1234609605479
 31
0.0
  0
LINE
  5
189
330
1F
100
AcDbEntity
  8
DICK
  6
Continuous
 62
     1
100
AcDbLine
 10
5599.616133383696
 20
331.1234609605479
 30
0.0
 11
5663.402337328106
 21
331.1234609605479
 31
0.0
  0
LINE
  5
18A
330
1F
100
AcDbEntity
  8
MITTELLINIE
  6
MITTELLINIE
 62
     3
100
AcDbLine
 10
5425.667895669837
 20
386.1234609605479
 30
0.0
 11
5437.831565463225
 21
386.1234609605479
 31
0.0
  0
LINE
  5
18B
330
1F
100
AcDbEntity
  8
MITTELLINIE
  6
MITTELLINIE
 62
     3
100
AcDbLine
 10
5428.529935621223
 20
367.1234609605479
 30
0.0
 11
5457.086450314732
 21
367.1234609605479
 31
0.0
  0
LINE
  5
18C
330
1F
100
AcDbEntity
  8
DICK
  6
Continuous
 62
     1
100
AcDbLine
 10
5384.926520120583
 20
331.1234609605479
 30
0.0
 11
5431.766793052168
 21
331.1234609605479
 31
0.0
  0
LINE
  5
18D
330
1F
100
AcDbEntity
  8
MITTELLINIE
  6
MITTELLINIE
 62
     3
100
AcDbLine
 10
5444.616133383696
 20
381.778558648894
 30
0.0
 11
5444.616133383696
 21
351.7528571950019
 31
0.0
  0
LINE
  5
18E
330
1F
100
AcDbEntity
  8
MITTELLINIE-K
  6
MITTELLINIE_K
 62
     3
100
AcDbLine
 10
5629.616133383696
 20
186.4017096640508
 30
0.0
 11
5629.616133383696
 21
156.6688663513588
 31
0.0
  0
LINE
  5
18F
330
1F
100
AcDbEntity
  8
MITTELLINIE-K
  6
MITTELLINIE_K
 62
     3
100
AcDbLine
 10
5615.79171335604
 20
171.2055093551682
 30
0.0
 11
5643.651613259101
 21
171.2055093551682
 31
0.0
  0
LINE
  5
190
330
1F
100
AcDbEntity
  8
MITTELLINIE-K
  6
MITTELLINIE_K
 62
     3
100
AcDbLine
 10
5615.316828698603
 20
98.20550935516822
 30
0.0
 11
5644.126497916542
 21
98.20550935516822
 31
0.0
  0
LINE
  5
191
330
1F
100
AcDbEntity
  8
DICK
  6
Continuous
 62
     1
100
AcDbLine
 10
5524.412216325595
 20
172.2055093551682
 30
0.0
 11
5592.616133383696
 21
172.2055093551682
 31
0.0
  0
LINE
  5
192
330
1F
100
AcDbEntity
  8
DICK
  6
Continuous
 62
     1
100
AcDbLine
 10
5592.616133383696
 20
217.596701742064
 30
0.0
 11
5592.616133383696
 21
172.2055093551682
 31
0.0
  0
LINE
  5
193
330
1F
100
AcDbEntity
  8
MITTELLINIE-K
  6
MITTELLINIE_K
 62
     3
100
AcDbLine
 10
5629.616133383696
 20
113.217231093148
 30
0.0
 11
5629.616133383696
 21
84.64520863738441
 31
0.0
  0
LINE
  5
194
330
1F
100
AcDbEntity
  8
DICK
  6
Continuous
 62
     1
100
AcDbLine
 10
5593.616133383696
 20
217.596701742062
 30
0.0
 11
5593.616133383696
 21
49.82647830018821
 31
0.0
  0
LINE
  5
195
330
1F
100
AcDbEntity
  8
MITTELLINIE-K
  6
MITTELLINIE_K
 62
     3
100
AcDbLine
 10
5428.603778696453
 20
190.94421353685
 30
0.0
 11
5433.906137700268
 21
190.94421353685
 31
0.0
  0
LINE
  5
196
330
1F
100
AcDbEntity
  8
MITTELLINIE-K
  6
MITTELLINIE_K
 62
     3
100
AcDbLine
 10
5444.616133383696
 20
186.1642690342246
 30
0.0
 11
5444.616133383696
 21
155.4816632022274
 31
0.0
  0
LINE
  5
197
330
1F
100
AcDbEntity
  8
MITTELLINIE-K
  6
MITTELLINIE_K
 62
     3
100
AcDbLine
 10
5432.750060394442
 20
171.2055093551682
 30
0.0
 11
5458.26191949128
 21
171.2055093551682
 31
0.0
  0
LINE
  5
198
330
1F
100
AcDbEntity
  8
DICK
  6
Continuous
 62
     1
100
AcDbLine
 10
5431.616133383673
 20
135.2055093551682
 30
0.0
 11
5384.926520120583
 21
135.2055093551682
 31
0.0
  0
LINE
  5
199
330
1F
100
AcDbEntity
  8
DUENN
  6
DOT_CENTER
 62
     3
100
AcDbLine
 10
5431.616133383696
 20
195.187012967624
 30
0.0
 11
5431.616133383696
 21
186.0197168246224
 31
0.0
  0
LINE
  5
19A
330
1F
100
AcDbEntity
  8
DICK
  6
Continuous
 62
     1
100
AcDbLine
 10
5593.616133383696
 20
330.1234609605479
 30
0.0
 11
5593.616133383696
 21
246.163092158812
 31
0.0
  0
LINE
  5
19B
330
1F
100
AcDbEntity
  8
1
  6
DOT_CENTER
 62
     3
100
AcDbLine
 10
5629.616133383696
 20
311.806504696643
 30
0.0
 11
5629.616133383696
 21
278.702986962437
 31
0.0
  0
LINE
  5
19C
330
1F
100
AcDbEntity
  8
1
  6
DOT_CENTER
 62
     3
100
AcDbLine
 10
5431.734285044299
 20
379.262281132868
 30
0.0
 11
5431.734285044299
 21
391.262281132868
 31
0.0
  0
LINE
  5
19D
330
1F
100
AcDbEntity
  8
1
  6
DOT_CENTER
 62
     3
100
AcDbLine
 10
5629.616133383696
 20
352.960905024029
 30
0.0
 11
5629.616133383696
 21
383.299621679176
 31
0.0
  0
ARC
  5
19E
330
1F
100
AcDbEntity
  8
DICK
  6
Continuous
 62
     1
100
AcDbCircle
 10
5589.616133383696
 20
358.123460960548
 30
0.0
 40
10.0
100
AcDbArc
 50
0.0
 51
90.0
  0
ARC
  5
19F
330
1F
100
AcDbEntity
  8
DICK
  6
Continuous
 62
     1
100
AcDbCircle
 10
5431.766793052168
 20
386.1234609605479
 30
0.0
 40
55.0
100
AcDbArc
 50
270.0
 51
313.4540714537185
  0
ARC
  5
1A0
330
1F
100
AcDbEntity
  8
DICK
  6
Continuous
 62
     1
100
AcDbCircle
 10
5524.616133383696
 20
288.1234609605479
 30
0.0
 40
80.00000000000011
100
AcDbArc
 50
90.0
 51
133.4540714537196
  0
ARC
  5
1A1
330
1F
100
AcDbEntity
  8
DICK
  6
Continuous
 62
     1
100
AcDbCircle
 10
5431.562848750845
 20
190.2054835437796
 30
0.0
 40
55.00000000000014
100
AcDbArc
 50
270.0555088191187
 51
313.4540873814937
  0
ARC
  5
1A2
330
1F
100
AcDbEntity
  8
DICK
  6
Continuous
 62
     1
100
AcDbCircle
 10
5524.412216325595
 20
92.20550935516822
 30
0.0
 40
79.99999999999999
100
AcDbArc
 50
90.0
 51
133.4540873814939
  0
CIRCLE
  5
1A3
330
1F
100
AcDbEntity
  8
DICK
  6
Continuous
 62
     1
100
AcDbCircle
 10
5629.616133383696
 20
294.123460960548
 30
0.0
 40
10.0
  0
CIRCLE
  5
1A4
330
1F
100
AcDbEntity
  8
DICK
  6
Continuous
 62
     1
100
AcDbCircle
 10
5629.616133383696
 20
367.1234609605479
 30
0.0
 40
10.0
  0
CIRCLE
  5
1A5
330
1F
100
AcDbEntity
  8
DICK
  6
Continuous
 62
     1
100
AcDbCircle
 10
5444.616133383696
 20
367.1234609605479
 30
0.0
 40
10.0
  0
CIRCLE
  5
1A6
330
1F
100
AcDbEntity
  8
DICK
  6
Continuous
 62
     1
100
AcDbCircle
 10
5629.616133383696
 20
171.2055093551682
 30
0.0
 40
10.0
  0
CIRCLE
  5
1A7
330
1F
100
AcDbEntity
  8
DICK
  6
Continuous
 62
     1
100
AcDbCircle
 10
5629.616133383696
 20
98.20550935516822
 30
0.0
 40
10.0
  0
CIRCLE
  5
1A8
330
1F
100
AcDbEntity
  8
DICK
  6
Continuous
 62
     1
100
AcDbCircle
 10
5444.616133383696
 20
171.2055093551682
 30
0.0
 40
10.0
  0
TEXT
  5
1A9
330
1F
100
AcDbEntity
  8
DICK
 62
     4
100
AcDbText
 10
5210.03529628539
 20
-1.01841853052099
 30
0.0
 40
5.0
  1
for 10 mm and 12 mm toughened safety glass
 41
0.9
  7
CONVERTER_12
100
AcDbText
  0
TEXT
  5
1AA
330
1F
100
AcDbEntity
  8
DICK
 62
     4
100
AcDbText
 10
5210.03529628539
 20
6.0588552745581
 30
0.0
 40
7.0
  1
fuer 10 mm und 12 mm ESG
 41
0.9
  7
CONVERTER_12
100
AcDbText
  0
TEXT
  5
1AB
330
1F
100
AcDbEntity
  8
1
 62
     4
100
AcDbText
 10
5205.05802067437
 20
337.608740684915
 30
0.0
 40
7.0
  1
bei durchgehendem Oberlicht
 41
0.9
  7
CONVERTER_12
100
AcDbText
  0
TEXT
  5
1AC
330
1F
100
AcDbEntity
  8
1
 62
     4
100
AcDbText
 10
5205.05802067437
 20
159.841341417516
 30
0.0
 40
7.0
  1
bei durchgehendem Seitenteil
 41
0.9
  7
CONVERTER_12
100
AcDbText
  0
TEXT
  5
1AD
330
1F
100
AcDbEntity
  8
1
 62
     4
100
AcDbText
 10
5205.49109825813
 20
327.215582319656
 30
0.0
 40
5.0
  1
with continuous fanlight
 41
0.9
  7
CONVERTER_12
100
AcDbText
  0
TEXT
  5
1AE
330
1F
100
AcDbEntity
  8
1
 62
     4
100
AcDbText
 10
5205.0113049874
 20
151.138751464102
 30
0.0
 40
5.0
  1
with continuous side panel
 41
0.9
  7
CONVERTER_12
100
AcDbText
  0
DIMENSION
  5
1B9
330
1F
100
AcDbEntity
  8
1
100
AcDbDimension
  2
*D3
 10
5599.616133383696
 20
384.1799920685751
 30
0.0
 11
5562.03465728408
 21
389.679992068575
 31
0.0
 70
    32
  1
<>
 71
     5
 42
-1.0
 53
0.00013888888889
  3
ME10_DIM_10
100
AcDbAlignedDimension
 13
5524.616133383696
 23
368.123460960548
 33
0.0
 14
5599.616133383696
 24
358.123460960548
 34
0.0
100
AcDbRotatedDimension
  0
DIMENSION
  5
1C4
330
1F
100
AcDbEntity
  8
1
100
AcDbDimension
  2
*D4
 10
5599.616133383696
 20
398.5313884143981
 30
0.0
 11
5520.63639859421
 21
404.031388414398
 31
0.0
 70
    32
  1
<>
 71
     5
 42
-1.0
 53
0.00013888888889
  3
ME10_DIM_11
100
AcDbAlignedDimension
 13
5444.616133383696
 23
381.778558648894
 33
0.0
 14
5599.616133383696
 24
358.123460960548
 34
0.0
100
AcDbRotatedDimension
  0
DIMENSION
  5
1CF
330
1F
100
AcDbEntity
  8
1
100
AcDbDimension
  2
*D5
 10
5599.616133383696
 20
418.6045293680672
 30
0.0
 11
5514.56465398636
 21
424.1045293680671
 31
0.0
 70
    32
  1
<>
 71
     5
 42
-1.0
 53
0.00013888888889
  3
ME10_DIM_12
100
AcDbAlignedDimension
 13
5431.734285044299
 23
391.262281132868
 33
0.0
 14
5599.616133383696
 24
358.123460960548
 34
0.0
100
AcDbRotatedDimension
  0
DIMENSION
  5
1DA
330
1F
100
AcDbEntity
  8
1
100
AcDbDimension
  2
*D6
 10
5599.616133383696
 20
418.6264235302671
 30
0.0
 11
5613.1414563335
 21
424.126423530267
 31
0.0
 70
    32
  1
<>
 71
     5
 42
-1.0
 53
0.00013888888889
  3
ME10_DIM_13
100
AcDbAlignedDimension
 13
5629.616133383696
 23
383.299621679176
 33
0.0
 14
5599.616133383696
 24
358.123460960548
 34
0.0
100
AcDbRotatedDimension
  0
DIMENSION
  5
1E5
330
1F
100
AcDbEntity
  8
1
100
AcDbDimension
  2
*D7
 10
5629.616133383696
 20
437.6509662755171
 30
0.0
 11
5530.33000536414
 21
443.150966275517
 31
0.0
 70
    32
  1
<>
 71
     5
 42
-1.0
 53
0.00013888888889
  3
ME10_DIM_14
100
AcDbAlignedDimension
 13
5431.734285044299
 23
391.262281132868
 33
0.0
 14
5629.616133383696
 24
383.299621679176
 34
0.0
100
AcDbRotatedDimension
  0
DIMENSION
  5
1F0
330
1F
100
AcDbEntity
  8
1
100
AcDbDimension
  2
*D8
 10
5593.616133383696
 20
266.4195397694771
 30
0.0
 11
5611.04010997806
 21
271.919539769477
 31
0.0
 70
    32
  1
<>
 71
     5
 42
-1.0
 53
0.00013888888889
  3
ME10_DIM_15
100
AcDbAlignedDimension
 13
5629.616133383696
 23
278.702986962437
 33
0.0
 14
5593.616133383696
 24
246.163092158812
 34
0.0
100
AcDbRotatedDimension
  0
DIMENSION
  5
1FB
330
1F
100
AcDbEntity
  8
1
100
AcDbDimension
  2
*D9
 10
5592.616133383696
 20
183.8829762789521
 30
0.0
 11
5560.26300178734
 21
189.382976278952
 31
0.0
 70
    32
  1
<>
 71
     5
 42
-1.0
 53
0.00013888888889
  3
ME10_DIM_16
100
AcDbAlignedDimension
 13
5524.412216325595
 23
172.2055093551682
 33
0.0
 14
5592.616133383696
 24
172.2055093551682
 34
0.0
100
AcDbRotatedDimension
  0
DIMENSION
  5
206
330
1F
100
AcDbEntity
  8
1
100
AcDbDimension
  2
*D10
 10
5592.616133383696
 20
197.6440903747061
 30
0.0
 11
5521.25319818533
 21
203.144090374706
 31
0.0
 70
    32
  1
<>
 71
     5
 42
-1.0
 53
0.00013888888889
  3
ME10_DIM_17
100
AcDbAlignedDimension
 13
5444.616133383696
 23
186.1642690342246
 33
0.0
 14
5592.616133383696
 24
172.2055093551682
 34
0.0
100
AcDbRotatedDimension
  0
DIMENSION
  5
211
330
1F
100
AcDbEntity
  8
1
100
AcDbDimension
  2
*D11
 10
5592.616133383696
 20
213.5770616910181
 30
0.0
 11
5510.40521771465
 21
219.077061691018
 31
0.0
 70
    32
  1
<>
 71
     5
 42
-1.0
 53
0.00013888888889
  3
ME10_DIM_18
100
AcDbAlignedDimension
 13
5431.616133383696
 23
195.187012967624
 33
0.0
 14
5592.616133383696
 24
217.596701742064
 34
0.0
100
AcDbRotatedDimension
  0
DIMENSION
  5
21C
330
1F
100
AcDbEntity
  8
1
100
AcDbDimension
  2
*D12
 10
5593.616133383696
 20
213.5418151319721
 30
0.0
 11
5612.91536779468
 21
219.041815131972
 31
0.0
 70
    32
  1
<>
 71
     5
 42
-1.0
 53
0.00013888888889
  3
ME10_DIM_19
100
AcDbAlignedDimension
 13
5629.616133383696
 23
186.4017096640508
 33
0.0
 14
5593.616133383696
 24
217.596701742062
 34
0.0
100
AcDbRotatedDimension
  0
DIMENSION
  5
229
330
1F
100
AcDbEntity
  8
1
100
AcDbDimension
  2
*D13
 10
5592.616133383696
 20
225.5792610756502
 30
0.0
 11
5584.3041456409
 21
231.07926107565
 31
0.0
 70
    32
  1
<>
 71
     5
 42
-1.0
 53
0.00013888888889
  3
ME10_DIM_20
100
AcDbAlignedDimension
 13
5593.616133383696
 23
217.596701742062
 33
0.0
 14
5592.616133383696
 24
217.596701742064
 34
0.0
100
AcDbRotatedDimension
  0
DIMENSION
  5
234
330
1F
100
AcDbEntity
  8
1
100
AcDbDimension
  2
*D14
 10
5653.79347982671
 20
98.20550935516822
 30
0.0
 11
5648.29347982671
 21
136.782019299213
 31
0.0
 70
    32
  1
<>
 71
     5
 42
-1.0
 53
90.0
  3
ME10_DIM_21
100
AcDbAlignedDimension
 13
5643.651613259101
 23
171.2055093551682
 33
0.0
 14
5644.126497916542
 24
98.20550935516822
 34
0.0
 50
90.0
100
AcDbRotatedDimension
  0
DIMENSION
  5
23F
330
1F
100
AcDbEntity
  8
1
100
AcDbDimension
  2
*D15
 10
5609.87273370929
 20
135.2055093551682
 30
0.0
 11
5604.37273370929
 21
154.684498129949
 31
0.0
 70
    32
  1
<>
 71
     5
 42
-1.0
 53
90.0
  3
ME10_DIM_22
100
AcDbAlignedDimension
 13
5643.651613259101
 23
171.2055093551682
 33
0.0
 14
5431.616133383673
 24
135.2055093551682
 34
0.0
 50
90.0
100
AcDbRotatedDimension
  0
DIMENSION
  5
24A
330
1F
100
AcDbEntity
  8
1
100
AcDbDimension
  2
*D16
 10
5575.73601192889
 20
172.2055093551682
 30
0.0
 11
5570.23601192889
 21
152.761682708161
 31
0.0
 70
    32
  1
<>
 71
     5
 42
-1.0
 53
90.0
  3
ME10_DIM_23
100
AcDbAlignedDimension
 13
5431.616133383673
 23
135.2055093551682
 33
0.0
 14
5592.616133383696
 24
172.2055093551682
 34
0.0
 50
90.0
100
AcDbRotatedDimension
  0
DIMENSION
  5
255
330
1F
100
AcDbEntity
  8
1
100
AcDbDimension
  2
*D17
 10
5427.19440269305
 20
135.2055093551682
 30
0.0
 11
5421.69440269305
 21
153.722581732518
 31
0.0
 70
    32
  1
<>
 71
     5
 42
-1.0
 53
90.0
  3
ME10_DIM_24
100
AcDbAlignedDimension
 13
5432.750060394442
 23
171.2055093551682
 33
0.0
 14
5431.616133383673
 24
135.2055093551682
 34
0.0
 50
90.0
100
AcDbRotatedDimension
  0
DIMENSION
  5
262
330
1F
100
AcDbEntity
  8
1
100
AcDbDimension
  2
*D18
 10
5650.57674804961
 20
330.1234609605479
 30
0.0
 11
5645.07674804961
 21
319.168437273152
 31
0.0
 70
    32
  1
<>
 71
     5
 42
-1.0
 53
90.0
  3
ME10_DIM_25
100
AcDbAlignedDimension
 13
5663.402337328106
 23
331.1234609605479
 33
0.0
 14
5662.836158863352
 24
330.1234609605479
 34
0.0
 50
90.0
100
AcDbRotatedDimension
  0
DIMENSION
  5
26D
330
1F
100
AcDbEntity
  8
1
100
AcDbDimension
  2
*D19
 10
5663.79772424825
 20
331.1234609605478
 30
0.0
 11
5658.29772424825
 21
350.407375633739
 31
0.0
 70
    32
  1
<>
 71
     5
 42
-1.0
 53
90.0
  3
ME10_DIM_26
100
AcDbAlignedDimension
 13
5644.075063372177
 23
367.1234609605479
 33
0.0
 14
5663.402337328106
 24
331.1234609605479
 34
0.0
 50
90.0
100
AcDbRotatedDimension
  0
DIMENSION
  5
278
330
1F
100
AcDbEntity
  8
1
100
AcDbDimension
  2
*D20
 10
5680.74769373369
 20
367.1234609605478
 30
0.0
 11
5675.24769373369
 21
328.660420184998
 31
0.0
 70
    32
  1
<>)
 71
     5
 42
-1.0
 53
90.0
  3
ME10_DIM_27
100
AcDbAlignedDimension
 13
5645.825069535965
 23
294.123460960548
 33
0.0
 14
5644.075063372177
 24
367.1234609605479
 34
0.0
 50
90.0
100
AcDbRotatedDimension
  0
DIMENSION
  5
283
330
1F
100
AcDbEntity
  8
1
100
AcDbDimension
  2
*D21
 10
5559.6760307258
 20
331.1234609605478
 30
0.0
 11
5554.1760307258
 21
349.793821327637
 31
0.0
 70
    32
  1
<>
 71
     5
 42
-1.0
 53
90.0
  3
ME10_DIM_28
100
AcDbAlignedDimension
 13
5589.616133383696
 23
368.123460960548
 33
0.0
 14
5599.616133383696
 24
331.1234609605479
 34
0.0
 50
90.0
100
AcDbRotatedDimension
  0
DIMENSION
  5
28E
330
1F
100
AcDbEntity
  8
1
100
AcDbDimension
  2
*D22
 10
5413.32248173368
 20
331.1234609605478
 30
0.0
 11
5407.82248173368
 21
352.343774716679
 31
0.0
 70
    32
  1
<>
 71
     5
 42
-1.0
 53
90.0
  3
ME10_DIM_29
100
AcDbAlignedDimension
 13
5428.529935621223
 23
367.1234609605479
 33
0.0
 14
5431.766793052168
 24
331.1234609605479
 34
0.0
 50
90.0
100
AcDbRotatedDimension
  0
DIMENSION
  5
29B
330
1F
100
AcDbEntity
  8
1
100
AcDbDimension
  2
*D23
 10
5599.616133383696
 20
312.93219457405
 30
0.0
 11
5581.17338269317
 21
320.43219457405
 31
0.0
 70
    32
  1
<>)
 71
     5
 42
-1.0
 53
0.00013888888889
  3
ME10_DIM_30
100
AcDbAlignedDimension
 13
5593.616133383696
 23
330.1234609605479
 33
0.0
 14
5599.616133383696
 24
331.1234609605479
 34
0.0
100
AcDbRotatedDimension
  0
DIMENSION
  5
2A6
330
1F
100
AcDbEntity
  8
1
100
AcDbDimension
  2
*D24
 10
5663.79772424825
 20
330.1234609605479
 30
0.0
 11
5656.29772424825
 21
310.550231885532
 31
0.0
 70
    32
  1
<>
 71
     5
 42
-1.0
 53
90.0
  3
ME10_DIM_31
100
AcDbAlignedDimension
 13
5645.825069535965
 23
294.123460960548
 33
0.0
 14
5662.836158863352
 24
330.1234609605479
 34
0.0
 50
90.0
100
AcDbRotatedDimension
  0
INSERT
  5
2AD
330
1F
100
AcDbEntity
  8
1
100
AcDbBlockReference
  2
*D25
 10
0.0
 20
0.0
 30
0.0
  0
INSERT
  5
2B4
330
1F
100
AcDbEntity
  8
1
100
AcDbBlockReference
  2
*D26
 10
0.0
 20
0.0
 30
0.0
  0
INSERT
  5
2BB
330
1F
100
AcDbEntity
  8
1
100
AcDbBlockReference
  2
*D27
 10
0.0
 20
0.0
 30
0.0
  0
INSERT
  5
2C2
330
1F
100
AcDbEntity
  8
1
100
AcDbBlockReference
  2
*D28
 10
0.0
 20
0.0
 30
0.0
  0
INSERT
  5
2C9
330
1F
100
AcDbEntity
  8
1
100
AcDbBlockReference
  2
*D29
 10
0.0
 20
0.0
 30
0.0
  0
INSERT
  5
2D1
330
1F
100
AcDbEntity
  8
1
100
AcDbBlockReference
  2
*D30
 10
0.0
 20
0.0
 30
0.0
  0
INSERT
  5
2D9
330
1F
100
AcDbEntity
  8
1
100
AcDbBlockReference
  2
*D31
 10
0.0
 20
0.0
 30
0.0
  0
INSERT
  5
2E1
330
1F
100
AcDbEntity
  8
1
100
AcDbBlockReference
  2
*D32
 10
0.0
 20
0.0
 30
0.0
  0
INSERT
  5
2E9
330
1F
100
AcDbEntity
  8
1
100
AcDbBlockReference
  2
*D33
 10
0.0
 20
0.0
 30
0.0
  0
INSERT
  5
2F1
330
1F
100
AcDbEntity
  8
1
100
AcDbBlockReference
  2
*D34
 10
0.0
 20
0.0
 30
0.0
  0
INSERT
  5
2F9
330
1F
100
AcDbEntity
  8
1
100
AcDbBlockReference
  2
*D35
 10
0.0
 20
0.0
 30
0.0
  0
ENDSEC
  0
SECTION
  2
OBJECTS
  0
DICTIONARY
  5
C
330
0
100
AcDbDictionary
281
     1
  3
ACAD_DETAILVIEWSTYLE
350
335
  3
ACAD_GROUP
350
D
  3
ACAD_LAYOUT
350
1A
  3
ACAD_MATERIAL
350
43
  3
ACAD_MLEADERSTYLE
350
334
  3
ACAD_MLINESTYLE
350
17
  3
ACAD_PLOTSETTINGS
350
19
  3
ACAD_PLOTSTYLENAME
350
E
  3
ACAD_SCALELIST
350
47
  3
ACAD_SECTIONVIEWSTYLE
350
336
  3
ACAD_TABLESTYLE
350
333
  3
ACAD_VISUALSTYLE
350
2A
  3
AcDbVariableDictionary
350
2FA
  0
DICTIONARY
  5
335
102
{ACAD_REACTORS
330
C
102
}
330
C
100
AcDbDictionary
281
     1
  0
DICTIONARY
  5
D
102
{ACAD_REACTORS
330
C
102
}
330
C
100
AcDbDictionary
281
     1
  0
DICTIONARY
  5
1A
102
{ACAD_REACTORS
330
C
102
}
330
C
100
AcDbDictionary
281
     1
  3
Layout1
350
1E
  3
Layout2
350
26
  3
Model
350
22
  0
DICTIONARY
  5
43
102
{ACAD_REACTORS
330
C
102
}
330
C
100
AcDbDictionary
281
     1
  3
ByBlock
350
45
  3
ByLayer
350
44
  3
Global
350
46
  0
DICTIONARY
  5
334
102
{ACAD_REACTORS
330
C
102
}
330
C
100
AcDbDictionary
281
     1
  0
DICTIONARY
  5
17
102
{ACAD_REACTORS
330
C
102
}
330
C
100
AcDbDictionary
281
     1
  3
Standard
350
18
  0
DICTIONARY
  5
19
102
{ACAD_REACTORS
330
C
102
}
330
C
100
AcDbDictionary
281
     1
  0
ACDBDICTIONARYWDFLT
  5
E
102
{ACAD_REACTORS
330
C
102
}
330
C
100
AcDbDictionary
281
     1
  3
Normal
350
F
100
AcDbDictionaryWithDefault
340
F
  0
DICTIONARY
  5
47
102
{ACAD_REACTORS
330
C
102
}
330
C
100
AcDbDictionary
281
     1
  3
A0
350
48
  3
A1
350
49
  3
A2
350
4A
  3
A3
350
4B
  3
A4
350
4C
  3
A5
350
4D
  3
A6
350
4E
  3
A7
350
4F
  3
A8
350
50
  3
A9
350
51
  3
B0
350
52
  3
B1
350
53
  3
B2
350
54
  3
B3
350
55
  3
B4
350
56
  3
B5
350
57
  3
B6
350
58
  3
B7
350
59
  3
B8
350
5A
  3
B9
350
5B
  3
C0
350
5C
  3
C1
350
5D
  3
C2
350
5E
  3
C3
350
5F
  3
C4
350
60
  3
C5
350
61
  3
C6
350
62
  3
C7
350
63
  3
C8
350
64
  3
C9
350
65
  3
D0
350
66
  3
D1
350
67
  3
D2
350
68
  0
DICTIONARY
  5
336
102
{ACAD_REACTORS
330
C
102
}
330
C
100
AcDbDictionary
281
     1
  0
DICTIONARY
  5
333
102
{ACAD_REACTORS
330
C
102
}
330
C
100
AcDbDictionary
281
     1
  0
DICTIONARY
  5
2A
102
{ACAD_REACTORS
330
C
102
}
330
C
100
AcDbDictionary
281
     1
  3
2dWireframe
350
2F
  3
Basic
350
32
  3
Brighten
350
36
  3
ColorChange
350
3A
  3
Conceptual
350
34
  3
Dim
350
35
  3
EdgeColorOff
350
3D
  3
Facepattern
350
39
  3
Flat
350
2B
  3
FlatWithEdges
350
2C
  3
Gouraud
350
2D
  3
GouraudWithEdges
350
2E
  3
Hidden
350
31
  3
JitterOff
350
3B
  3
Linepattern
350
38
  3
OverhangOff
350
3C
  3
Realistic
350
33
  3
Shaded
350
42
  3
Shaded with edges
350
41
  3
Shades of Gray
350
3E
  3
Sketchy
350
3F
  3
Thicken
350
37
  3
Wireframe
350
30
  3
X-Ray
350
40
  0
DICTIONARY
  5
2FA
102
{ACAD_REACTORS
330
C
102
}
330
C
100
AcDbDictionary
281
     1
  3
CANNOSCALE
350
2FB
  3
MSLTSCALE
350
2FC
  0
LAYOUT
  5
1E
102
{ACAD_REACTORS
330
1A
102
}
330
1A
100
AcDbPlotSettings
  1

  2
none_device
  4

  6

 40
0.0
 41
0.0
 42
0.0
 43
0.0
 44
0.0
 45
0.0
 46
0.0
 47
0.0
 48
0.0
 49
0.0
140
0.0
141
0.0
142
1.0
143
1.0
 70
   688
 72
     0
 73
     0
 74
     5
  7

 75
    16
 76
     0
 77
     2
 78
   300
147
1.0
148
0.0
149
0.0
100
AcDbLayout
  1
Layout1
 70
     1
 71
     1
 10
0.0
 20
0.0
 11
12.0
 21
9.0
 12
0.0
 22
0.0
 32
0.0
 14
1.00000000000000E+20
 24
1.00000000000000E+20
 34
1.00000000000000E+20
 15
-1.00000000000000E+20
 25
-1.00000000000000E+20
 35
-1.00000000000000E+20
146
0.0
 13
0.0
 23
0.0
 33
0.0
 16
1.0
 26
0.0
 36
0.0
 17
0.0
 27
1.0
 37
0.0
 76
     0
330
1B
  0
LAYOUT
  5
26
102
{ACAD_REACTORS
330
1A
102
}
330
1A
100
AcDbPlotSettings
  1

  2
none_device
  4

  6

 40
0.0
 41
0.0
 42
0.0
 43
0.0
 44
0.0
 45
0.0
 46
0.0
 47
0.0
 48
0.0
 49
0.0
140
0.0
141
0.0
142
1.0
143
1.0
 70
   688
 72
     0
 73
     0
 74
     5
  7

 75
    16
 76
     0
 77
     2
 78
   300
147
1.0
148
0.0
149
0.0
100
AcDbLayout
  1
Layout2
 70
     1
 71
     2
 10
0.0
 20
0.0
 11
0.0
 21
0.0
 12
0.0
 22
0.0
 32
0.0
 14
0.0
 24
0.0
 34
0.0
 15
0.0
 25
0.0
 35
0.0
146
0.0
 13
0.0
 23
0.0
 33
0.0
 16
1.0
 26
0.0
 36
0.0
 17
0.0
 27
1.0
 37
0.0
 76
     0
330
23
  0
LAYOUT
  5
22
102
{ACAD_REACTORS
330
1A
102
}
330
1A
100
AcDbPlotSettings
  1

  2
none_device
  4
Letter_(8.50_x_11.00_Inches)
  6

 40
6.35
 41
6.35
 42
6.35000508
 43
6.35000508
 44
215.9
 45
279.4
 46
0.0
 47
0.0
 48
0.0
 49
0.0
140
0.0
141
0.0
142
1.0
143
1.0
 70
  1712
 72
     0
 73
     0
 74
     0
  7

 75
     0
 76
     0
 77
     2
 78
   300
147
1.0
148
0.0
149
0.0
100
AcDbLayout
  1
Model
 70
     1
 71
     0
 10
0.0
 20
0.0
 11
12.0
 21
9.0
 12
0.0
 22
0.0
 32
0.0
 14
5005.59742840558
 24
-100.552406188968
 34
0.0
 15
5825.59742840558
 25
471.447593811032
 35
0.0
146
0.0
 13
0.0
 23
0.0
 33
0.0
 16
1.0
 26
0.0
 36
0.0
 17
0.0
 27
1.0
 37
0.0
 76
     0
330
1F
331
29
  0
MATERIAL
  5
45
102
{ACAD_REACTORS
330
43
102
}
102
{ACAD_XDICTIONARY
360
32F
102
}
330
43
100
AcDbMaterial
  1
ByBlock
  0
MATERIAL
  5
44
102
{ACAD_REACTORS
330
43
102
}
102
{ACAD_XDICTIONARY
360
32D
102
}
330
43
100
AcDbMaterial
  1
ByLayer
  0
MATERIAL
  5
46
102
{ACAD_REACTORS
330
43
102
}
102
{ACAD_XDICTIONARY
360
331
102
}
330
43
100
AcDbMaterial
  1
Global
  0
MLINESTYLE
  5
18
102
{ACAD_REACTORS
330
17
102
}
330
17
100
AcDbMlineStyle
  2
Standard
 70
     0
  3

 62
   256
 51
90.0
 52
90.0
 71
     2
 49
0.5
 62
   256
  6
BYLAYER
 49
-0.5
 62
   256
  6
BYLAYER
  0
ACDBPLACEHOLDER
  5
F
102
{ACAD_REACTORS
330
E
102
}
330
E
  0
SCALE
  5
48
102
{ACAD_REACTORS
330
47
102
}
330
47
100
AcDbScale
 70
     0
300
1:1
140
1.0
141
1.0
290
     1
  0
SCALE
  5
49
102
{ACAD_REACTORS
330
47
102
}
330
47
100
AcDbScale
 70
     0
300
1:2
140
1.0
141
2.0
290
     0
  0
SCALE
  5
4A
102
{ACAD_REACTORS
330
47
102
}
330
47
100
AcDbScale
 70
     0
300
1:4
140
1.0
141
4.0
290
     0
  0
SCALE
  5
4B
102
{ACAD_REACTORS
330
47
102
}
330
47
100
AcDbScale
 70
     0
300
1:5
140
1.0
141
5.0
290
     0
  0
SCALE
  5
4C
102
{ACAD_REACTORS
330
47
102
}
330
47
100
AcDbScale
 70
     0
300
1:8
140
1.0
141
8.0
290
     0
  0
SCALE
  5
4D
102
{ACAD_REACTORS
330
47
102
}
330
47
100
AcDbScale
 70
     0
300
1:10
140
1.0
141
10.0
290
     0
  0
SCALE
  5
4E
102
{ACAD_REACTORS
330
47
102
}
330
47
100
AcDbScale
 70
     0
300
1:16
140
1.0
141
16.0
290
     0
  0
SCALE
  5
4F
102
{ACAD_REACTORS
330
47
102
}
330
47
100
AcDbScale
 70
     0
300
1:20
140
1.0
141
20.0
290
     0
  0
SCALE
  5
50
102
{ACAD_REACTORS
330
47
102
}
330
47
100
AcDbScale
 70
     0
300
1:30
140
1.0
141
30.0
290
     0
  0
SCALE
  5
51
102
{ACAD_REACTORS
330
47
102
}
330
47
100
AcDbScale
 70
     0
300
1:40
140
1.0
141
40.0
290
     0
  0
SCALE
  5
52
102
{ACAD_REACTORS
330
47
102
}
330
47
100
AcDbScale
 70
     0
300
1:50
140
1.0
141
50.0
290
     0
  0
SCALE
  5
53
102
{ACAD_REACTORS
330
47
102
}
330
47
100
AcDbScale
 70
     0
300
1:100
140
1.0
141
100.0
290
     0
  0
SCALE
  5
54
102
{ACAD_REACTORS
330
47
102
}
330
47
100
AcDbScale
 70
     0
300
2:1
140
2.0
141
1.0
290
     0
  0
SCALE
  5
55
102
{ACAD_REACTORS
330
47
102
}
330
47
100
AcDbScale
 70
     0
300
4:1
140
4.0
141
1.0
290
     0
  0
SCALE
  5
56
102
{ACAD_REACTORS
330
47
102
}
330
47
100
AcDbScale
 70
     0
300
8:1
140
8.0
141
1.0
290
     0
  0
SCALE
  5
57
102
{ACAD_REACTORS
330
47
102
}
330
47
100
AcDbScale
 70
     0
300
10:1
140
10.0
141
1.0
290
     0
  0
SCALE
  5
58
102
{ACAD_REACTORS
330
47
102
}
330
47
100
AcDbScale
 70
     0
300
100:1
140
100.0
141
1.0
290
     0
  0
SCALE
  5
59
102
{ACAD_REACTORS
330
47
102
}
330
47
100
AcDbScale
 70
     0
300
1/128" = 1'-0"
140
0.0078125
141
12.0
290
     0
  0
SCALE
  5
5A
102
{ACAD_REACTORS
330
47
102
}
330
47
100
AcDbScale
 70
     0
300
1/64" = 1'-0"
140
0.015625
141
12.0
290
     0
  0
SCALE
  5
5B
102
{ACAD_REACTORS
330
47
102
}
330
47
100
AcDbScale
 70
     0
300
1/32" = 1'-0"
140
0.03125
141
12.0
290
     0
  0
SCALE
  5
5C
102
{ACAD_REACTORS
330
47
102
}
330
47
100
AcDbScale
 70
     0
300
1/16" = 1'-0"
140
0.0625
141
12.0
290
     0
  0
SCALE
  5
5D
102
{ACAD_REACTORS
330
47
102
}
330
47
100
AcDbScale
 70
     0
300
3/32" = 1'-0"
140
0.09375
141
12.0
290
     0
  0
SCALE
  5
5E
102
{ACAD_REACTORS
330
47
102
}
330
47
100
AcDbScale
 70
     0
300
1/8" = 1'-0"
140
0.125
141
12.0
290
     0
  0
SCALE
  5
5F
102
{ACAD_REACTORS
330
47
102
}
330
47
100
AcDbScale
 70
     0
300
3/16" = 1'-0"
140
0.1875
141
12.0
290
     0
  0
SCALE
  5
60
102
{ACAD_REACTORS
330
47
102
}
330
47
100
AcDbScale
 70
     0
300
1/4" = 1'-0"
140
0.25
141
12.0
290
     0
  0
SCALE
  5
61
102
{ACAD_REACTORS
330
47
102
}
330
47
100
AcDbScale
 70
     0
300
3/8" = 1'-0"
140
0.375
141
12.0
290
     0
  0
SCALE
  5
62
102
{ACAD_REACTORS
330
47
102
}
330
47
100
AcDbScale
 70
     0
300
1/2" = 1'-0"
140
0.5
141
12.0
290
     0
  0
SCALE
  5
63
102
{ACAD_REACTORS
330
47
102
}
330
47
100
AcDbScale
 70
     0
300
3/4" = 1'-0"
140
0.75
141
12.0
290
     0
  0
SCALE
  5
64
102
{ACAD_REACTORS
330
47
102
}
330
47
100
AcDbScale
 70
     0
300
1" = 1'-0"
140
1.0
141
12.0
290
     0
  0
SCALE
  5
65
102
{ACAD_REACTORS
330
47
102
}
330
47
100
AcDbScale
 70
     0
300
1-1/2" = 1'-0"
140
1.5
141
12.0
290
     0
  0
SCALE
  5
66
102
{ACAD_REACTORS
330
47
102
}
330
47
100
AcDbScale
 70
     0
300
3" = 1'-0"
140
3.0
141
12.0
290
     0
  0
SCALE
  5
67
102
{ACAD_REACTORS
330
47
102
}
330
47
100
AcDbScale
 70
     0
300
6" = 1'-0"
140
6.0
141
12.0
290
     0
  0
SCALE
  5
68
102
{ACAD_REACTORS
330
47
102
}
330
47
100
AcDbScale
 70
     0
300
1'-0" = 1'-0"
140
12.0
141
12.0
290
     0
  0
VISUALSTYLE
  5
2F
102
{ACAD_REACTORS
330
2A
102
}
102
{ACAD_XDICTIONARY
360
305
102
}
330
2A
100
AcDbVisualStyle
  2
2dWireframe
 70
     4
 71
     0
 72
     2
 73
     0
 90
        0
 40
0.6
 41
30.0
 62
     5
 63
     7
421
 16777215
 74
     1
 91
        4
 64
     7
 65
   257
 75
     1
175
     1
 42
1.0
 92
        0
 66
   257
 43
1.0
 76
     1
 77
     6
 78
     2
 67
     7
 79
     5
170
     0
171
     0
290
     0
174
     0
 93
        1
 44
0.0
173
     0
291
     0
 45
0.0
1001
ACAD
1000
AcDbSavedByObjectVersion
1070
     0
  0
VISUALSTYLE
  5
32
102
{ACAD_REACTORS
330
2A
102
}
102
{ACAD_XDICTIONARY
360
30B
102
}
330
2A
100
AcDbVisualStyle
  2
Basic
 70
     7
 71
     1
 72
     0
 73
     1
 90
        0
 40
0.6
 41
30.0
 62
     5
 63
     7
421
 16777215
 74
     0
 91
        4
 64
     7
 65
   257
 75
     1
175
     1
 42
1.0
 92
        8
 66
     7
 43
1.0
 76
     1
 77
     6
 78
     2
 67
     7
 79
     5
170
     0
171
     0
290
     0
174
     0
 93
        1
 44
0.0
173
     0
291
     1
 45
0.0
1001
ACAD
1000
AcDbSavedByObjectVersion
1070
     0
  0
VISUALSTYLE
  5
36
102
{ACAD_REACTORS
330
2A
102
}
102
{ACAD_XDICTIONARY
360
313
102
}
330
2A
100
AcDbVisualStyle
  2
Brighten
 70
    12
 71
     2
 72
     2
 73
     0
 90
        0
 40
0.6
 41
30.0
 62
     5
 63
     7
421
 16777215
 74
     1
 91
        4
 64
     7
 65
   257
 75
     1
175
     1
 42
1.0
 92
        8
 66
     7
 43
1.0
 76
     1
 77
     6
 78
     2
 67
     7
 79
     5
170
     0
171
     0
290
     0
174
     0
 93
        1
 44
50.0
173
     0
291
     1
 45
0.0
1001
ACAD
1000
AcDbSavedByObjectVersion
1070
     0
  0
VISUALSTYLE
  5
3A
102
{ACAD_REACTORS
330
2A
102
}
102
{ACAD_XDICTIONARY
360
31B
102
}
330
2A
100
AcDbVisualStyle
  2
ColorChange
 70
    16
 71
     2
 72
     2
 73
     3
 90
        0
 40
0.6
 41
30.0
 62
     5
 63
     8
421
  8421504
 74
     1
 91
        4
 64
     7
 65
   257
 75
     1
175
     1
 42
1.0
 92
        8
 66
     8
424
  8421504
 43
1.0
 76
     1
 77
     6
 78
     2
 67
     7
 79
     5
170
     0
171
     0
290
     0
174
     0
 93
        1
 44
0.0
173
     0
291
     1
 45
0.0
1001
ACAD
1000
AcDbSavedByObjectVersion
1070
     0
  0
VISUALSTYLE
  5
34
102
{ACAD_REACTORS
330
2A
102
}
102
{ACAD_XDICTIONARY
360
30F
102
}
330
2A
100
AcDbVisualStyle
  2
Conceptual
 70
     9
 71
     3
 72
     2
 73
     0
 90
        0
 40
0.6
 41
30.0
 62
     5
 63
     7
421
 16777215
 74
     2
 91
        2
 64
     7
 65
   257
 75
     1
175
     1
 42
179.0
 92
        8
 66
     7
 43
1.0
 76
     1
 77
     6
 78
     2
 67
     7
 79
     3
170
     0
171
     0
290
     0
174
     0
 93
        1
 44
0.0
173
     0
291
     0
 45
0.0
1001
ACAD
1000
AcDbSavedByObjectVersion
1070
     0
  0
VISUALSTYLE
  5
35
102
{ACAD_REACTORS
330
2A
102
}
102
{ACAD_XDICTIONARY
360
311
102
}
330
2A
100
AcDbVisualStyle
  2
Dim
 70
    11
 71
     2
 72
     2
 73
     0
 90
        0
 40
0.6
 41
30.0
 62
     5
 63
     7
421
 16777215
 74
     1
 91
        4
 64
     7
 65
   257
 75
     1
175
     1
 42
1.0
 92
        8
 66
     7
 43
1.0
 76
     1
 77
     6
 78
     2
 67
     7
 79
     5
170
     0
171
     0
290
     0
174
     0
 93
        1
 44
-50.0
173
     0
291
     1
 45
0.0
1001
ACAD
1000
AcDbSavedByObjectVersion
1070
     0
  0
VISUALSTYLE
  5
3D
102
{ACAD_REACTORS
330
2A
102
}
102
{ACAD_XDICTIONARY
360
321
102
}
330
2A
100
AcDbVisualStyle
  2
EdgeColorOff
 70
    22
 71
     2
 72
     2
 73
     0
 90
        0
 40
0.6
 41
30.0
 62
     5
 63
     7
421
 16777215
 74
     1
 91
        4
 64
     7
 65
   257
 75
     1
175
     1
 42
1.0
 92
        8
 66
     7
 43
1.0
 76
     1
 77
     6
 78
     2
 67
     7
 79
     5
170
     0
171
     0
290
     0
174
     0
 93
        1
 44
0.0
173
     0
291
     1
 45
0.0
1001
ACAD
1000
AcDbSavedByObjectVersion
1070
     0
  0
VISUALSTYLE
  5
39
102
{ACAD_REACTORS
330
2A
102
}
102
{ACAD_XDICTIONARY
360
319
102
}
330
2A
100
AcDbVisualStyle
  2
Facepattern
 70
    15
 71
     2
 72
     2
 73
     0
 90
        0
 40
0.6
 41
30.0
 62
     5
 63
     7
421
 16777215
 74
     1
 91
        4
 64
     7
 65
   257
 75
     1
175
     1
 42
1.0
 92
        8
 66
     7
 43
1.0
 76
     1
 77
     6
 78
     2
 67
     7
 79
     5
170
     0
171
     0
290
     0
174
     0
 93
        1
 44
0.0
173
     0
291
     1
 45
0.0
1001
ACAD
1000
AcDbSavedByObjectVersion
1070
     0
  0
VISUALSTYLE
  5
2B
102
{ACAD_REACTORS
330
2A
102
}
102
{ACAD_XDICTIONARY
360
2FD
102
}
330
2A
100
AcDbVisualStyle
  2
Flat
 70
     0
 71
     2
 72
     1
 73
     1
 90
        2
 40
0.6
 41
30.0
 62
     5
 63
     7
421
 16777215
 74
     0
 91
        0
 64
     7
 65
   257
 75
     1
175
     1
 42
1.0
 92
        8
 66
     7
 43
1.0
 76
     1
 77
     6
 78
     2
 67
     7
 79
     5
170
     0
171
     0
290
     0
174
     0
 93
       13
 44
0.0
173
     0
291
     1
 45
0.0
1001
ACAD
1000
AcDbSavedByObjectVersion
1070
     0
  0
VISUALSTYLE
  5
2C
102
{ACAD_REACTORS
330
2A
102
}
102
{ACAD_XDICTIONARY
360
2FF
102
}
330
2A
100
AcDbVisualStyle
  2
FlatWithEdges
 70
     1
 71
     2
 72
     1
 73
     1
 90
        2
 40
0.6
 41
30.0
 62
     5
 63
     7
421
 16777215
 74
     1
 91
        0
 64
     7
 65
   257
 75
     1
175
     1
 42
1.0
 92
        0
 66
   257
 43
1.0
 76
     1
 77
     6
 78
     2
 67
     7
 79
     5
170
     0
171
     0
290
     0
174
     0
 93
       13
 44
0.0
173
     0
291
     1
 45
0.0
1001
ACAD
1000
AcDbSavedByObjectVersion
1070
     0
  0
VISUALSTYLE
  5
2D
102
{ACAD_REACTORS
330
2A
102
}
102
{ACAD_XDICTIONARY
360
301
102
}
330
2A
100
AcDbVisualStyle
  2
Gouraud
 70
     2
 71
     2
 72
     2
 73
     1
 90
        2
 40
0.6
 41
30.0
 62
     5
 63
     7
421
 16777215
 74
     0
 91
        0
 64
     7
 65
   257
 75
     1
175
     1
 42
1.0
 92
        0
 66
     7
 43
1.0
 76
     1
 77
     6
 78
     2
 67
     7
 79
     5
170
     0
171
     0
290
     0
174
     0
 93
       13
 44
0.0
173
     0
291
     1
 45
0.0
1001
ACAD
1000
AcDbSavedByObjectVersion
1070
     0
  0
VISUALSTYLE
  5
2E
102
{ACAD_REACTORS
330
2A
102
}
102
{ACAD_XDICTIONARY
360
303
102
}
330
2A
100
AcDbVisualStyle
  2
GouraudWithEdges
 70
     3
 71
     2
 72
     2
 73
     1
 90
        2
 40
0.6
 41
30.0
 62
     5
 63
     7
421
 16777215
 74
     1
 91
        0
 64
     7
 65
   257
 75
     1
175
     1
 42
1.0
 92
        0
 66
   257
 43
1.0
 76
     1
 77
     6
 78
     2
 67
     7
 79
     5
170
     0
171
     0
290
     0
174
     0
 93
       13
 44
0.0
173
     0
291
     1
 45
0.0
1001
ACAD
1000
AcDbSavedByObjectVersion
1070
     0
  0
VISUALSTYLE
  5
31
102
{ACAD_REACTORS
330
2A
102
}
102
{ACAD_XDICTIONARY
360
309
102
}
330
2A
100
AcDbVisualStyle
  2
Hidden
 70
     6
 71
     1
 72
     2
 73
     2
 90
        0
 40
0.6
 41
30.0
 62
     5
 63
     7
421
 16777215
 74
     2
 91
        2
 64
     7
 65
   257
 75
     2
175
     1
 42
40.0
 92
        0
 66
   257
 43
1.0
 76
     1
 77
     6
 78
     2
 67
     7
 79
     3
170
     0
171
     0
290
     0
174
     0
 93
        1
 44
0.0
173
     0
291
     0
 45
0.0
1001
ACAD
1000
AcDbSavedByObjectVersion
1070
     0
  0
VISUALSTYLE
  5
3B
102
{ACAD_REACTORS
330
2A
102
}
102
{ACAD_XDICTIONARY
360
31D
102
}
330
2A
100
AcDbVisualStyle
  2
JitterOff
 70
    20
 71
     2
 72
     2
 73
     0
 90
        0
 40
0.6
 41
30.0
 62
     5
 63
     7
421
 16777215
 74
     1
 91
        4
 64
     7
 65
   257
 75
     1
175
     1
 42
1.0
 92
       10
 66
     7
 43
1.0
 76
     1
 77
     6
 78
     2
 67
     7
 79
     5
170
     0
171
     0
290
     0
174
     0
 93
        1
 44
0.0
173
     0
291
     1
 45
0.0
1001
ACAD
1000
AcDbSavedByObjectVersion
1070
     0
  0
VISUALSTYLE
  5
38
102
{ACAD_REACTORS
330
2A
102
}
102
{ACAD_XDICTIONARY
360
317
102
}
330
2A
100
AcDbVisualStyle
  2
Linepattern
 70
    14
 71
     2
 72
     2
 73
     0
 90
        0
 40
0.6
 41
30.0
 62
     5
 63
     7
421
 16777215
 74
     1
 91
        4
 64
     7
 65
   257
 75
     7
175
     7
 42
1.0
 92
        8
 66
     7
 43
1.0
 76
     1
 77
     6
 78
     2
 67
     7
 79
     5
170
     0
171
     0
290
     0
174
     0
 93
        1
 44
0.0
173
     0
291
     1
 45
0.0
1001
ACAD
1000
AcDbSavedByObjectVersion
1070
     0
  0
VISUALSTYLE
  5
3C
102
{ACAD_REACTORS
330
2A
102
}
102
{ACAD_XDICTIONARY
360
31F
102
}
330
2A
100
AcDbVisualStyle
  2
OverhangOff
 70
    21
 71
     2
 72
     2
 73
     0
 90
        0
 40
0.6
 41
30.0
 62
     5
 63
     7
421
 16777215
 74
     1
 91
        4
 64
     7
 65
   257
 75
     1
175
     1
 42
1.0
 92
        9
 66
     7
 43
1.0
 76
     1
 77
     6
 78
     2
 67
     7
 79
     5
170
     0
171
     0
290
     0
174
     0
 93
        1
 44
0.0
173
     0
291
     1
 45
0.0
1001
ACAD
1000
AcDbSavedByObjectVersion
1070
     0
  0
VISUALSTYLE
  5
33
102
{ACAD_REACTORS
330
2A
102
}
102
{ACAD_XDICTIONARY
360
30D
102
}
330
2A
100
AcDbVisualStyle
  2
Realistic
 70
     8
 71
     2
 72
     3
 73
     0
 90
        2
 40
0.6
 41
30.0
 62
     5
 63
     7
421
 16777215
 74
     0
 91
        0
 64
     7
 65
   257
 75
     1
175
     1
 42
1.0
 92
        8
 66
   257
 43
1.0
 76
     1
 77
     6
 78
     2
 67
     7
 79
     3
170
     0
171
     0
290
     0
174
     0
 93
       13
 44
0.0
173
     0
291
     0
 45
0.0
1001
ACAD
1000
AcDbSavedByObjectVersion
1070
     0
  0
VISUALSTYLE
  5
42
102
{ACAD_REACTORS
330
2A
102
}
102
{ACAD_XDICTIONARY
360
32B
102
}
330
2A
100
AcDbVisualStyle
  2
Shaded
 70
    27
 71
     2
 72
     2
 73
     1
 90
        2
 40
0.6
 41
30.0
 62
     5
 63
     7
421
 16777215
 74
     0
 91
        4
 64
     7
 65
   257
 75
     1
175
     1
 42
1.0
 92
        8
 66
   257
 43
1.0
 76
     1
 77
     6
 78
     2
 67
     8
425
  7895160
 79
     3
170
     0
171
     0
290
     0
174
     0
 93
        5
 44
0.0
173
     0
291
     0
 45
0.0
1001
ACAD
1000
AcDbSavedByObjectVersion
1070
     0
  0
VISUALSTYLE
  5
41
102
{ACAD_REACTORS
330
2A
102
}
102
{ACAD_XDICTIONARY
360
329
102
}
330
2A
100
AcDbVisualStyle
  2
Shaded with edges
 70
    26
 71
     2
 72
     2
 73
     1
 90
        2
 40
0.6
 41
30.0
 62
     5
 63
     7
421
 16777215
 74
     1
 91
       10
 64
     7
 65
   257
 75
     2
175
     1
 42
1.0
 92
        8
 66
   257
 43
1.0
 76
     1
 77
     6
 78
     2
 67
     7
 79
     3
170
     0
171
     0
290
     0
174
     0
 93
        5
 44
0.0
173
     0
291
     0
 45
0.0
1001
ACAD
1000
AcDbSavedByObjectVersion
1070
     0
  0
VISUALSTYLE
  5
3E
102
{ACAD_REACTORS
330
2A
102
}
102
{ACAD_XDICTIONARY
360
323
102
}
330
2A
100
AcDbVisualStyle
  2
Shades of Gray
 70
    23
 71
     2
 72
     2
 73
     3
 90
        0
 40
0.6
 41
30.0
 62
     5
 63
     7
421
 16777215
 74
     2
 91
        2
 64
     7
 65
     7
 75
     1
175
     1
 42
40.0
 92
        8
 66
     7
 43
1.0
 76
     1
 77
     6
 78
     2
 67
     7
 79
     3
170
     0
171
     0
290
     0
174
     0
 93
        1
 44
0.0
173
     0
291
     0
 45
0.0
1001
ACAD
1000
AcDbSavedByObjectVersion
1070
     0
  0
VISUALSTYLE
  5
3F
102
{ACAD_REACTORS
330
2A
102
}
102
{ACAD_XDICTIONARY
360
325
102
}
330
2A
100
AcDbVisualStyle
  2
Sketchy
 70
    24
 71
     1
 72
     2
 73
     2
 90
        0
 40
0.6
 41
30.0
 62
     5
 63
     7
421
 16777215
 74
     2
 91
        2
 64
     7
 65
     7
 75
     1
175
     1
 42
40.0
 92
       11
 66
     7
 43
1.0
 76
     1
 77
     6
 78
     2
 67
     7
 79
     6
170
     0
171
     0
290
     0
174
     0
 93
        1
 44
0.0
173
     0
291
     0
 45
0.0
1001
ACAD
1000
AcDbSavedByObjectVersion
1070
     0
  0
VISUALSTYLE
  5
37
102
{ACAD_REACTORS
330
2A
102
}
102
{ACAD_XDICTIONARY
360
315
102
}
330
2A
100
AcDbVisualStyle
  2
Thicken
 70
    13
 71
     2
 72
     2
 73
     0
 90
        0
 40
0.6
 41
30.0
 62
     5
 63
     7
421
 16777215
 74
     1
 91
        4
 64
     7
 65
   257
 75
     1
175
     1
 42
1.0
 92
       12
 66
     7
 43
1.0
 76
     1
 77
     6
 78
     2
 67
     7
 79
     5
170
     0
171
     0
290
     0
174
     0
 93
        1
 44
0.0
173
     0
291
     1
 45
0.0
1001
ACAD
1000
AcDbSavedByObjectVersion
1070
     0
  0
VISUALSTYLE
  5
30
102
{ACAD_REACTORS
330
2A
102
}
102
{ACAD_XDICTIONARY
360
307
102
}
330
2A
100
AcDbVisualStyle
  2
Wireframe
 70
     5
 71
     0
 72
     2
 73
     0
 90
        0
 40
0.6
 41
30.0
 62
     5
 63
     7
421
 16777215
 74
     1
 91
        4
 64
     7
 65
   257
 75
     1
175
     1
 42
1.0
 92
        0
 66
   257
 43
1.0
 76
     1
 77
     6
 78
     2
 67
     7
 79
     3
170
     0
171
     0
290
     0
174
     0
 93
        1
 44
0.0
173
     0
291
     0
 45
0.0
1001
ACAD
1000
AcDbSavedByObjectVersion
1070
     0
  0
VISUALSTYLE
  5
40
102
{ACAD_REACTORS
330
2A
102
}
102
{ACAD_XDICTIONARY
360
327
102
}
330
2A
100
AcDbVisualStyle
  2
X-Ray
 70
    25
 71
     2
 72
     2
 73
     1
 90
        1
 40
0.5
 41
30.0
 62
     5
 63
     7
421
 16777215
 74
     1
 91
        0
 64
     7
 65
   257
 75
     1
175
     1
 42
1.0
 92
        8
 66
     7
 43
1.0
 76
     1
 77
     6
 78
     2
 67
     7
 79
     3
170
     0
171
     0
290
     0
174
     0
 93
       13
 44
0.0
173
     0
291
     0
 45
0.0
1001
ACAD
1000
AcDbSavedByObjectVersion
1070
     0
  0
DICTIONARYVAR
  5
2FB
102
{ACAD_REACTORS
330
2FA
102
}
330
2FA
100
DictionaryVariables
280
     0
  1
1:1
  0
DICTIONARYVAR
  5
2FC
102
{ACAD_REACTORS
330
2FA
102
}
330
2FA
100
DictionaryVariables
280
     0
  1
1
  0
DICTIONARY
  5
32F
330
45
100
AcDbDictionary
280
     1
281
     1
  3
ACAD_XREC_ROUNDTRIP
360
330
  0
DICTIONARY
  5
32D
330
44
100
AcDbDictionary
280
     1
281
     1
  3
ACAD_XREC_ROUNDTRIP
360
32E
  0
DICTIONARY
  5
331
330
46
100
AcDbDictionary
280
     1
281
     1
  3
ACAD_XREC_ROUNDTRIP
360
332
  0
DICTIONARY
  5
305
330
2F
100
AcDbDictionary
280
     1
281
     1
  3
ACAD_XREC_ROUNDTRIP
360
306
  0
DICTIONARY
  5
30B
330
32
100
AcDbDictionary
280
     1
281
     1
  3
ACAD_XREC_ROUNDTRIP
360
30C
  0
DICTIONARY
  5
313
330
36
100
AcDbDictionary
280
     1
281
     1
  3
ACAD_XREC_ROUNDTRIP
360
314
  0
DICTIONARY
  5
31B
330
3A
100
AcDbDictionary
280
     1
281
     1
  3
ACAD_XREC_ROUNDTRIP
360
31C
  0
DICTIONARY
  5
30F
330
34
100
AcDbDictionary
280
     1
281
     1
  3
ACAD_XREC_ROUNDTRIP
360
310
  0
DICTIONARY
  5
311
330
35
100
AcDbDictionary
280
     1
281
     1
  3
ACAD_XREC_ROUNDTRIP
360
312
  0
DICTIONARY
  5
321
330
3D
100
AcDbDictionary
280
     1
281
     1
  3
ACAD_XREC_ROUNDTRIP
360
322
  0
DICTIONARY
  5
319
330
39
100
AcDbDictionary
280
     1
281
     1
  3
ACAD_XREC_ROUNDTRIP
360
31A
  0
DICTIONARY
  5
2FD
330
2B
100
AcDbDictionary
280
     1
281
     1
  3
ACAD_XREC_ROUNDTRIP
360
2FE
  0
DICTIONARY
  5
2FF
330
2C
100
AcDbDictionary
280
     1
281
     1
  3
ACAD_XREC_ROUNDTRIP
360
300
  0
DICTIONARY
  5
301
330
2D
100
AcDbDictionary
280
     1
281
     1
  3
ACAD_XREC_ROUNDTRIP
360
302
  0
DICTIONARY
  5
303
330
2E
100
AcDbDictionary
280
     1
281
     1
  3
ACAD_XREC_ROUNDTRIP
360
304
  0
DICTIONARY
  5
309
330
31
100
AcDbDictionary
280
     1
281
     1
  3
ACAD_XREC_ROUNDTRIP
360
30A
  0
DICTIONARY
  5
31D
330
3B
100
AcDbDictionary
280
     1
281
     1
  3
ACAD_XREC_ROUNDTRIP
360
31E
  0
DICTIONARY
  5
317
330
38
100
AcDbDictionary
280
     1
281
     1
  3
ACAD_XREC_ROUNDTRIP
360
318
  0
DICTIONARY
  5
31F
330
3C
100
AcDbDictionary
280
     1
281
     1
  3
ACAD_XREC_ROUNDTRIP
360
320
  0
DICTIONARY
  5
30D
330
33
100
AcDbDictionary
280
     1
281
     1
  3
ACAD_XREC_ROUNDTRIP
360
30E
  0
DICTIONARY
  5
32B
330
42
100
AcDbDictionary
280
     1
281
     1
  3
ACAD_XREC_ROUNDTRIP
360
32C
  0
DICTIONARY
  5
329
330
41
100
AcDbDictionary
280
     1
281
     1
  3
ACAD_XREC_ROUNDTRIP
360
32A
  0
DICTIONARY
  5
323
330
3E
100
AcDbDictionary
280
     1
281
     1
  3
ACAD_XREC_ROUNDTRIP
360
324
  0
DICTIONARY
  5
325
330
3F
100
AcDbDictionary
280
     1
281
     1
  3
ACAD_XREC_ROUNDTRIP
360
326
  0
DICTIONARY
  5
315
330
37
100
AcDbDictionary
280
     1
281
     1
  3
ACAD_XREC_ROUNDTRIP
360
316
  0
DICTIONARY
  5
307
330
30
100
AcDbDictionary
280
     1
281
     1
  3
ACAD_XREC_ROUNDTRIP
360
308
  0
DICTIONARY
  5
327
330
40
100
AcDbDictionary
280
     1
281
     1
  3
ACAD_XREC_ROUNDTRIP
360
328
  0
XRECORD
  5
330
102
{ACAD_REACTORS
330
32F
102
}
330
32F
100
AcDbXrecord
280
     1
102
MATERIAL
148
0.0
149
0.0
149
0.0
 93
        0
 94
      127
282
     0
 72
     1
 77
     1
171
     1
175
     1
179
     1
273
     0
  0
XRECORD
  5
32E
102
{ACAD_REACTORS
330
32D
102
}
330
32D
100
AcDbXrecord
280
     1
102
MATERIAL
148
0.0
149
0.0
149
0.0
 93
        0
 94
      127
282
     0
 72
     1
 77
     1
171
     1
175
     1
179
     1
273
     0
  0
XRECORD
  5
332
102
{ACAD_REACTORS
330
331
102
}
330
331
100
AcDbXrecord
280
     1
102
MATERIAL
148
0.0
149
0.0
149
0.0
 93
        0
 94
      127
282
     0
 72
     1
 77
     1
171
     1
175
     1
179
     1
273
     0
  0
XRECORD
  5
306
102
{ACAD_REACTORS
330
305
102
}
330
305
100
AcDbXrecord
280
     1
102
RTVSPropertyOp0
 70
     1
102
RTVSPropertyOp1
 70
     1
102
RTVSPropertyOp2
 70
     1
102
RTVSPropertyOp3
 70
     1
102
RTVSPropertyOp4
 70
     1
102
RTVSPropertyOp5
 70
     1
102
RTVSPropertyOp6
 70
     1
102
RTVSPropertyOp7
 70
     1
102
RTVSPropertyOp8
 70
     1
102
RTVSPropertyOp9
 70
     1
102
RTVSPropertyOp10
 70
     1
102
RTVSPropertyOp11
 70
     1
102
RTVSPropertyOp12
 70
     1
102
RTVSPropertyOp13
 70
     1
102
RTVSPropertyOp14
 70
     1
102
RTVSPropertyOp15
 70
     1
102
RTVSPropertyOp16
 70
     1
102
RTVSPropertyOp17
 70
     1
102
RTVSPropertyOp18
 70
     1
102
RTVSPropertyOp19
 70
     1
102
RTVSPropertyOp20
 70
     1
102
RTVSPropertyOp21
 70
     1
102
RTVSPropertyOp22
 70
     1
102
RTVSPropertyOp23
 70
     1
102
RTVSPropertyOp24
 70
     1
102
RTVSPropertyOp25
 70
     1
102
RTVSPropertyOp26
 70
     1
102
RTVSPropertyOp27
 70
     1
102
RTVSPropertyOp28
 70
     1
102
RTVSPropertyOp29
 70
     1
102
RTVSPropertyOp30
 70
     1
102
RTVSPropertyOp31
 70
     1
102
RTVSPropertyOp32
 70
     1
102
RTVSPropertyOp33
 70
     1
102
RTVSPropertyOp34
 70
     1
102
RTVSPropertyOp35
 70
     1
102
RTVSPropertyOp36
 70
     1
102
RTVSPropertyOp37
 70
     1
102
RTVSPropertyOp38
 70
     1
102
RTVSPropertyOp39
 70
     1
102
RTVSPropertyOp40
 70
     1
102
RTVSPropertyOp41
 70
     1
102
RTVSPropertyOp42
 70
     1
102
RTVSPropertyOp43
 70
     1
102
RTVSPropertyOp44
 70
     1
102
RTVSPropertyOp45
 70
     1
102
RTVSPropertyOp46
 70
     1
102
RTVSPropertyOp47
 70
     1
102
RTVSPropertyOp48
 70
     1
102
RTVSPropertyOp49
 70
     1
102
RTVSPropertyOp50
 70
     1
102
RTVSPropertyOp51
 70
     0
102
RTVSPropertyOp52
 70
     0
102
RTVSPropertyOp53
 70
     1
102
RTVSPropertyOp54
 70
     1
102
RTVSPropertyOp55
 70
     1
102
RTVSPropertyOp56
 70
     1
102
RTVSPropertyOp57
 70
     1
102
RTVSPost2010Prop28
280
     1
102
RTVSPost2010PropOp28
 70
     1
102
RTVSPost2010Prop29
280
     1
102
RTVSPost2010PropOp29
 70
     1
102
RTVSPost2010Prop30
280
     0
102
RTVSPost2010PropOp30
 70
     1
102
RTVSPost2010Prop31
280
     0
102
RTVSPost2010PropOp31
 70
     1
102
RTVSPost2010Prop32
280
     0
102
RTVSPost2010PropOp32
 70
     1
102
RTVSPost2010Prop33
280
     0
102
RTVSPost2010PropOp33
 70
     1
102
RTVSPost2010Prop34
280
     0
102
RTVSPost2010PropOp34
 70
     1
102
RTVSPost2010Prop35
280
     0
102
RTVSPost2010PropOp35
 70
     1
102
RTVSPost2010Prop36
280
     0
102
RTVSPost2010PropOp36
 70
     1
102
RTVSPost2010Prop37
 90
       50
102
RTVSPost2010PropOp37
 70
     1
102
RTVSPost2010Prop38
140
0.0
102
RTVSPost2010PropOp38
 70
     1
102
RTVSPost2010Prop39
140
1.0
102
RTVSPost2010PropOp39
 70
     1
102
RTVSPost2010Prop40
 90
        0
102
RTVSPost2010PropOp40
 70
     1
102
RTVSPost2010Prop41ColorIndex
 90
       18
102
RTVSPost2010Prop41ColorRGB
 90
        0
102
RTVSPost2010PropOp41
 70
     1
102
RTVSPost2010Prop42
 90
       50
102
RTVSPost2010PropOp42
 70
     1
102
RTVSPost2010Prop43
 90
        3
102
RTVSPost2010PropOp43
 70
     1
102
RTVSPost2010Prop44ColorIndex
 90
        5
102
RTVSPost2010Prop44ColorRGB
 90
      255
102
RTVSPost2010PropOp44
 70
     1
102
RTVSPost2010Prop45
280
     0
102
RTVSPost2010PropOp45
 70
     1
102
RTVSPost2010Prop46
 90
       50
102
RTVSPost2010PropOp46
 70
     1
102
RTVSPost2010Prop47
 90
       50
102
RTVSPost2010PropOp47
 70
     1
102
RTVSPost2010Prop48
 90
       50
102
RTVSPost2010PropOp48
 70
     1
102
RTVSPost2010Prop49
280
     0
102
RTVSPost2010PropOp49
 70
     1
102
RTVSPost2010Prop50
 90
       50
102
RTVSPost2010PropOp50
 70
     1
102
RTVSPost2010Prop51ColorIndex
 90
      256
102
RTVSPost2010Prop51ColorRGB
 90
-16777216
102
RTVSPost2010PropOp51
 70
     0
102
RTVSPost2010Prop52
140
1.0
102
RTVSPost2010PropOp52
 70
     0
102
RTVSPost2010Prop53
 90
        2
102
RTVSPost2010PropOp53
 70
     1
102
RTVSPost2010Prop54
  1
strokes_ogs.tif
102
RTVSPost2010PropOp54
 70
     1
102
RTVSPost2010Prop55
280
     0
102
RTVSPost2010PropOp55
 70
     1
102
RTVSPost2010Prop56
140
1.0
102
RTVSPost2010PropOp56
 70
     1
102
RTVSPost2010Prop57
140
1.0
102
RTVSPost2010PropOp57
 70
     1
  0
XRECORD
  5
30C
102
{ACAD_REACTORS
330
30B
102
}
330
30B
100
AcDbXrecord
280
     1
102
RTVSPropertyOp0
 70
     1
102
RTVSPropertyOp1
 70
     1
102
RTVSPropertyOp2
 70
     1
102
RTVSPropertyOp3
 70
     1
102
RTVSPropertyOp4
 70
     1
102
RTVSPropertyOp5
 70
     1
102
RTVSPropertyOp6
 70
     1
102
RTVSPropertyOp7
 70
     1
102
RTVSPropertyOp8
 70
     1
102
RTVSPropertyOp9
 70
     1
102
RTVSPropertyOp10
 70
     1
102
RTVSPropertyOp11
 70
     1
102
RTVSPropertyOp12
 70
     1
102
RTVSPropertyOp13
 70
     1
102
RTVSPropertyOp14
 70
     1
102
RTVSPropertyOp15
 70
     1
102
RTVSPropertyOp16
 70
     1
102
RTVSPropertyOp17
 70
     1
102
RTVSPropertyOp18
 70
     1
102
RTVSPropertyOp19
 70
     1
102
RTVSPropertyOp20
 70
     1
102
RTVSPropertyOp21
 70
     1
102
RTVSPropertyOp22
 70
     1
102
RTVSPropertyOp23
 70
     1
102
RTVSPropertyOp24
 70
     1
102
RTVSPropertyOp25
 70
     1
102
RTVSPropertyOp26
 70
     1
102
RTVSPropertyOp27
 70
     1
102
RTVSPropertyOp28
 70
     1
102
RTVSPropertyOp29
 70
     1
102
RTVSPropertyOp30
 70
     1
102
RTVSPropertyOp31
 70
     1
102
RTVSPropertyOp32
 70
     1
102
RTVSPropertyOp33
 70
     1
102
RTVSPropertyOp34
 70
     1
102
RTVSPropertyOp35
 70
     1
102
RTVSPropertyOp36
 70
     1
102
RTVSPropertyOp37
 70
     1
102
RTVSPropertyOp38
 70
     1
102
RTVSPropertyOp39
 70
     1
102
RTVSPropertyOp40
 70
     1
102
RTVSPropertyOp41
 70
     1
102
RTVSPropertyOp42
 70
     1
102
RTVSPropertyOp43
 70
     1
102
RTVSPropertyOp44
 70
     1
102
RTVSPropertyOp45
 70
     1
102
RTVSPropertyOp46
 70
     1
102
RTVSPropertyOp47
 70
     1
102
RTVSPropertyOp48
 70
     1
102
RTVSPropertyOp49
 70
     1
102
RTVSPropertyOp50
 70
     1
102
RTVSPropertyOp51
 70
     0
102
RTVSPropertyOp52
 70
     0
102
RTVSPropertyOp53
 70
     1
102
RTVSPropertyOp54
 70
     1
102
RTVSPropertyOp55
 70
     1
102
RTVSPropertyOp56
 70
     1
102
RTVSPropertyOp57
 70
     1
102
RTVSPost2010Prop28
280
     0
102
RTVSPost2010PropOp28
 70
     1
102
RTVSPost2010Prop29
280
     1
102
RTVSPost2010PropOp29
 70
     1
102
RTVSPost2010Prop30
280
     1
102
RTVSPost2010PropOp30
 70
     1
102
RTVSPost2010Prop31
280
     0
102
RTVSPost2010PropOp31
 70
     1
102
RTVSPost2010Prop32
280
     0
102
RTVSPost2010PropOp32
 70
     1
102
RTVSPost2010Prop33
280
     0
102
RTVSPost2010PropOp33
 70
     1
102
RTVSPost2010Prop34
280
     0
102
RTVSPost2010PropOp34
 70
     1
102
RTVSPost2010Prop35
280
     0
102
RTVSPost2010PropOp35
 70
     1
102
RTVSPost2010Prop36
280
     0
102
RTVSPost2010PropOp36
 70
     1
102
RTVSPost2010Prop37
 90
       50
102
RTVSPost2010PropOp37
 70
     1
102
RTVSPost2010Prop38
140
0.0
102
RTVSPost2010PropOp38
 70
     1
102
RTVSPost2010Prop39
140
1.0
102
RTVSPost2010PropOp39
 70
     1
102
RTVSPost2010Prop40
 90
        0
102
RTVSPost2010PropOp40
 70
     1
102
RTVSPost2010Prop41ColorIndex
 90
       18
102
RTVSPost2010Prop41ColorRGB
 90
        0
102
RTVSPost2010PropOp41
 70
     1
102
RTVSPost2010Prop42
 90
       50
102
RTVSPost2010PropOp42
 70
     1
102
RTVSPost2010Prop43
 90
        3
102
RTVSPost2010PropOp43
 70
     1
102
RTVSPost2010Prop44ColorIndex
 90
        5
102
RTVSPost2010Prop44ColorRGB
 90
      255
102
RTVSPost2010PropOp44
 70
     1
102
RTVSPost2010Prop45
280
     0
102
RTVSPost2010PropOp45
 70
     1
102
RTVSPost2010Prop46
 90
       50
102
RTVSPost2010PropOp46
 70
     1
102
RTVSPost2010Prop47
 90
       50
102
RTVSPost2010PropOp47
 70
     1
102
RTVSPost2010Prop48
 90
       50
102
RTVSPost2010PropOp48
 70
     1
102
RTVSPost2010Prop49
280
     0
102
RTVSPost2010PropOp49
 70
     1
102
RTVSPost2010Prop50
 90
       50
102
RTVSPost2010PropOp50
 70
     1
102
RTVSPost2010Prop51ColorIndex
 90
      256
102
RTVSPost2010Prop51ColorRGB
 90
-16777216
102
RTVSPost2010PropOp51
 70
     0
102
RTVSPost2010Prop52
140
1.0
102
RTVSPost2010PropOp52
 70
     0
102
RTVSPost2010Prop53
 90
        2
102
RTVSPost2010PropOp53
 70
     1
102
RTVSPost2010Prop54
  1
strokes_ogs.tif
102
RTVSPost2010PropOp54
 70
     1
102
RTVSPost2010Prop55
280
     0
102
RTVSPost2010PropOp55
 70
     1
102
RTVSPost2010Prop56
140
1.0
102
RTVSPost2010PropOp56
 70
     1
102
RTVSPost2010Prop57
140
1.0
102
RTVSPost2010PropOp57
 70
     1
  0
XRECORD
  5
314
102
{ACAD_REACTORS
330
313
102
}
330
313
100
AcDbXrecord
280
     1
102
RTVSPropertyOp0
 70
     1
102
RTVSPropertyOp1
 70
     1
102
RTVSPropertyOp2
 70
     1
102
RTVSPropertyOp3
 70
     1
102
RTVSPropertyOp4
 70
     1
102
RTVSPropertyOp5
 70
     1
102
RTVSPropertyOp6
 70
     1
102
RTVSPropertyOp7
 70
     1
102
RTVSPropertyOp8
 70
     1
102
RTVSPropertyOp9
 70
     1
102
RTVSPropertyOp10
 70
     1
102
RTVSPropertyOp11
 70
     1
102
RTVSPropertyOp12
 70
     1
102
RTVSPropertyOp13
 70
     1
102
RTVSPropertyOp14
 70
     1
102
RTVSPropertyOp15
 70
     1
102
RTVSPropertyOp16
 70
     1
102
RTVSPropertyOp17
 70
     1
102
RTVSPropertyOp18
 70
     1
102
RTVSPropertyOp19
 70
     1
102
RTVSPropertyOp20
 70
     1
102
RTVSPropertyOp21
 70
     1
102
RTVSPropertyOp22
 70
     1
102
RTVSPropertyOp23
 70
     1
102
RTVSPropertyOp24
 70
     1
102
RTVSPropertyOp25
 70
     1
102
RTVSPropertyOp26
 70
     1
102
RTVSPropertyOp27
 70
     1
102
RTVSPropertyOp28
 70
     1
102
RTVSPropertyOp29
 70
     1
102
RTVSPropertyOp30
 70
     1
102
RTVSPropertyOp31
 70
     1
102
RTVSPropertyOp32
 70
     1
102
RTVSPropertyOp33
 70
     1
102
RTVSPropertyOp34
 70
     1
102
RTVSPropertyOp35
 70
     1
102
RTVSPropertyOp36
 70
     1
102
RTVSPropertyOp37
 70
     1
102
RTVSPropertyOp38
 70
     1
102
RTVSPropertyOp39
 70
     1
102
RTVSPropertyOp40
 70
     1
102
RTVSPropertyOp41
 70
     1
102
RTVSPropertyOp42
 70
     1
102
RTVSPropertyOp43
 70
     1
102
RTVSPropertyOp44
 70
     1
102
RTVSPropertyOp45
 70
     1
102
RTVSPropertyOp46
 70
     1
102
RTVSPropertyOp47
 70
     1
102
RTVSPropertyOp48
 70
     1
102
RTVSPropertyOp49
 70
     1
102
RTVSPropertyOp50
 70
     1
102
RTVSPropertyOp51
 70
     0
102
RTVSPropertyOp52
 70
     0
102
RTVSPropertyOp53
 70
     1
102
RTVSPropertyOp54
 70
     1
102
RTVSPropertyOp55
 70
     1
102
RTVSPropertyOp56
 70
     1
102
RTVSPropertyOp57
 70
     1
102
RTVSPost2010Prop28
280
     0
102
RTVSPost2010PropOp28
 70
     1
102
RTVSPost2010Prop29
280
     1
102
RTVSPost2010PropOp29
 70
     1
102
RTVSPost2010Prop30
280
     1
102
RTVSPost2010PropOp30
 70
     1
102
RTVSPost2010Prop31
280
     0
102
RTVSPost2010PropOp31
 70
     1
102
RTVSPost2010Prop32
280
     0
102
RTVSPost2010PropOp32
 70
     1
102
RTVSPost2010Prop33
280
     0
102
RTVSPost2010PropOp33
 70
     1
102
RTVSPost2010Prop34
280
     0
102
RTVSPost2010PropOp34
 70
     1
102
RTVSPost2010Prop35
280
     0
102
RTVSPost2010PropOp35
 70
     1
102
RTVSPost2010Prop36
280
     0
102
RTVSPost2010PropOp36
 70
     1
102
RTVSPost2010Prop37
 90
       50
102
RTVSPost2010PropOp37
 70
     1
102
RTVSPost2010Prop38
140
0.0
102
RTVSPost2010PropOp38
 70
     1
102
RTVSPost2010Prop39
140
1.0
102
RTVSPost2010PropOp39
 70
     1
102
RTVSPost2010Prop40
 90
        0
102
RTVSPost2010PropOp40
 70
     1
102
RTVSPost2010Prop41ColorIndex
 90
       18
102
RTVSPost2010Prop41ColorRGB
 90
        0
102
RTVSPost2010PropOp41
 70
     1
102
RTVSPost2010Prop42
 90
       50
102
RTVSPost2010PropOp42
 70
     1
102
RTVSPost2010Prop43
 90
        3
102
RTVSPost2010PropOp43
 70
     1
102
RTVSPost2010Prop44ColorIndex
 90
        5
102
RTVSPost2010Prop44ColorRGB
 90
      255
102
RTVSPost2010PropOp44
 70
     1
102
RTVSPost2010Prop45
280
     0
102
RTVSPost2010PropOp45
 70
     1
102
RTVSPost2010Prop46
 90
       50
102
RTVSPost2010PropOp46
 70
     1
102
RTVSPost2010Prop47
 90
       50
102
RTVSPost2010PropOp47
 70
     1
102
RTVSPost2010Prop48
 90
       50
102
RTVSPost2010PropOp48
 70
     1
102
RTVSPost2010Prop49
280
     0
102
RTVSPost2010PropOp49
 70
     1
102
RTVSPost2010Prop50
 90
       50
102
RTVSPost2010PropOp50
 70
     1
102
RTVSPost2010Prop51ColorIndex
 90
      256
102
RTVSPost2010Prop51ColorRGB
 90
-16777216
102
RTVSPost2010PropOp51
 70
     0
102
RTVSPost2010Prop52
140
1.0
102
RTVSPost2010PropOp52
 70
     0
102
RTVSPost2010Prop53
 90
        2
102
RTVSPost2010PropOp53
 70
     1
102
RTVSPost2010Prop54
  1
strokes_ogs.tif
102
RTVSPost2010PropOp54
 70
     1
102
RTVSPost2010Prop55
280
     0
102
RTVSPost2010PropOp55
 70
     1
102
RTVSPost2010Prop56
140
1.0
102
RTVSPost2010PropOp56
 70
     1
102
RTVSPost2010Prop57
140
1.0
102
RTVSPost2010PropOp57
 70
     1
  0
XRECORD
  5
31C
102
{ACAD_REACTORS
330
31B
102
}
330
31B
100
AcDbXrecord
280
     1
102
RTVSPropertyOp0
 70
     1
102
RTVSPropertyOp1
 70
     1
102
RTVSPropertyOp2
 70
     1
102
RTVSPropertyOp3
 70
     1
102
RTVSPropertyOp4
 70
     1
102
RTVSPropertyOp5
 70
     1
102
RTVSPropertyOp6
 70
     1
102
RTVSPropertyOp7
 70
     1
102
RTVSPropertyOp8
 70
     1
102
RTVSPropertyOp9
 70
     1
102
RTVSPropertyOp10
 70
     1
102
RTVSPropertyOp11
 70
     1
102
RTVSPropertyOp12
 70
     1
102
RTVSPropertyOp13
 70
     1
102
RTVSPropertyOp14
 70
     1
102
RTVSPropertyOp15
 70
     1
102
RTVSPropertyOp16
 70
     1
102
RTVSPropertyOp17
 70
     1
102
RTVSPropertyOp18
 70
     1
102
RTVSPropertyOp19
 70
     1
102
RTVSPropertyOp20
 70
     1
102
RTVSPropertyOp21
 70
     1
102
RTVSPropertyOp22
 70
     1
102
RTVSPropertyOp23
 70
     1
102
RTVSPropertyOp24
 70
     1
102
RTVSPropertyOp25
 70
     1
102
RTVSPropertyOp26
 70
     1
102
RTVSPropertyOp27
 70
     1
102
RTVSPropertyOp28
 70
     1
102
RTVSPropertyOp29
 70
     1
102
RTVSPropertyOp30
 70
     1
102
RTVSPropertyOp31
 70
     1
102
RTVSPropertyOp32
 70
     1
102
RTVSPropertyOp33
 70
     1
102
RTVSPropertyOp34
 70
     1
102
RTVSPropertyOp35
 70
     1
102
RTVSPropertyOp36
 70
     1
102
RTVSPropertyOp37
 70
     1
102
RTVSPropertyOp38
 70
     1
102
RTVSPropertyOp39
 70
     1
102
RTVSPropertyOp40
 70
     1
102
RTVSPropertyOp41
 70
     1
102
RTVSPropertyOp42
 70
     1
102
RTVSPropertyOp43
 70
     1
102
RTVSPropertyOp44
 70
     1
102
RTVSPropertyOp45
 70
     1
102
RTVSPropertyOp46
 70
     1
102
RTVSPropertyOp47
 70
     1
102
RTVSPropertyOp48
 70
     1
102
RTVSPropertyOp49
 70
     1
102
RTVSPropertyOp50
 70
     1
102
RTVSPropertyOp51
 70
     0
102
RTVSPropertyOp52
 70
     0
102
RTVSPropertyOp53
 70
     1
102
RTVSPropertyOp54
 70
     1
102
RTVSPropertyOp55
 70
     1
102
RTVSPropertyOp56
 70
     1
102
RTVSPropertyOp57
 70
     1
102
RTVSPost2010Prop28
280
     0
102
RTVSPost2010PropOp28
 70
     1
102
RTVSPost2010Prop29
280
     1
102
RTVSPost2010PropOp29
 70
     1
102
RTVSPost2010Prop30
280
     1
102
RTVSPost2010PropOp30
 70
     1
102
RTVSPost2010Prop31
280
     0
102
RTVSPost2010PropOp31
 70
     1
102
RTVSPost2010Prop32
280
     0
102
RTVSPost2010PropOp32
 70
     1
102
RTVSPost2010Prop33
280
     0
102
RTVSPost2010PropOp33
 70
     1
102
RTVSPost2010Prop34
280
     0
102
RTVSPost2010PropOp34
 70
     1
102
RTVSPost2010Prop35
280
     0
102
RTVSPost2010PropOp35
 70
     1
102
RTVSPost2010Prop36
280
     0
102
RTVSPost2010PropOp36
 70
     1
102
RTVSPost2010Prop37
 90
       50
102
RTVSPost2010PropOp37
 70
     1
102
RTVSPost2010Prop38
140
0.0
102
RTVSPost2010PropOp38
 70
     1
102
RTVSPost2010Prop39
140
1.0
102
RTVSPost2010PropOp39
 70
     1
102
RTVSPost2010Prop40
 90
        0
102
RTVSPost2010PropOp40
 70
     1
102
RTVSPost2010Prop41ColorIndex
 90
       18
102
RTVSPost2010Prop41ColorRGB
 90
        0
102
RTVSPost2010PropOp41
 70
     1
102
RTVSPost2010Prop42
 90
       50
102
RTVSPost2010PropOp42
 70
     1
102
RTVSPost2010Prop43
 90
        3
102
RTVSPost2010PropOp43
 70
     1
102
RTVSPost2010Prop44ColorIndex
 90
        5
102
RTVSPost2010Prop44ColorRGB
 90
      255
102
RTVSPost2010PropOp44
 70
     1
102
RTVSPost2010Prop45
280
     0
102
RTVSPost2010PropOp45
 70
     1
102
RTVSPost2010Prop46
 90
       50
102
RTVSPost2010PropOp46
 70
     1
102
RTVSPost2010Prop47
 90
       50
102
RTVSPost2010PropOp47
 70
     1
102
RTVSPost2010Prop48
 90
       50
102
RTVSPost2010PropOp48
 70
     1
102
RTVSPost2010Prop49
280
     0
102
RTVSPost2010PropOp49
 70
     1
102
RTVSPost2010Prop50
 90
       50
102
RTVSPost2010PropOp50
 70
     1
102
RTVSPost2010Prop51ColorIndex
 90
      256
102
RTVSPost2010Prop51ColorRGB
 90
-16777216
102
RTVSPost2010PropOp51
 70
     0
102
RTVSPost2010Prop52
140
1.0
102
RTVSPost2010PropOp52
 70
     0
102
RTVSPost2010Prop53
 90
        2
102
RTVSPost2010PropOp53
 70
     1
102
RTVSPost2010Prop54
  1
strokes_ogs.tif
102
RTVSPost2010PropOp54
 70
     1
102
RTVSPost2010Prop55
280
     0
102
RTVSPost2010PropOp55
 70
     1
102
RTVSPost2010Prop56
140
1.0
102
RTVSPost2010PropOp56
 70
     1
102
RTVSPost2010Prop57
140
1.0
102
RTVSPost2010PropOp57
 70
     1
  0
XRECORD
  5
310
102
{ACAD_REACTORS
330
30F
102
}
330
30F
100
AcDbXrecord
280
     1
102
RTVSPropertyOp0
 70
     1
102
RTVSPropertyOp1
 70
     1
102
RTVSPropertyOp2
 70
     1
102
RTVSPropertyOp3
 70
     1
102
RTVSPropertyOp4
 70
     1
102
RTVSPropertyOp5
 70
     1
102
RTVSPropertyOp6
 70
     1
102
RTVSPropertyOp7
 70
     1
102
RTVSPropertyOp8
 70
     1
102
RTVSPropertyOp9
 70
     1
102
RTVSPropertyOp10
 70
     1
102
RTVSPropertyOp11
 70
     1
102
RTVSPropertyOp12
 70
     1
102
RTVSPropertyOp13
 70
     1
102
RTVSPropertyOp14
 70
     1
102
RTVSPropertyOp15
 70
     1
102
RTVSPropertyOp16
 70
     1
102
RTVSPropertyOp17
 70
     1
102
RTVSPropertyOp18
 70
     1
102
RTVSPropertyOp19
 70
     1
102
RTVSPropertyOp20
 70
     1
102
RTVSPropertyOp21
 70
     1
102
RTVSPropertyOp22
 70
     1
102
RTVSPropertyOp23
 70
     1
102
RTVSPropertyOp24
 70
     1
102
RTVSPropertyOp25
 70
     1
102
RTVSPropertyOp26
 70
     1
102
RTVSPropertyOp27
 70
     1
102
RTVSPropertyOp28
 70
     1
102
RTVSPropertyOp29
 70
     1
102
RTVSPropertyOp30
 70
     1
102
RTVSPropertyOp31
 70
     1
102
RTVSPropertyOp32
 70
     1
102
RTVSPropertyOp33
 70
     1
102
RTVSPropertyOp34
 70
     1
102
RTVSPropertyOp35
 70
     1
102
RTVSPropertyOp36
 70
     1
102
RTVSPropertyOp37
 70
     1
102
RTVSPropertyOp38
 70
     1
102
RTVSPropertyOp39
 70
     1
102
RTVSPropertyOp40
 70
     1
102
RTVSPropertyOp41
 70
     1
102
RTVSPropertyOp42
 70
     1
102
RTVSPropertyOp43
 70
     1
102
RTVSPropertyOp44
 70
     1
102
RTVSPropertyOp45
 70
     1
102
RTVSPropertyOp46
 70
     1
102
RTVSPropertyOp47
 70
     1
102
RTVSPropertyOp48
 70
     1
102
RTVSPropertyOp49
 70
     1
102
RTVSPropertyOp50
 70
     1
102
RTVSPropertyOp51
 70
     0
102
RTVSPropertyOp52
 70
     0
102
RTVSPropertyOp53
 70
     1
102
RTVSPropertyOp54
 70
     1
102
RTVSPropertyOp55
 70
     1
102
RTVSPropertyOp56
 70
     1
102
RTVSPropertyOp57
 70
     1
102
RTVSPost2010Prop28
280
     0
102
RTVSPost2010PropOp28
 70
     1
102
RTVSPost2010Prop29
280
     1
102
RTVSPost2010PropOp29
 70
     1
102
RTVSPost2010Prop30
280
     1
102
RTVSPost2010PropOp30
 70
     1
102
RTVSPost2010Prop31
280
     0
102
RTVSPost2010PropOp31
 70
     1
102
RTVSPost2010Prop32
280
     0
102
RTVSPost2010PropOp32
 70
     1
102
RTVSPost2010Prop33
280
     0
102
RTVSPost2010PropOp33
 70
     1
102
RTVSPost2010Prop34
280
     0
102
RTVSPost2010PropOp34
 70
     1
102
RTVSPost2010Prop35
280
     0
102
RTVSPost2010PropOp35
 70
     1
102
RTVSPost2010Prop36
280
     0
102
RTVSPost2010PropOp36
 70
     1
102
RTVSPost2010Prop37
 90
       50
102
RTVSPost2010PropOp37
 70
     1
102
RTVSPost2010Prop38
140
0.0
102
RTVSPost2010PropOp38
 70
     1
102
RTVSPost2010Prop39
140
1.0
102
RTVSPost2010PropOp39
 70
     1
102
RTVSPost2010Prop40
 90
        0
102
RTVSPost2010PropOp40
 70
     1
102
RTVSPost2010Prop41ColorIndex
 90
       18
102
RTVSPost2010Prop41ColorRGB
 90
        0
102
RTVSPost2010PropOp41
 70
     1
102
RTVSPost2010Prop42
 90
       50
102
RTVSPost2010PropOp42
 70
     1
102
RTVSPost2010Prop43
 90
        3
102
RTVSPost2010PropOp43
 70
     1
102
RTVSPost2010Prop44ColorIndex
 90
        5
102
RTVSPost2010Prop44ColorRGB
 90
      255
102
RTVSPost2010PropOp44
 70
     1
102
RTVSPost2010Prop45
280
     0
102
RTVSPost2010PropOp45
 70
     1
102
RTVSPost2010Prop46
 90
       50
102
RTVSPost2010PropOp46
 70
     1
102
RTVSPost2010Prop47
 90
       50
102
RTVSPost2010PropOp47
 70
     1
102
RTVSPost2010Prop48
 90
       50
102
RTVSPost2010PropOp48
 70
     1
102
RTVSPost2010Prop49
280
     0
102
RTVSPost2010PropOp49
 70
     1
102
RTVSPost2010Prop50
 90
       50
102
RTVSPost2010PropOp50
 70
     1
102
RTVSPost2010Prop51ColorIndex
 90
      256
102
RTVSPost2010Prop51ColorRGB
 90
-16777216
102
RTVSPost2010PropOp51
 70
     0
102
RTVSPost2010Prop52
140
1.0
102
RTVSPost2010PropOp52
 70
     0
102
RTVSPost2010Prop53
 90
        2
102
RTVSPost2010PropOp53
 70
     1
102
RTVSPost2010Prop54
  1
strokes_ogs.tif
102
RTVSPost2010PropOp54
 70
     1
102
RTVSPost2010Prop55
280
     0
102
RTVSPost2010PropOp55
 70
     1
102
RTVSPost2010Prop56
140
1.0
102
RTVSPost2010PropOp56
 70
     1
102
RTVSPost2010Prop57
140
1.0
102
RTVSPost2010PropOp57
 70
     1
  0
XRECORD
  5
312
102
{ACAD_REACTORS
330
311
102
}
330
311
100
AcDbXrecord
280
     1
102
RTVSPropertyOp0
 70
     1
102
RTVSPropertyOp1
 70
     1
102
RTVSPropertyOp2
 70
     1
102
RTVSPropertyOp3
 70
     1
102
RTVSPropertyOp4
 70
     1
102
RTVSPropertyOp5
 70
     1
102
RTVSPropertyOp6
 70
     1
102
RTVSPropertyOp7
 70
     1
102
RTVSPropertyOp8
 70
     1
102
RTVSPropertyOp9
 70
     1
102
RTVSPropertyOp10
 70
     1
102
RTVSPropertyOp11
 70
     1
102
RTVSPropertyOp12
 70
     1
102
RTVSPropertyOp13
 70
     1
102
RTVSPropertyOp14
 70
     1
102
RTVSPropertyOp15
 70
     1
102
RTVSPropertyOp16
 70
     1
102
RTVSPropertyOp17
 70
     1
102
RTVSPropertyOp18
 70
     1
102
RTVSPropertyOp19
 70
     1
102
RTVSPropertyOp20
 70
     1
102
RTVSPropertyOp21
 70
     1
102
RTVSPropertyOp22
 70
     1
102
RTVSPropertyOp23
 70
     1
102
RTVSPropertyOp24
 70
     1
102
RTVSPropertyOp25
 70
     1
102
RTVSPropertyOp26
 70
     1
102
RTVSPropertyOp27
 70
     1
102
RTVSPropertyOp28
 70
     1
102
RTVSPropertyOp29
 70
     1
102
RTVSPropertyOp30
 70
     1
102
RTVSPropertyOp31
 70
     1
102
RTVSPropertyOp32
 70
     1
102
RTVSPropertyOp33
 70
     1
102
RTVSPropertyOp34
 70
     1
102
RTVSPropertyOp35
 70
     1
102
RTVSPropertyOp36
 70
     1
102
RTVSPropertyOp37
 70
     1
102
RTVSPropertyOp38
 70
     1
102
RTVSPropertyOp39
 70
     1
102
RTVSPropertyOp40
 70
     1
102
RTVSPropertyOp41
 70
     1
102
RTVSPropertyOp42
 70
     1
102
RTVSPropertyOp43
 70
     1
102
RTVSPropertyOp44
 70
     1
102
RTVSPropertyOp45
 70
     1
102
RTVSPropertyOp46
 70
     1
102
RTVSPropertyOp47
 70
     1
102
RTVSPropertyOp48
 70
     1
102
RTVSPropertyOp49
 70
     1
102
RTVSPropertyOp50
 70
     1
102
RTVSPropertyOp51
 70
     0
102
RTVSPropertyOp52
 70
     0
102
RTVSPropertyOp53
 70
     1
102
RTVSPropertyOp54
 70
     1
102
RTVSPropertyOp55
 70
     1
102
RTVSPropertyOp56
 70
     1
102
RTVSPropertyOp57
 70
     1
102
RTVSPost2010Prop28
280
     0
102
RTVSPost2010PropOp28
 70
     1
102
RTVSPost2010Prop29
280
     1
102
RTVSPost2010PropOp29
 70
     1
102
RTVSPost2010Prop30
280
     1
102
RTVSPost2010PropOp30
 70
     1
102
RTVSPost2010Prop31
280
     0
102
RTVSPost2010PropOp31
 70
     1
102
RTVSPost2010Prop32
280
     0
102
RTVSPost2010PropOp32
 70
     1
102
RTVSPost2010Prop33
280
     0
102
RTVSPost2010PropOp33
 70
     1
102
RTVSPost2010Prop34
280
     0
102
RTVSPost2010PropOp34
 70
     1
102
RTVSPost2010Prop35
280
     0
102
RTVSPost2010PropOp35
 70
     1
102
RTVSPost2010Prop36
280
     0
102
RTVSPost2010PropOp36
 70
     1
102
RTVSPost2010Prop37
 90
       50
102
RTVSPost2010PropOp37
 70
     1
102
RTVSPost2010Prop38
140
0.0
102
RTVSPost2010PropOp38
 70
     1
102
RTVSPost2010Prop39
140
1.0
102
RTVSPost2010PropOp39
 70
     1
102
RTVSPost2010Prop40
 90
        0
102
RTVSPost2010PropOp40
 70
     1
102
RTVSPost2010Prop41ColorIndex
 90
       18
102
RTVSPost2010Prop41ColorRGB
 90
        0
102
RTVSPost2010PropOp41
 70
     1
102
RTVSPost2010Prop42
 90
       50
102
RTVSPost2010PropOp42
 70
     1
102
RTVSPost2010Prop43
 90
        3
102
RTVSPost2010PropOp43
 70
     1
102
RTVSPost2010Prop44ColorIndex
 90
        5
102
RTVSPost2010Prop44ColorRGB
 90
      255
102
RTVSPost2010PropOp44
 70
     1
102
RTVSPost2010Prop45
280
     0
102
RTVSPost2010PropOp45
 70
     1
102
RTVSPost2010Prop46
 90
       50
102
RTVSPost2010PropOp46
 70
     1
102
RTVSPost2010Prop47
 90
       50
102
RTVSPost2010PropOp47
 70
     1
102
RTVSPost2010Prop48
 90
       50
102
RTVSPost2010PropOp48
 70
     1
102
RTVSPost2010Prop49
280
     0
102
RTVSPost2010PropOp49
 70
     1
102
RTVSPost2010Prop50
 90
       50
102
RTVSPost2010PropOp50
 70
     1
102
RTVSPost2010Prop51ColorIndex
 90
      256
102
RTVSPost2010Prop51ColorRGB
 90
-16777216
102
RTVSPost2010PropOp51
 70
     0
102
RTVSPost2010Prop52
140
1.0
102
RTVSPost2010PropOp52
 70
     0
102
RTVSPost2010Prop53
 90
        2
102
RTVSPost2010PropOp53
 70
     1
102
RTVSPost2010Prop54
  1
strokes_ogs.tif
102
RTVSPost2010PropOp54
 70
     1
102
RTVSPost2010Prop55
280
     0
102
RTVSPost2010PropOp55
 70
     1
102
RTVSPost2010Prop56
140
1.0
102
RTVSPost2010PropOp56
 70
     1
102
RTVSPost2010Prop57
140
1.0
102
RTVSPost2010PropOp57
 70
     1
  0
XRECORD
  5
322
102
{ACAD_REACTORS
330
321
102
}
330
321
100
AcDbXrecord
280
     1
102
RTVSPropertyOp0
 70
     0
102
RTVSPropertyOp1
 70
     0
102
RTVSPropertyOp2
 70
     0
102
RTVSPropertyOp3
 70
     0
102
RTVSPropertyOp4
 70
     0
102
RTVSPropertyOp5
 70
     0
102
RTVSPropertyOp6
 70
     0
102
RTVSPropertyOp7
 70
     0
102
RTVSPropertyOp8
 70
     0
102
RTVSPropertyOp9
 70
     0
102
RTVSPropertyOp10
 70
     0
102
RTVSPropertyOp11
 70
     0
102
RTVSPropertyOp12
 70
     0
102
RTVSPropertyOp13
 70
     0
102
RTVSPropertyOp14
 70
     2
102
RTVSPropertyOp15
 70
     0
102
RTVSPropertyOp16
 70
     0
102
RTVSPropertyOp17
 70
     0
102
RTVSPropertyOp18
 70
     0
102
RTVSPropertyOp19
 70
     0
102
RTVSPropertyOp20
 70
     0
102
RTVSPropertyOp21
 70
     0
102
RTVSPropertyOp22
 70
     0
102
RTVSPropertyOp23
 70
     0
102
RTVSPropertyOp24
 70
     0
102
RTVSPropertyOp25
 70
     0
102
RTVSPropertyOp26
 70
     0
102
RTVSPropertyOp27
 70
     0
102
RTVSPropertyOp28
 70
     0
102
RTVSPropertyOp29
 70
     0
102
RTVSPropertyOp30
 70
     0
102
RTVSPropertyOp31
 70
     0
102
RTVSPropertyOp32
 70
     0
102
RTVSPropertyOp33
 70
     0
102
RTVSPropertyOp34
 70
     0
102
RTVSPropertyOp35
 70
     0
102
RTVSPropertyOp36
 70
     0
102
RTVSPropertyOp37
 70
     0
102
RTVSPropertyOp38
 70
     0
102
RTVSPropertyOp39
 70
     0
102
RTVSPropertyOp40
 70
     0
102
RTVSPropertyOp41
 70
     0
102
RTVSPropertyOp42
 70
     0
102
RTVSPropertyOp43
 70
     0
102
RTVSPropertyOp44
 70
     0
102
RTVSPropertyOp45
 70
     0
102
RTVSPropertyOp46
 70
     0
102
RTVSPropertyOp47
 70
     0
102
RTVSPropertyOp48
 70
     0
102
RTVSPropertyOp49
 70
     0
102
RTVSPropertyOp50
 70
     0
102
RTVSPropertyOp51
 70
     0
102
RTVSPropertyOp52
 70
     0
102
RTVSPropertyOp53
 70
     0
102
RTVSPropertyOp54
 70
     0
102
RTVSPropertyOp55
 70
     0
102
RTVSPropertyOp56
 70
     0
102
RTVSPropertyOp57
 70
     0
102
RTVSPost2010Prop28
280
     0
102
RTVSPost2010PropOp28
 70
     0
102
RTVSPost2010Prop29
280
     1
102
RTVSPost2010PropOp29
 70
     0
102
RTVSPost2010Prop30
280
     1
102
RTVSPost2010PropOp30
 70
     0
102
RTVSPost2010Prop31
280
     0
102
RTVSPost2010PropOp31
 70
     0
102
RTVSPost2010Prop32
280
     0
102
RTVSPost2010PropOp32
 70
     0
102
RTVSPost2010Prop33
280
     0
102
RTVSPost2010PropOp33
 70
     0
102
RTVSPost2010Prop34
280
     0
102
RTVSPost2010PropOp34
 70
     0
102
RTVSPost2010Prop35
280
     0
102
RTVSPost2010PropOp35
 70
     0
102
RTVSPost2010Prop36
280
     0
102
RTVSPost2010PropOp36
 70
     0
102
RTVSPost2010Prop37
 90
       50
102
RTVSPost2010PropOp37
 70
     0
102
RTVSPost2010Prop38
140
0.0
102
RTVSPost2010PropOp38
 70
     0
102
RTVSPost2010Prop39
140
1.0
102
RTVSPost2010PropOp39
 70
     0
102
RTVSPost2010Prop40
 90
        0
102
RTVSPost2010PropOp40
 70
     0
102
RTVSPost2010Prop41ColorIndex
 90
       18
102
RTVSPost2010Prop41ColorRGB
 90
        0
102
RTVSPost2010PropOp41
 70
     0
102
RTVSPost2010Prop42
 90
       50
102
RTVSPost2010PropOp42
 70
     0
102
RTVSPost2010Prop43
 90
        3
102
RTVSPost2010PropOp43
 70
     0
102
RTVSPost2010Prop44ColorIndex
 90
        5
102
RTVSPost2010Prop44ColorRGB
 90
      255
102
RTVSPost2010PropOp44
 70
     0
102
RTVSPost2010Prop45
280
     0
102
RTVSPost2010PropOp45
 70
     0
102
RTVSPost2010Prop46
 90
       50
102
RTVSPost2010PropOp46
 70
     0
102
RTVSPost2010Prop47
 90
       50
102
RTVSPost2010PropOp47
 70
     0
102
RTVSPost2010Prop48
 90
       50
102
RTVSPost2010PropOp48
 70
     0
102
RTVSPost2010Prop49
280
     0
102
RTVSPost2010PropOp49
 70
     0
102
RTVSPost2010Prop50
 90
       50
102
RTVSPost2010PropOp50
 70
     0
102
RTVSPost2010Prop51ColorIndex
 90
      256
102
RTVSPost2010Prop51ColorRGB
 90
-16777216
102
RTVSPost2010PropOp51
 70
     0
102
RTVSPost2010Prop52
140
1.0
102
RTVSPost2010PropOp52
 70
     0
102
RTVSPost2010Prop53
 90
        2
102
RTVSPost2010PropOp53
 70
     0
102
RTVSPost2010Prop54
  1
strokes_ogs.tif
102
RTVSPost2010PropOp54
 70
     0
102
RTVSPost2010Prop55
280
     0
102
RTVSPost2010PropOp55
 70
     0
102
RTVSPost2010Prop56
140
1.0
102
RTVSPost2010PropOp56
 70
     0
102
RTVSPost2010Prop57
140
1.0
102
RTVSPost2010PropOp57
 70
     0
  0
XRECORD
  5
31A
102
{ACAD_REACTORS
330
319
102
}
330
319
100
AcDbXrecord
280
     1
102
RTVSPropertyOp0
 70
     1
102
RTVSPropertyOp1
 70
     1
102
RTVSPropertyOp2
 70
     1
102
RTVSPropertyOp3
 70
     1
102
RTVSPropertyOp4
 70
     1
102
RTVSPropertyOp5
 70
     1
102
RTVSPropertyOp6
 70
     1
102
RTVSPropertyOp7
 70
     1
102
RTVSPropertyOp8
 70
     1
102
RTVSPropertyOp9
 70
     1
102
RTVSPropertyOp10
 70
     1
102
RTVSPropertyOp11
 70
     1
102
RTVSPropertyOp12
 70
     1
102
RTVSPropertyOp13
 70
     1
102
RTVSPropertyOp14
 70
     1
102
RTVSPropertyOp15
 70
     1
102
RTVSPropertyOp16
 70
     1
102
RTVSPropertyOp17
 70
     1
102
RTVSPropertyOp18
 70
     1
102
RTVSPropertyOp19
 70
     1
102
RTVSPropertyOp20
 70
     1
102
RTVSPropertyOp21
 70
     1
102
RTVSPropertyOp22
 70
     1
102
RTVSPropertyOp23
 70
     1
102
RTVSPropertyOp24
 70
     1
102
RTVSPropertyOp25
 70
     1
102
RTVSPropertyOp26
 70
     1
102
RTVSPropertyOp27
 70
     1
102
RTVSPropertyOp28
 70
     1
102
RTVSPropertyOp29
 70
     1
102
RTVSPropertyOp30
 70
     1
102
RTVSPropertyOp31
 70
     1
102
RTVSPropertyOp32
 70
     1
102
RTVSPropertyOp33
 70
     1
102
RTVSPropertyOp34
 70
     1
102
RTVSPropertyOp35
 70
     1
102
RTVSPropertyOp36
 70
     1
102
RTVSPropertyOp37
 70
     1
102
RTVSPropertyOp38
 70
     1
102
RTVSPropertyOp39
 70
     1
102
RTVSPropertyOp40
 70
     1
102
RTVSPropertyOp41
 70
     1
102
RTVSPropertyOp42
 70
     1
102
RTVSPropertyOp43
 70
     1
102
RTVSPropertyOp44
 70
     1
102
RTVSPropertyOp45
 70
     1
102
RTVSPropertyOp46
 70
     1
102
RTVSPropertyOp47
 70
     1
102
RTVSPropertyOp48
 70
     1
102
RTVSPropertyOp49
 70
     1
102
RTVSPropertyOp50
 70
     1
102
RTVSPropertyOp51
 70
     0
102
RTVSPropertyOp52
 70
     0
102
RTVSPropertyOp53
 70
     1
102
RTVSPropertyOp54
 70
     1
102
RTVSPropertyOp55
 70
     1
102
RTVSPropertyOp56
 70
     1
102
RTVSPropertyOp57
 70
     1
102
RTVSPost2010Prop28
280
     0
102
RTVSPost2010PropOp28
 70
     1
102
RTVSPost2010Prop29
280
     1
102
RTVSPost2010PropOp29
 70
     1
102
RTVSPost2010Prop30
280
     1
102
RTVSPost2010PropOp30
 70
     1
102
RTVSPost2010Prop31
280
     0
102
RTVSPost2010PropOp31
 70
     1
102
RTVSPost2010Prop32
280
     0
102
RTVSPost2010PropOp32
 70
     1
102
RTVSPost2010Prop33
280
     0
102
RTVSPost2010PropOp33
 70
     1
102
RTVSPost2010Prop34
280
     0
102
RTVSPost2010PropOp34
 70
     1
102
RTVSPost2010Prop35
280
     0
102
RTVSPost2010PropOp35
 70
     1
102
RTVSPost2010Prop36
280
     0
102
RTVSPost2010PropOp36
 70
     1
102
RTVSPost2010Prop37
 90
       50
102
RTVSPost2010PropOp37
 70
     1
102
RTVSPost2010Prop38
140
0.0
102
RTVSPost2010PropOp38
 70
     1
102
RTVSPost2010Prop39
140
1.0
102
RTVSPost2010PropOp39
 70
     1
102
RTVSPost2010Prop40
 90
        0
102
RTVSPost2010PropOp40
 70
     1
102
RTVSPost2010Prop41ColorIndex
 90
       18
102
RTVSPost2010Prop41ColorRGB
 90
        0
102
RTVSPost2010PropOp41
 70
     1
102
RTVSPost2010Prop42
 90
       50
102
RTVSPost2010PropOp42
 70
     1
102
RTVSPost2010Prop43
 90
        3
102
RTVSPost2010PropOp43
 70
     1
102
RTVSPost2010Prop44ColorIndex
 90
        5
102
RTVSPost2010Prop44ColorRGB
 90
      255
102
RTVSPost2010PropOp44
 70
     1
102
RTVSPost2010Prop45
280
     0
102
RTVSPost2010PropOp45
 70
     1
102
RTVSPost2010Prop46
 90
       50
102
RTVSPost2010PropOp46
 70
     1
102
RTVSPost2010Prop47
 90
       50
102
RTVSPost2010PropOp47
 70
     1
102
RTVSPost2010Prop48
 90
       50
102
RTVSPost2010PropOp48
 70
     1
102
RTVSPost2010Prop49
280
     0
102
RTVSPost2010PropOp49
 70
     1
102
RTVSPost2010Prop50
 90
       50
102
RTVSPost2010PropOp50
 70
     1
102
RTVSPost2010Prop51ColorIndex
 90
      256
102
RTVSPost2010Prop51ColorRGB
 90
-16777216
102
RTVSPost2010PropOp51
 70
     0
102
RTVSPost2010Prop52
140
1.0
102
RTVSPost2010PropOp52
 70
     0
102
RTVSPost2010Prop53
 90
        2
102
RTVSPost2010PropOp53
 70
     1
102
RTVSPost2010Prop54
  1
strokes_ogs.tif
102
RTVSPost2010PropOp54
 70
     1
102
RTVSPost2010Prop55
280
     0
102
RTVSPost2010PropOp55
 70
     1
102
RTVSPost2010Prop56
140
1.0
102
RTVSPost2010PropOp56
 70
     1
102
RTVSPost2010Prop57
140
1.0
102
RTVSPost2010PropOp57
 70
     1
  0
XRECORD
  5
2FE
102
{ACAD_REACTORS
330
2FD
102
}
330
2FD
100
AcDbXrecord
280
     1
102
RTVSPropertyOp0
 70
     1
102
RTVSPropertyOp1
 70
     1
102
RTVSPropertyOp2
 70
     1
102
RTVSPropertyOp3
 70
     1
102
RTVSPropertyOp4
 70
     1
102
RTVSPropertyOp5
 70
     1
102
RTVSPropertyOp6
 70
     1
102
RTVSPropertyOp7
 70
     1
102
RTVSPropertyOp8
 70
     1
102
RTVSPropertyOp9
 70
     1
102
RTVSPropertyOp10
 70
     1
102
RTVSPropertyOp11
 70
     1
102
RTVSPropertyOp12
 70
     1
102
RTVSPropertyOp13
 70
     1
102
RTVSPropertyOp14
 70
     1
102
RTVSPropertyOp15
 70
     1
102
RTVSPropertyOp16
 70
     1
102
RTVSPropertyOp17
 70
     1
102
RTVSPropertyOp18
 70
     1
102
RTVSPropertyOp19
 70
     1
102
RTVSPropertyOp20
 70
     1
102
RTVSPropertyOp21
 70
     1
102
RTVSPropertyOp22
 70
     1
102
RTVSPropertyOp23
 70
     1
102
RTVSPropertyOp24
 70
     1
102
RTVSPropertyOp25
 70
     1
102
RTVSPropertyOp26
 70
     1
102
RTVSPropertyOp27
 70
     1
102
RTVSPropertyOp28
 70
     1
102
RTVSPropertyOp29
 70
     1
102
RTVSPropertyOp30
 70
     1
102
RTVSPropertyOp31
 70
     1
102
RTVSPropertyOp32
 70
     1
102
RTVSPropertyOp33
 70
     1
102
RTVSPropertyOp34
 70
     1
102
RTVSPropertyOp35
 70
     1
102
RTVSPropertyOp36
 70
     1
102
RTVSPropertyOp37
 70
     1
102
RTVSPropertyOp38
 70
     1
102
RTVSPropertyOp39
 70
     1
102
RTVSPropertyOp40
 70
     1
102
RTVSPropertyOp41
 70
     1
102
RTVSPropertyOp42
 70
     1
102
RTVSPropertyOp43
 70
     1
102
RTVSPropertyOp44
 70
     1
102
RTVSPropertyOp45
 70
     1
102
RTVSPropertyOp46
 70
     1
102
RTVSPropertyOp47
 70
     1
102
RTVSPropertyOp48
 70
     1
102
RTVSPropertyOp49
 70
     1
102
RTVSPropertyOp50
 70
     1
102
RTVSPropertyOp51
 70
     0
102
RTVSPropertyOp52
 70
     0
102
RTVSPropertyOp53
 70
     1
102
RTVSPropertyOp54
 70
     1
102
RTVSPropertyOp55
 70
     1
102
RTVSPropertyOp56
 70
     1
102
RTVSPropertyOp57
 70
     1
102
RTVSPost2010Prop28
280
     0
102
RTVSPost2010PropOp28
 70
     1
102
RTVSPost2010Prop29
280
     1
102
RTVSPost2010PropOp29
 70
     1
102
RTVSPost2010Prop30
280
     1
102
RTVSPost2010PropOp30
 70
     1
102
RTVSPost2010Prop31
280
     0
102
RTVSPost2010PropOp31
 70
     1
102
RTVSPost2010Prop32
280
     0
102
RTVSPost2010PropOp32
 70
     1
102
RTVSPost2010Prop33
280
     0
102
RTVSPost2010PropOp33
 70
     1
102
RTVSPost2010Prop34
280
     0
102
RTVSPost2010PropOp34
 70
     1
102
RTVSPost2010Prop35
280
     0
102
RTVSPost2010PropOp35
 70
     1
102
RTVSPost2010Prop36
280
     0
102
RTVSPost2010PropOp36
 70
     1
102
RTVSPost2010Prop37
 90
       50
102
RTVSPost2010PropOp37
 70
     1
102
RTVSPost2010Prop38
140
0.0
102
RTVSPost2010PropOp38
 70
     1
102
RTVSPost2010Prop39
140
1.0
102
RTVSPost2010PropOp39
 70
     1
102
RTVSPost2010Prop40
 90
        0
102
RTVSPost2010PropOp40
 70
     1
102
RTVSPost2010Prop41ColorIndex
 90
       18
102
RTVSPost2010Prop41ColorRGB
 90
        0
102
RTVSPost2010PropOp41
 70
     1
102
RTVSPost2010Prop42
 90
       50
102
RTVSPost2010PropOp42
 70
     1
102
RTVSPost2010Prop43
 90
        3
102
RTVSPost2010PropOp43
 70
     1
102
RTVSPost2010Prop44ColorIndex
 90
        5
102
RTVSPost2010Prop44ColorRGB
 90
      255
102
RTVSPost2010PropOp44
 70
     1
102
RTVSPost2010Prop45
280
     0
102
RTVSPost2010PropOp45
 70
     1
102
RTVSPost2010Prop46
 90
       50
102
RTVSPost2010PropOp46
 70
     1
102
RTVSPost2010Prop47
 90
       50
102
RTVSPost2010PropOp47
 70
     1
102
RTVSPost2010Prop48
 90
       50
102
RTVSPost2010PropOp48
 70
     1
102
RTVSPost2010Prop49
280
     0
102
RTVSPost2010PropOp49
 70
     1
102
RTVSPost2010Prop50
 90
       50
102
RTVSPost2010PropOp50
 70
     1
102
RTVSPost2010Prop51ColorIndex
 90
      256
102
RTVSPost2010Prop51ColorRGB
 90
-16777216
102
RTVSPost2010PropOp51
 70
     0
102
RTVSPost2010Prop52
140
1.0
102
RTVSPost2010PropOp52
 70
     0
102
RTVSPost2010Prop53
 90
        2
102
RTVSPost2010PropOp53
 70
     1
102
RTVSPost2010Prop54
  1
strokes_ogs.tif
102
RTVSPost2010PropOp54
 70
     1
102
RTVSPost2010Prop55
280
     0
102
RTVSPost2010PropOp55
 70
     1
102
RTVSPost2010Prop56
140
1.0
102
RTVSPost2010PropOp56
 70
     1
102
RTVSPost2010Prop57
140
1.0
102
RTVSPost2010PropOp57
 70
     1
  0
XRECORD
  5
300
102
{ACAD_REACTORS
330
2FF
102
}
330
2FF
100
AcDbXrecord
280
     1
102
RTVSPropertyOp0
 70
     1
102
RTVSPropertyOp1
 70
     1
102
RTVSPropertyOp2
 70
     1
102
RTVSPropertyOp3
 70
     1
102
RTVSPropertyOp4
 70
     1
102
RTVSPropertyOp5
 70
     1
102
RTVSPropertyOp6
 70
     1
102
RTVSPropertyOp7
 70
     1
102
RTVSPropertyOp8
 70
     1
102
RTVSPropertyOp9
 70
     1
102
RTVSPropertyOp10
 70
     1
102
RTVSPropertyOp11
 70
     1
102
RTVSPropertyOp12
 70
     1
102
RTVSPropertyOp13
 70
     1
102
RTVSPropertyOp14
 70
     1
102
RTVSPropertyOp15
 70
     1
102
RTVSPropertyOp16
 70
     1
102
RTVSPropertyOp17
 70
     1
102
RTVSPropertyOp18
 70
     1
102
RTVSPropertyOp19
 70
     1
102
RTVSPropertyOp20
 70
     1
102
RTVSPropertyOp21
 70
     1
102
RTVSPropertyOp22
 70
     1
102
RTVSPropertyOp23
 70
     1
102
RTVSPropertyOp24
 70
     1
102
RTVSPropertyOp25
 70
     1
102
RTVSPropertyOp26
 70
     1
102
RTVSPropertyOp27
 70
     1
102
RTVSPropertyOp28
 70
     1
102
RTVSPropertyOp29
 70
     1
102
RTVSPropertyOp30
 70
     1
102
RTVSPropertyOp31
 70
     1
102
RTVSPropertyOp32
 70
     1
102
RTVSPropertyOp33
 70
     1
102
RTVSPropertyOp34
 70
     1
102
RTVSPropertyOp35
 70
     1
102
RTVSPropertyOp36
 70
     1
102
RTVSPropertyOp37
 70
     1
102
RTVSPropertyOp38
 70
     1
102
RTVSPropertyOp39
 70
     1
102
RTVSPropertyOp40
 70
     1
102
RTVSPropertyOp41
 70
     1
102
RTVSPropertyOp42
 70
     1
102
RTVSPropertyOp43
 70
     1
102
RTVSPropertyOp44
 70
     1
102
RTVSPropertyOp45
 70
     1
102
RTVSPropertyOp46
 70
     1
102
RTVSPropertyOp47
 70
     1
102
RTVSPropertyOp48
 70
     1
102
RTVSPropertyOp49
 70
     1
102
RTVSPropertyOp50
 70
     1
102
RTVSPropertyOp51
 70
     0
102
RTVSPropertyOp52
 70
     0
102
RTVSPropertyOp53
 70
     1
102
RTVSPropertyOp54
 70
     1
102
RTVSPropertyOp55
 70
     1
102
RTVSPropertyOp56
 70
     1
102
RTVSPropertyOp57
 70
     1
102
RTVSPost2010Prop28
280
     0
102
RTVSPost2010PropOp28
 70
     1
102
RTVSPost2010Prop29
280
     1
102
RTVSPost2010PropOp29
 70
     1
102
RTVSPost2010Prop30
280
     1
102
RTVSPost2010PropOp30
 70
     1
102
RTVSPost2010Prop31
280
     0
102
RTVSPost2010PropOp31
 70
     1
102
RTVSPost2010Prop32
280
     0
102
RTVSPost2010PropOp32
 70
     1
102
RTVSPost2010Prop33
280
     0
102
RTVSPost2010PropOp33
 70
     1
102
RTVSPost2010Prop34
280
     0
102
RTVSPost2010PropOp34
 70
     1
102
RTVSPost2010Prop35
280
     0
102
RTVSPost2010PropOp35
 70
     1
102
RTVSPost2010Prop36
280
     0
102
RTVSPost2010PropOp36
 70
     1
102
RTVSPost2010Prop37
 90
       50
102
RTVSPost2010PropOp37
 70
     1
102
RTVSPost2010Prop38
140
0.0
102
RTVSPost2010PropOp38
 70
     1
102
RTVSPost2010Prop39
140
1.0
102
RTVSPost2010PropOp39
 70
     1
102
RTVSPost2010Prop40
 90
        0
102
RTVSPost2010PropOp40
 70
     1
102
RTVSPost2010Prop41ColorIndex
 90
       18
102
RTVSPost2010Prop41ColorRGB
 90
        0
102
RTVSPost2010PropOp41
 70
     1
102
RTVSPost2010Prop42
 90
       50
102
RTVSPost2010PropOp42
 70
     1
102
RTVSPost2010Prop43
 90
        3
102
RTVSPost2010PropOp43
 70
     1
102
RTVSPost2010Prop44ColorIndex
 90
        5
102
RTVSPost2010Prop44ColorRGB
 90
      255
102
RTVSPost2010PropOp44
 70
     1
102
RTVSPost2010Prop45
280
     0
102
RTVSPost2010PropOp45
 70
     1
102
RTVSPost2010Prop46
 90
       50
102
RTVSPost2010PropOp46
 70
     1
102
RTVSPost2010Prop47
 90
       50
102
RTVSPost2010PropOp47
 70
     1
102
RTVSPost2010Prop48
 90
       50
102
RTVSPost2010PropOp48
 70
     1
102
RTVSPost2010Prop49
280
     0
102
RTVSPost2010PropOp49
 70
     1
102
RTVSPost2010Prop50
 90
       50
102
RTVSPost2010PropOp50
 70
     1
102
RTVSPost2010Prop51ColorIndex
 90
      256
102
RTVSPost2010Prop51ColorRGB
 90
-16777216
102
RTVSPost2010PropOp51
 70
     0
102
RTVSPost2010Prop52
140
1.0
102
RTVSPost2010PropOp52
 70
     0
102
RTVSPost2010Prop53
 90
        2
102
RTVSPost2010PropOp53
 70
     1
102
RTVSPost2010Prop54
  1
strokes_ogs.tif
102
RTVSPost2010PropOp54
 70
     1
102
RTVSPost2010Prop55
280
     0
102
RTVSPost2010PropOp55
 70
     1
102
RTVSPost2010Prop56
140
1.0
102
RTVSPost2010PropOp56
 70
     1
102
RTVSPost2010Prop57
140
1.0
102
RTVSPost2010PropOp57
 70
     1
  0
XRECORD
  5
302
102
{ACAD_REACTORS
330
301
102
}
330
301
100
AcDbXrecord
280
     1
102
RTVSPropertyOp0
 70
     1
102
RTVSPropertyOp1
 70
     1
102
RTVSPropertyOp2
 70
     1
102
RTVSPropertyOp3
 70
     1
102
RTVSPropertyOp4
 70
     1
102
RTVSPropertyOp5
 70
     1
102
RTVSPropertyOp6
 70
     1
102
RTVSPropertyOp7
 70
     1
102
RTVSPropertyOp8
 70
     1
102
RTVSPropertyOp9
 70
     1
102
RTVSPropertyOp10
 70
     1
102
RTVSPropertyOp11
 70
     1
102
RTVSPropertyOp12
 70
     1
102
RTVSPropertyOp13
 70
     1
102
RTVSPropertyOp14
 70
     1
102
RTVSPropertyOp15
 70
     1
102
RTVSPropertyOp16
 70
     1
102
RTVSPropertyOp17
 70
     1
102
RTVSPropertyOp18
 70
     1
102
RTVSPropertyOp19
 70
     1
102
RTVSPropertyOp20
 70
     1
102
RTVSPropertyOp21
 70
     1
102
RTVSPropertyOp22
 70
     1
102
RTVSPropertyOp23
 70
     1
102
RTVSPropertyOp24
 70
     1
102
RTVSPropertyOp25
 70
     1
102
RTVSPropertyOp26
 70
     1
102
RTVSPropertyOp27
 70
     1
102
RTVSPropertyOp28
 70
     1
102
RTVSPropertyOp29
 70
     1
102
RTVSPropertyOp30
 70
     1
102
RTVSPropertyOp31
 70
     1
102
RTVSPropertyOp32
 70
     1
102
RTVSPropertyOp33
 70
     1
102
RTVSPropertyOp34
 70
     1
102
RTVSPropertyOp35
 70
     1
102
RTVSPropertyOp36
 70
     1
102
RTVSPropertyOp37
 70
     1
102
RTVSPropertyOp38
 70
     1
102
RTVSPropertyOp39
 70
     1
102
RTVSPropertyOp40
 70
     1
102
RTVSPropertyOp41
 70
     1
102
RTVSPropertyOp42
 70
     1
102
RTVSPropertyOp43
 70
     1
102
RTVSPropertyOp44
 70
     1
102
RTVSPropertyOp45
 70
     1
102
RTVSPropertyOp46
 70
     1
102
RTVSPropertyOp47
 70
     1
102
RTVSPropertyOp48
 70
     1
102
RTVSPropertyOp49
 70
     1
102
RTVSPropertyOp50
 70
     1
102
RTVSPropertyOp51
 70
     0
102
RTVSPropertyOp52
 70
     0
102
RTVSPropertyOp53
 70
     1
102
RTVSPropertyOp54
 70
     1
102
RTVSPropertyOp55
 70
     1
102
RTVSPropertyOp56
 70
     1
102
RTVSPropertyOp57
 70
     1
102
RTVSPost2010Prop28
280
     0
102
RTVSPost2010PropOp28
 70
     1
102
RTVSPost2010Prop29
280
     1
102
RTVSPost2010PropOp29
 70
     1
102
RTVSPost2010Prop30
280
     1
102
RTVSPost2010PropOp30
 70
     1
102
RTVSPost2010Prop31
280
     0
102
RTVSPost2010PropOp31
 70
     1
102
RTVSPost2010Prop32
280
     0
102
RTVSPost2010PropOp32
 70
     1
102
RTVSPost2010Prop33
280
     0
102
RTVSPost2010PropOp33
 70
     1
102
RTVSPost2010Prop34
280
     0
102
RTVSPost2010PropOp34
 70
     1
102
RTVSPost2010Prop35
280
     0
102
RTVSPost2010PropOp35
 70
     1
102
RTVSPost2010Prop36
280
     0
102
RTVSPost2010PropOp36
 70
     1
102
RTVSPost2010Prop37
 90
       50
102
RTVSPost2010PropOp37
 70
     1
102
RTVSPost2010Prop38
140
0.0
102
RTVSPost2010PropOp38
 70
     1
102
RTVSPost2010Prop39
140
1.0
102
RTVSPost2010PropOp39
 70
     1
102
RTVSPost2010Prop40
 90
        0
102
RTVSPost2010PropOp40
 70
     1
102
RTVSPost2010Prop41ColorIndex
 90
       18
102
RTVSPost2010Prop41ColorRGB
 90
        0
102
RTVSPost2010PropOp41
 70
     1
102
RTVSPost2010Prop42
 90
       50
102
RTVSPost2010PropOp42
 70
     1
102
RTVSPost2010Prop43
 90
        3
102
RTVSPost2010PropOp43
 70
     1
102
RTVSPost2010Prop44ColorIndex
 90
        5
102
RTVSPost2010Prop44ColorRGB
 90
      255
102
RTVSPost2010PropOp44
 70
     1
102
RTVSPost2010Prop45
280
     0
102
RTVSPost2010PropOp45
 70
     1
102
RTVSPost2010Prop46
 90
       50
102
RTVSPost2010PropOp46
 70
     1
102
RTVSPost2010Prop47
 90
       50
102
RTVSPost2010PropOp47
 70
     1
102
RTVSPost2010Prop48
 90
       50
102
RTVSPost2010PropOp48
 70
     1
102
RTVSPost2010Prop49
280
     0
102
RTVSPost2010PropOp49
 70
     1
102
RTVSPost2010Prop50
 90
       50
102
RTVSPost2010PropOp50
 70
     1
102
RTVSPost2010Prop51ColorIndex
 90
      256
102
RTVSPost2010Prop51ColorRGB
 90
-16777216
102
RTVSPost2010PropOp51
 70
     0
102
RTVSPost2010Prop52
140
1.0
102
RTVSPost2010PropOp52
 70
     0
102
RTVSPost2010Prop53
 90
        2
102
RTVSPost2010PropOp53
 70
     1
102
RTVSPost2010Prop54
  1
strokes_ogs.tif
102
RTVSPost2010PropOp54
 70
     1
102
RTVSPost2010Prop55
280
     0
102
RTVSPost2010PropOp55
 70
     1
102
RTVSPost2010Prop56
140
1.0
102
RTVSPost2010PropOp56
 70
     1
102
RTVSPost2010Prop57
140
1.0
102
RTVSPost2010PropOp57
 70
     1
  0
XRECORD
  5
304
102
{ACAD_REACTORS
330
303
102
}
330
303
100
AcDbXrecord
280
     1
102
RTVSPropertyOp0
 70
     1
102
RTVSPropertyOp1
 70
     1
102
RTVSPropertyOp2
 70
     1
102
RTVSPropertyOp3
 70
     1
102
RTVSPropertyOp4
 70
     1
102
RTVSPropertyOp5
 70
     1
102
RTVSPropertyOp6
 70
     1
102
RTVSPropertyOp7
 70
     1
102
RTVSPropertyOp8
 70
     1
102
RTVSPropertyOp9
 70
     1
102
RTVSPropertyOp10
 70
     1
102
RTVSPropertyOp11
 70
     1
102
RTVSPropertyOp12
 70
     1
102
RTVSPropertyOp13
 70
     1
102
RTVSPropertyOp14
 70
     1
102
RTVSPropertyOp15
 70
     1
102
RTVSPropertyOp16
 70
     1
102
RTVSPropertyOp17
 70
     1
102
RTVSPropertyOp18
 70
     1
102
RTVSPropertyOp19
 70
     1
102
RTVSPropertyOp20
 70
     1
102
RTVSPropertyOp21
 70
     1
102
RTVSPropertyOp22
 70
     1
102
RTVSPropertyOp23
 70
     1
102
RTVSPropertyOp24
 70
     1
102
RTVSPropertyOp25
 70
     1
102
RTVSPropertyOp26
 70
     1
102
RTVSPropertyOp27
 70
     1
102
RTVSPropertyOp28
 70
     1
102
RTVSPropertyOp29
 70
     1
102
RTVSPropertyOp30
 70
     1
102
RTVSPropertyOp31
 70
     1
102
RTVSPropertyOp32
 70
     1
102
RTVSPropertyOp33
 70
     1
102
RTVSPropertyOp34
 70
     1
102
RTVSPropertyOp35
 70
     1
102
RTVSPropertyOp36
 70
     1
102
RTVSPropertyOp37
 70
     1
102
RTVSPropertyOp38
 70
     1
102
RTVSPropertyOp39
 70
     1
102
RTVSPropertyOp40
 70
     1
102
RTVSPropertyOp41
 70
     1
102
RTVSPropertyOp42
 70
     1
102
RTVSPropertyOp43
 70
     1
102
RTVSPropertyOp44
 70
     1
102
RTVSPropertyOp45
 70
     1
102
RTVSPropertyOp46
 70
     1
102
RTVSPropertyOp47
 70
     1
102
RTVSPropertyOp48
 70
     1
102
RTVSPropertyOp49
 70
     1
102
RTVSPropertyOp50
 70
     1
102
RTVSPropertyOp51
 70
     0
102
RTVSPropertyOp52
 70
     0
102
RTVSPropertyOp53
 70
     1
102
RTVSPropertyOp54
 70
     1
102
RTVSPropertyOp55
 70
     1
102
RTVSPropertyOp56
 70
     1
102
RTVSPropertyOp57
 70
     1
102
RTVSPost2010Prop28
280
     0
102
RTVSPost2010PropOp28
 70
     1
102
RTVSPost2010Prop29
280
     1
102
RTVSPost2010PropOp29
 70
     1
102
RTVSPost2010Prop30
280
     1
102
RTVSPost2010PropOp30
 70
     1
102
RTVSPost2010Prop31
280
     0
102
RTVSPost2010PropOp31
 70
     1
102
RTVSPost2010Prop32
280
     0
102
RTVSPost2010PropOp32
 70
     1
102
RTVSPost2010Prop33
280
     0
102
RTVSPost2010PropOp33
 70
     1
102
RTVSPost2010Prop34
280
     0
102
RTVSPost2010PropOp34
 70
     1
102
RTVSPost2010Prop35
280
     0
102
RTVSPost2010PropOp35
 70
     1
102
RTVSPost2010Prop36
280
     0
102
RTVSPost2010PropOp36
 70
     1
102
RTVSPost2010Prop37
 90
       50
102
RTVSPost2010PropOp37
 70
     1
102
RTVSPost2010Prop38
140
0.0
102
RTVSPost2010PropOp38
 70
     1
102
RTVSPost2010Prop39
140
1.0
102
RTVSPost2010PropOp39
 70
     1
102
RTVSPost2010Prop40
 90
        0
102
RTVSPost2010PropOp40
 70
     1
102
RTVSPost2010Prop41ColorIndex
 90
       18
102
RTVSPost2010Prop41ColorRGB
 90
        0
102
RTVSPost2010PropOp41
 70
     1
102
RTVSPost2010Prop42
 90
       50
102
RTVSPost2010PropOp42
 70
     1
102
RTVSPost2010Prop43
 90
        3
102
RTVSPost2010PropOp43
 70
     1
102
RTVSPost2010Prop44ColorIndex
 90
        5
102
RTVSPost2010Prop44ColorRGB
 90
      255
102
RTVSPost2010PropOp44
 70
     1
102
RTVSPost2010Prop45
280
     0
102
RTVSPost2010PropOp45
 70
     1
102
RTVSPost2010Prop46
 90
       50
102
RTVSPost2010PropOp46
 70
     1
102
RTVSPost2010Prop47
 90
       50
102
RTVSPost2010PropOp47
 70
     1
102
RTVSPost2010Prop48
 90
       50
102
RTVSPost2010PropOp48
 70
     1
102
RTVSPost2010Prop49
280
     0
102
RTVSPost2010PropOp49
 70
     1
102
RTVSPost2010Prop50
 90
       50
102
RTVSPost2010PropOp50
 70
     1
102
RTVSPost2010Prop51ColorIndex
 90
      256
102
RTVSPost2010Prop51ColorRGB
 90
-16777216
102
RTVSPost2010PropOp51
 70
     0
102
RTVSPost2010Prop52
140
1.0
102
RTVSPost2010PropOp52
 70
     0
102
RTVSPost2010Prop53
 90
        2
102
RTVSPost2010PropOp53
 70
     1
102
RTVSPost2010Prop54
  1
strokes_ogs.tif
102
RTVSPost2010PropOp54
 70
     1
102
RTVSPost2010Prop55
280
     0
102
RTVSPost2010PropOp55
 70
     1
102
RTVSPost2010Prop56
140
1.0
102
RTVSPost2010PropOp56
 70
     1
102
RTVSPost2010Prop57
140
1.0
102
RTVSPost2010PropOp57
 70
     1
  0
XRECORD
  5
30A
102
{ACAD_REACTORS
330
309
102
}
330
309
100
AcDbXrecord
280
     1
102
RTVSPropertyOp0
 70
     1
102
RTVSPropertyOp1
 70
     1
102
RTVSPropertyOp2
 70
     1
102
RTVSPropertyOp3
 70
     1
102
RTVSPropertyOp4
 70
     1
102
RTVSPropertyOp5
 70
     1
102
RTVSPropertyOp6
 70
     1
102
RTVSPropertyOp7
 70
     1
102
RTVSPropertyOp8
 70
     1
102
RTVSPropertyOp9
 70
     1
102
RTVSPropertyOp10
 70
     1
102
RTVSPropertyOp11
 70
     1
102
RTVSPropertyOp12
 70
     1
102
RTVSPropertyOp13
 70
     1
102
RTVSPropertyOp14
 70
     1
102
RTVSPropertyOp15
 70
     1
102
RTVSPropertyOp16
 70
     1
102
RTVSPropertyOp17
 70
     1
102
RTVSPropertyOp18
 70
     1
102
RTVSPropertyOp19
 70
     1
102
RTVSPropertyOp20
 70
     1
102
RTVSPropertyOp21
 70
     1
102
RTVSPropertyOp22
 70
     1
102
RTVSPropertyOp23
 70
     1
102
RTVSPropertyOp24
 70
     1
102
RTVSPropertyOp25
 70
     1
102
RTVSPropertyOp26
 70
     1
102
RTVSPropertyOp27
 70
     1
102
RTVSPropertyOp28
 70
     1
102
RTVSPropertyOp29
 70
     1
102
RTVSPropertyOp30
 70
     1
102
RTVSPropertyOp31
 70
     1
102
RTVSPropertyOp32
 70
     1
102
RTVSPropertyOp33
 70
     1
102
RTVSPropertyOp34
 70
     1
102
RTVSPropertyOp35
 70
     1
102
RTVSPropertyOp36
 70
     1
102
RTVSPropertyOp37
 70
     1
102
RTVSPropertyOp38
 70
     1
102
RTVSPropertyOp39
 70
     1
102
RTVSPropertyOp40
 70
     1
102
RTVSPropertyOp41
 70
     1
102
RTVSPropertyOp42
 70
     1
102
RTVSPropertyOp43
 70
     1
102
RTVSPropertyOp44
 70
     1
102
RTVSPropertyOp45
 70
     1
102
RTVSPropertyOp46
 70
     1
102
RTVSPropertyOp47
 70
     1
102
RTVSPropertyOp48
 70
     1
102
RTVSPropertyOp49
 70
     1
102
RTVSPropertyOp50
 70
     1
102
RTVSPropertyOp51
 70
     0
102
RTVSPropertyOp52
 70
     0
102
RTVSPropertyOp53
 70
     1
102
RTVSPropertyOp54
 70
     1
102
RTVSPropertyOp55
 70
     1
102
RTVSPropertyOp56
 70
     1
102
RTVSPropertyOp57
 70
     1
102
RTVSPost2010Prop28
280
     0
102
RTVSPost2010PropOp28
 70
     1
102
RTVSPost2010Prop29
280
     1
102
RTVSPost2010PropOp29
 70
     1
102
RTVSPost2010Prop30
280
     1
102
RTVSPost2010PropOp30
 70
     1
102
RTVSPost2010Prop31
280
     0
102
RTVSPost2010PropOp31
 70
     1
102
RTVSPost2010Prop32
280
     0
102
RTVSPost2010PropOp32
 70
     1
102
RTVSPost2010Prop33
280
     0
102
RTVSPost2010PropOp33
 70
     1
102
RTVSPost2010Prop34
280
     0
102
RTVSPost2010PropOp34
 70
     1
102
RTVSPost2010Prop35
280
     0
102
RTVSPost2010PropOp35
 70
     1
102
RTVSPost2010Prop36
280
     0
102
RTVSPost2010PropOp36
 70
     1
102
RTVSPost2010Prop37
 90
       50
102
RTVSPost2010PropOp37
 70
     1
102
RTVSPost2010Prop38
140
0.0
102
RTVSPost2010PropOp38
 70
     1
102
RTVSPost2010Prop39
140
1.0
102
RTVSPost2010PropOp39
 70
     1
102
RTVSPost2010Prop40
 90
        0
102
RTVSPost2010PropOp40
 70
     1
102
RTVSPost2010Prop41ColorIndex
 90
       18
102
RTVSPost2010Prop41ColorRGB
 90
        0
102
RTVSPost2010PropOp41
 70
     1
102
RTVSPost2010Prop42
 90
       50
102
RTVSPost2010PropOp42
 70
     1
102
RTVSPost2010Prop43
 90
        3
102
RTVSPost2010PropOp43
 70
     1
102
RTVSPost2010Prop44ColorIndex
 90
        5
102
RTVSPost2010Prop44ColorRGB
 90
      255
102
RTVSPost2010PropOp44
 70
     1
102
RTVSPost2010Prop45
280
     0
102
RTVSPost2010PropOp45
 70
     1
102
RTVSPost2010Prop46
 90
       50
102
RTVSPost2010PropOp46
 70
     1
102
RTVSPost2010Prop47
 90
       50
102
RTVSPost2010PropOp47
 70
     1
102
RTVSPost2010Prop48
 90
       50
102
RTVSPost2010PropOp48
 70
     1
102
RTVSPost2010Prop49
280
     0
102
RTVSPost2010PropOp49
 70
     1
102
RTVSPost2010Prop50
 90
       50
102
RTVSPost2010PropOp50
 70
     1
102
RTVSPost2010Prop51ColorIndex
 90
      256
102
RTVSPost2010Prop51ColorRGB
 90
-16777216
102
RTVSPost2010PropOp51
 70
     0
102
RTVSPost2010Prop52
140
1.0
102
RTVSPost2010PropOp52
 70
     0
102
RTVSPost2010Prop53
 90
        2
102
RTVSPost2010PropOp53
 70
     1
102
RTVSPost2010Prop54
  1
strokes_ogs.tif
102
RTVSPost2010PropOp54
 70
     1
102
RTVSPost2010Prop55
280
     0
102
RTVSPost2010PropOp55
 70
     1
102
RTVSPost2010Prop56
140
1.0
102
RTVSPost2010PropOp56
 70
     1
102
RTVSPost2010Prop57
140
1.0
102
RTVSPost2010PropOp57
 70
     1
  0
XRECORD
  5
31E
102
{ACAD_REACTORS
330
31D
102
}
330
31D
100
AcDbXrecord
280
     1
102
RTVSPropertyOp0
 70
     0
102
RTVSPropertyOp1
 70
     0
102
RTVSPropertyOp2
 70
     0
102
RTVSPropertyOp3
 70
     0
102
RTVSPropertyOp4
 70
     0
102
RTVSPropertyOp5
 70
     0
102
RTVSPropertyOp6
 70
     0
102
RTVSPropertyOp7
 70
     0
102
RTVSPropertyOp8
 70
     0
102
RTVSPropertyOp9
 70
     0
102
RTVSPropertyOp10
 70
     0
102
RTVSPropertyOp11
 70
     0
102
RTVSPropertyOp12
 70
     0
102
RTVSPropertyOp13
 70
     0
102
RTVSPropertyOp14
 70
     2
102
RTVSPropertyOp15
 70
     0
102
RTVSPropertyOp16
 70
     0
102
RTVSPropertyOp17
 70
     0
102
RTVSPropertyOp18
 70
     0
102
RTVSPropertyOp19
 70
     0
102
RTVSPropertyOp20
 70
     0
102
RTVSPropertyOp21
 70
     0
102
RTVSPropertyOp22
 70
     0
102
RTVSPropertyOp23
 70
     0
102
RTVSPropertyOp24
 70
     0
102
RTVSPropertyOp25
 70
     0
102
RTVSPropertyOp26
 70
     0
102
RTVSPropertyOp27
 70
     0
102
RTVSPropertyOp28
 70
     0
102
RTVSPropertyOp29
 70
     0
102
RTVSPropertyOp30
 70
     0
102
RTVSPropertyOp31
 70
     0
102
RTVSPropertyOp32
 70
     0
102
RTVSPropertyOp33
 70
     0
102
RTVSPropertyOp34
 70
     0
102
RTVSPropertyOp35
 70
     0
102
RTVSPropertyOp36
 70
     0
102
RTVSPropertyOp37
 70
     0
102
RTVSPropertyOp38
 70
     0
102
RTVSPropertyOp39
 70
     0
102
RTVSPropertyOp40
 70
     0
102
RTVSPropertyOp41
 70
     0
102
RTVSPropertyOp42
 70
     0
102
RTVSPropertyOp43
 70
     0
102
RTVSPropertyOp44
 70
     0
102
RTVSPropertyOp45
 70
     0
102
RTVSPropertyOp46
 70
     0
102
RTVSPropertyOp47
 70
     0
102
RTVSPropertyOp48
 70
     0
102
RTVSPropertyOp49
 70
     0
102
RTVSPropertyOp50
 70
     0
102
RTVSPropertyOp51
 70
     0
102
RTVSPropertyOp52
 70
     0
102
RTVSPropertyOp53
 70
     0
102
RTVSPropertyOp54
 70
     0
102
RTVSPropertyOp55
 70
     0
102
RTVSPropertyOp56
 70
     0
102
RTVSPropertyOp57
 70
     0
102
RTVSPost2010Prop28
280
     0
102
RTVSPost2010PropOp28
 70
     0
102
RTVSPost2010Prop29
280
     1
102
RTVSPost2010PropOp29
 70
     0
102
RTVSPost2010Prop30
280
     1
102
RTVSPost2010PropOp30
 70
     0
102
RTVSPost2010Prop31
280
     0
102
RTVSPost2010PropOp31
 70
     0
102
RTVSPost2010Prop32
280
     0
102
RTVSPost2010PropOp32
 70
     0
102
RTVSPost2010Prop33
280
     0
102
RTVSPost2010PropOp33
 70
     0
102
RTVSPost2010Prop34
280
     0
102
RTVSPost2010PropOp34
 70
     0
102
RTVSPost2010Prop35
280
     0
102
RTVSPost2010PropOp35
 70
     0
102
RTVSPost2010Prop36
280
     0
102
RTVSPost2010PropOp36
 70
     0
102
RTVSPost2010Prop37
 90
       50
102
RTVSPost2010PropOp37
 70
     0
102
RTVSPost2010Prop38
140
0.0
102
RTVSPost2010PropOp38
 70
     0
102
RTVSPost2010Prop39
140
1.0
102
RTVSPost2010PropOp39
 70
     0
102
RTVSPost2010Prop40
 90
        0
102
RTVSPost2010PropOp40
 70
     0
102
RTVSPost2010Prop41ColorIndex
 90
       18
102
RTVSPost2010Prop41ColorRGB
 90
        0
102
RTVSPost2010PropOp41
 70
     0
102
RTVSPost2010Prop42
 90
       50
102
RTVSPost2010PropOp42
 70
     0
102
RTVSPost2010Prop43
 90
        3
102
RTVSPost2010PropOp43
 70
     0
102
RTVSPost2010Prop44ColorIndex
 90
        5
102
RTVSPost2010Prop44ColorRGB
 90
      255
102
RTVSPost2010PropOp44
 70
     0
102
RTVSPost2010Prop45
280
     0
102
RTVSPost2010PropOp45
 70
     0
102
RTVSPost2010Prop46
 90
       50
102
RTVSPost2010PropOp46
 70
     0
102
RTVSPost2010Prop47
 90
       50
102
RTVSPost2010PropOp47
 70
     0
102
RTVSPost2010Prop48
 90
       50
102
RTVSPost2010PropOp48
 70
     0
102
RTVSPost2010Prop49
280
     0
102
RTVSPost2010PropOp49
 70
     0
102
RTVSPost2010Prop50
 90
       50
102
RTVSPost2010PropOp50
 70
     0
102
RTVSPost2010Prop51ColorIndex
 90
      256
102
RTVSPost2010Prop51ColorRGB
 90
-16777216
102
RTVSPost2010PropOp51
 70
     0
102
RTVSPost2010Prop52
140
1.0
102
RTVSPost2010PropOp52
 70
     0
102
RTVSPost2010Prop53
 90
        2
102
RTVSPost2010PropOp53
 70
     0
102
RTVSPost2010Prop54
  1
strokes_ogs.tif
102
RTVSPost2010PropOp54
 70
     0
102
RTVSPost2010Prop55
280
     0
102
RTVSPost2010PropOp55
 70
     0
102
RTVSPost2010Prop56
140
1.0
102
RTVSPost2010PropOp56
 70
     0
102
RTVSPost2010Prop57
140
1.0
102
RTVSPost2010PropOp57
 70
     0
  0
XRECORD
  5
318
102
{ACAD_REACTORS
330
317
102
}
330
317
100
AcDbXrecord
280
     1
102
RTVSPropertyOp0
 70
     1
102
RTVSPropertyOp1
 70
     1
102
RTVSPropertyOp2
 70
     1
102
RTVSPropertyOp3
 70
     1
102
RTVSPropertyOp4
 70
     1
102
RTVSPropertyOp5
 70
     1
102
RTVSPropertyOp6
 70
     1
102
RTVSPropertyOp7
 70
     1
102
RTVSPropertyOp8
 70
     1
102
RTVSPropertyOp9
 70
     1
102
RTVSPropertyOp10
 70
     1
102
RTVSPropertyOp11
 70
     1
102
RTVSPropertyOp12
 70
     1
102
RTVSPropertyOp13
 70
     1
102
RTVSPropertyOp14
 70
     1
102
RTVSPropertyOp15
 70
     1
102
RTVSPropertyOp16
 70
     1
102
RTVSPropertyOp17
 70
     1
102
RTVSPropertyOp18
 70
     1
102
RTVSPropertyOp19
 70
     1
102
RTVSPropertyOp20
 70
     1
102
RTVSPropertyOp21
 70
     1
102
RTVSPropertyOp22
 70
     1
102
RTVSPropertyOp23
 70
     1
102
RTVSPropertyOp24
 70
     1
102
RTVSPropertyOp25
 70
     1
102
RTVSPropertyOp26
 70
     1
102
RTVSPropertyOp27
 70
     1
102
RTVSPropertyOp28
 70
     1
102
RTVSPropertyOp29
 70
     1
102
RTVSPropertyOp30
 70
     1
102
RTVSPropertyOp31
 70
     1
102
RTVSPropertyOp32
 70
     1
102
RTVSPropertyOp33
 70
     1
102
RTVSPropertyOp34
 70
     1
102
RTVSPropertyOp35
 70
     1
102
RTVSPropertyOp36
 70
     1
102
RTVSPropertyOp37
 70
     1
102
RTVSPropertyOp38
 70
     1
102
RTVSPropertyOp39
 70
     1
102
RTVSPropertyOp40
 70
     1
102
RTVSPropertyOp41
 70
     1
102
RTVSPropertyOp42
 70
     1
102
RTVSPropertyOp43
 70
     1
102
RTVSPropertyOp44
 70
     1
102
RTVSPropertyOp45
 70
     1
102
RTVSPropertyOp46
 70
     1
102
RTVSPropertyOp47
 70
     1
102
RTVSPropertyOp48
 70
     1
102
RTVSPropertyOp49
 70
     1
102
RTVSPropertyOp50
 70
     1
102
RTVSPropertyOp51
 70
     0
102
RTVSPropertyOp52
 70
     0
102
RTVSPropertyOp53
 70
     1
102
RTVSPropertyOp54
 70
     1
102
RTVSPropertyOp55
 70
     1
102
RTVSPropertyOp56
 70
     1
102
RTVSPropertyOp57
 70
     1
102
RTVSPost2010Prop28
280
     0
102
RTVSPost2010PropOp28
 70
     1
102
RTVSPost2010Prop29
280
     1
102
RTVSPost2010PropOp29
 70
     1
102
RTVSPost2010Prop30
280
     1
102
RTVSPost2010PropOp30
 70
     1
102
RTVSPost2010Prop31
280
     0
102
RTVSPost2010PropOp31
 70
     1
102
RTVSPost2010Prop32
280
     0
102
RTVSPost2010PropOp32
 70
     1
102
RTVSPost2010Prop33
280
     0
102
RTVSPost2010PropOp33
 70
     1
102
RTVSPost2010Prop34
280
     0
102
RTVSPost2010PropOp34
 70
     1
102
RTVSPost2010Prop35
280
     0
102
RTVSPost2010PropOp35
 70
     1
102
RTVSPost2010Prop36
280
     0
102
RTVSPost2010PropOp36
 70
     1
102
RTVSPost2010Prop37
 90
       50
102
RTVSPost2010PropOp37
 70
     1
102
RTVSPost2010Prop38
140
0.0
102
RTVSPost2010PropOp38
 70
     1
102
RTVSPost2010Prop39
140
1.0
102
RTVSPost2010PropOp39
 70
     1
102
RTVSPost2010Prop40
 90
        0
102
RTVSPost2010PropOp40
 70
     1
102
RTVSPost2010Prop41ColorIndex
 90
       18
102
RTVSPost2010Prop41ColorRGB
 90
        0
102
RTVSPost2010PropOp41
 70
     1
102
RTVSPost2010Prop42
 90
       50
102
RTVSPost2010PropOp42
 70
     1
102
RTVSPost2010Prop43
 90
        3
102
RTVSPost2010PropOp43
 70
     1
102
RTVSPost2010Prop44ColorIndex
 90
        5
102
RTVSPost2010Prop44ColorRGB
 90
      255
102
RTVSPost2010PropOp44
 70
     1
102
RTVSPost2010Prop45
280
     0
102
RTVSPost2010PropOp45
 70
     1
102
RTVSPost2010Prop46
 90
       50
102
RTVSPost2010PropOp46
 70
     1
102
RTVSPost2010Prop47
 90
       50
102
RTVSPost2010PropOp47
 70
     1
102
RTVSPost2010Prop48
 90
       50
102
RTVSPost2010PropOp48
 70
     1
102
RTVSPost2010Prop49
280
     0
102
RTVSPost2010PropOp49
 70
     1
102
RTVSPost2010Prop50
 90
       50
102
RTVSPost2010PropOp50
 70
     1
102
RTVSPost2010Prop51ColorIndex
 90
      256
102
RTVSPost2010Prop51ColorRGB
 90
-16777216
102
RTVSPost2010PropOp51
 70
     0
102
RTVSPost2010Prop52
140
1.0
102
RTVSPost2010PropOp52
 70
     0
102
RTVSPost2010Prop53
 90
        2
102
RTVSPost2010PropOp53
 70
     1
102
RTVSPost2010Prop54
  1
strokes_ogs.tif
102
RTVSPost2010PropOp54
 70
     1
102
RTVSPost2010Prop55
280
     0
102
RTVSPost2010PropOp55
 70
     1
102
RTVSPost2010Prop56
140
1.0
102
RTVSPost2010PropOp56
 70
     1
102
RTVSPost2010Prop57
140
1.0
102
RTVSPost2010PropOp57
 70
     1
  0
XRECORD
  5
320
102
{ACAD_REACTORS
330
31F
102
}
330
31F
100
AcDbXrecord
280
     1
102
RTVSPropertyOp0
 70
     0
102
RTVSPropertyOp1
 70
     0
102
RTVSPropertyOp2
 70
     0
102
RTVSPropertyOp3
 70
     0
102
RTVSPropertyOp4
 70
     0
102
RTVSPropertyOp5
 70
     0
102
RTVSPropertyOp6
 70
     0
102
RTVSPropertyOp7
 70
     0
102
RTVSPropertyOp8
 70
     0
102
RTVSPropertyOp9
 70
     0
102
RTVSPropertyOp10
 70
     0
102
RTVSPropertyOp11
 70
     0
102
RTVSPropertyOp12
 70
     0
102
RTVSPropertyOp13
 70
     0
102
RTVSPropertyOp14
 70
     2
102
RTVSPropertyOp15
 70
     0
102
RTVSPropertyOp16
 70
     0
102
RTVSPropertyOp17
 70
     0
102
RTVSPropertyOp18
 70
     0
102
RTVSPropertyOp19
 70
     0
102
RTVSPropertyOp20
 70
     0
102
RTVSPropertyOp21
 70
     0
102
RTVSPropertyOp22
 70
     0
102
RTVSPropertyOp23
 70
     0
102
RTVSPropertyOp24
 70
     0
102
RTVSPropertyOp25
 70
     0
102
RTVSPropertyOp26
 70
     0
102
RTVSPropertyOp27
 70
     0
102
RTVSPropertyOp28
 70
     0
102
RTVSPropertyOp29
 70
     0
102
RTVSPropertyOp30
 70
     0
102
RTVSPropertyOp31
 70
     0
102
RTVSPropertyOp32
 70
     0
102
RTVSPropertyOp33
 70
     0
102
RTVSPropertyOp34
 70
     0
102
RTVSPropertyOp35
 70
     0
102
RTVSPropertyOp36
 70
     0
102
RTVSPropertyOp37
 70
     0
102
RTVSPropertyOp38
 70
     0
102
RTVSPropertyOp39
 70
     0
102
RTVSPropertyOp40
 70
     0
102
RTVSPropertyOp41
 70
     0
102
RTVSPropertyOp42
 70
     0
102
RTVSPropertyOp43
 70
     0
102
RTVSPropertyOp44
 70
     0
102
RTVSPropertyOp45
 70
     0
102
RTVSPropertyOp46
 70
     0
102
RTVSPropertyOp47
 70
     0
102
RTVSPropertyOp48
 70
     0
102
RTVSPropertyOp49
 70
     0
102
RTVSPropertyOp50
 70
     0
102
RTVSPropertyOp51
 70
     0
102
RTVSPropertyOp52
 70
     0
102
RTVSPropertyOp53
 70
     0
102
RTVSPropertyOp54
 70
     0
102
RTVSPropertyOp55
 70
     0
102
RTVSPropertyOp56
 70
     0
102
RTVSPropertyOp57
 70
     0
102
RTVSPost2010Prop28
280
     0
102
RTVSPost2010PropOp28
 70
     0
102
RTVSPost2010Prop29
280
     1
102
RTVSPost2010PropOp29
 70
     0
102
RTVSPost2010Prop30
280
     1
102
RTVSPost2010PropOp30
 70
     0
102
RTVSPost2010Prop31
280
     0
102
RTVSPost2010PropOp31
 70
     0
102
RTVSPost2010Prop32
280
     0
102
RTVSPost2010PropOp32
 70
     0
102
RTVSPost2010Prop33
280
     0
102
RTVSPost2010PropOp33
 70
     0
102
RTVSPost2010Prop34
280
     0
102
RTVSPost2010PropOp34
 70
     0
102
RTVSPost2010Prop35
280
     0
102
RTVSPost2010PropOp35
 70
     0
102
RTVSPost2010Prop36
280
     0
102
RTVSPost2010PropOp36
 70
     0
102
RTVSPost2010Prop37
 90
       50
102
RTVSPost2010PropOp37
 70
     0
102
RTVSPost2010Prop38
140
0.0
102
RTVSPost2010PropOp38
 70
     0
102
RTVSPost2010Prop39
140
1.0
102
RTVSPost2010PropOp39
 70
     0
102
RTVSPost2010Prop40
 90
        0
102
RTVSPost2010PropOp40
 70
     0
102
RTVSPost2010Prop41ColorIndex
 90
       18
102
RTVSPost2010Prop41ColorRGB
 90
        0
102
RTVSPost2010PropOp41
 70
     0
102
RTVSPost2010Prop42
 90
       50
102
RTVSPost2010PropOp42
 70
     0
102
RTVSPost2010Prop43
 90
        3
102
RTVSPost2010PropOp43
 70
     0
102
RTVSPost2010Prop44ColorIndex
 90
        5
102
RTVSPost2010Prop44ColorRGB
 90
      255
102
RTVSPost2010PropOp44
 70
     0
102
RTVSPost2010Prop45
280
     0
102
RTVSPost2010PropOp45
 70
     0
102
RTVSPost2010Prop46
 90
       50
102
RTVSPost2010PropOp46
 70
     0
102
RTVSPost2010Prop47
 90
       50
102
RTVSPost2010PropOp47
 70
     0
102
RTVSPost2010Prop48
 90
       50
102
RTVSPost2010PropOp48
 70
     0
102
RTVSPost2010Prop49
280
     0
102
RTVSPost2010PropOp49
 70
     0
102
RTVSPost2010Prop50
 90
       50
102
RTVSPost2010PropOp50
 70
     0
102
RTVSPost2010Prop51ColorIndex
 90
      256
102
RTVSPost2010Prop51ColorRGB
 90
-16777216
102
RTVSPost2010PropOp51
 70
     0
102
RTVSPost2010Prop52
140
1.0
102
RTVSPost2010PropOp52
 70
     0
102
RTVSPost2010Prop53
 90
        2
102
RTVSPost2010PropOp53
 70
     0
102
RTVSPost2010Prop54
  1
strokes_ogs.tif
102
RTVSPost2010PropOp54
 70
     0
102
RTVSPost2010Prop55
280
     0
102
RTVSPost2010PropOp55
 70
     0
102
RTVSPost2010Prop56
140
1.0
102
RTVSPost2010PropOp56
 70
     0
102
RTVSPost2010Prop57
140
1.0
102
RTVSPost2010PropOp57
 70
     0
  0
XRECORD
  5
30E
102
{ACAD_REACTORS
330
30D
102
}
330
30D
100
AcDbXrecord
280
     1
102
RTVSPropertyOp0
 70
     1
102
RTVSPropertyOp1
 70
     1
102
RTVSPropertyOp2
 70
     1
102
RTVSPropertyOp3
 70
     1
102
RTVSPropertyOp4
 70
     1
102
RTVSPropertyOp5
 70
     1
102
RTVSPropertyOp6
 70
     1
102
RTVSPropertyOp7
 70
     1
102
RTVSPropertyOp8
 70
     1
102
RTVSPropertyOp9
 70
     1
102
RTVSPropertyOp10
 70
     1
102
RTVSPropertyOp11
 70
     1
102
RTVSPropertyOp12
 70
     1
102
RTVSPropertyOp13
 70
     1
102
RTVSPropertyOp14
 70
     1
102
RTVSPropertyOp15
 70
     1
102
RTVSPropertyOp16
 70
     1
102
RTVSPropertyOp17
 70
     1
102
RTVSPropertyOp18
 70
     1
102
RTVSPropertyOp19
 70
     1
102
RTVSPropertyOp20
 70
     1
102
RTVSPropertyOp21
 70
     1
102
RTVSPropertyOp22
 70
     1
102
RTVSPropertyOp23
 70
     1
102
RTVSPropertyOp24
 70
     1
102
RTVSPropertyOp25
 70
     1
102
RTVSPropertyOp26
 70
     1
102
RTVSPropertyOp27
 70
     1
102
RTVSPropertyOp28
 70
     1
102
RTVSPropertyOp29
 70
     1
102
RTVSPropertyOp30
 70
     1
102
RTVSPropertyOp31
 70
     1
102
RTVSPropertyOp32
 70
     1
102
RTVSPropertyOp33
 70
     1
102
RTVSPropertyOp34
 70
     1
102
RTVSPropertyOp35
 70
     1
102
RTVSPropertyOp36
 70
     1
102
RTVSPropertyOp37
 70
     1
102
RTVSPropertyOp38
 70
     1
102
RTVSPropertyOp39
 70
     1
102
RTVSPropertyOp40
 70
     1
102
RTVSPropertyOp41
 70
     1
102
RTVSPropertyOp42
 70
     1
102
RTVSPropertyOp43
 70
     1
102
RTVSPropertyOp44
 70
     1
102
RTVSPropertyOp45
 70
     1
102
RTVSPropertyOp46
 70
     1
102
RTVSPropertyOp47
 70
     1
102
RTVSPropertyOp48
 70
     1
102
RTVSPropertyOp49
 70
     1
102
RTVSPropertyOp50
 70
     1
102
RTVSPropertyOp51
 70
     0
102
RTVSPropertyOp52
 70
     0
102
RTVSPropertyOp53
 70
     1
102
RTVSPropertyOp54
 70
     1
102
RTVSPropertyOp55
 70
     1
102
RTVSPropertyOp56
 70
     1
102
RTVSPropertyOp57
 70
     1
102
RTVSPost2010Prop28
280
     0
102
RTVSPost2010PropOp28
 70
     1
102
RTVSPost2010Prop29
280
     1
102
RTVSPost2010PropOp29
 70
     1
102
RTVSPost2010Prop30
280
     1
102
RTVSPost2010PropOp30
 70
     1
102
RTVSPost2010Prop31
280
     0
102
RTVSPost2010PropOp31
 70
     1
102
RTVSPost2010Prop32
280
     0
102
RTVSPost2010PropOp32
 70
     1
102
RTVSPost2010Prop33
280
     0
102
RTVSPost2010PropOp33
 70
     1
102
RTVSPost2010Prop34
280
     0
102
RTVSPost2010PropOp34
 70
     1
102
RTVSPost2010Prop35
280
     0
102
RTVSPost2010PropOp35
 70
     1
102
RTVSPost2010Prop36
280
     0
102
RTVSPost2010PropOp36
 70
     1
102
RTVSPost2010Prop37
 90
       50
102
RTVSPost2010PropOp37
 70
     1
102
RTVSPost2010Prop38
140
0.0
102
RTVSPost2010PropOp38
 70
     1
102
RTVSPost2010Prop39
140
1.0
102
RTVSPost2010PropOp39
 70
     1
102
RTVSPost2010Prop40
 90
        0
102
RTVSPost2010PropOp40
 70
     1
102
RTVSPost2010Prop41ColorIndex
 90
       18
102
RTVSPost2010Prop41ColorRGB
 90
        0
102
RTVSPost2010PropOp41
 70
     1
102
RTVSPost2010Prop42
 90
       50
102
RTVSPost2010PropOp42
 70
     1
102
RTVSPost2010Prop43
 90
        3
102
RTVSPost2010PropOp43
 70
     1
102
RTVSPost2010Prop44ColorIndex
 90
        5
102
RTVSPost2010Prop44ColorRGB
 90
      255
102
RTVSPost2010PropOp44
 70
     1
102
RTVSPost2010Prop45
280
     0
102
RTVSPost2010PropOp45
 70
     1
102
RTVSPost2010Prop46
 90
       50
102
RTVSPost2010PropOp46
 70
     1
102
RTVSPost2010Prop47
 90
       50
102
RTVSPost2010PropOp47
 70
     1
102
RTVSPost2010Prop48
 90
       50
102
RTVSPost2010PropOp48
 70
     1
102
RTVSPost2010Prop49
280
     0
102
RTVSPost2010PropOp49
 70
     1
102
RTVSPost2010Prop50
 90
       50
102
RTVSPost2010PropOp50
 70
     1
102
RTVSPost2010Prop51ColorIndex
 90
      256
102
RTVSPost2010Prop51ColorRGB
 90
-16777216
102
RTVSPost2010PropOp51
 70
     0
102
RTVSPost2010Prop52
140
1.0
102
RTVSPost2010PropOp52
 70
     0
102
RTVSPost2010Prop53
 90
        2
102
RTVSPost2010PropOp53
 70
     1
102
RTVSPost2010Prop54
  1
strokes_ogs.tif
102
RTVSPost2010PropOp54
 70
     1
102
RTVSPost2010Prop55
280
     0
102
RTVSPost2010PropOp55
 70
     1
102
RTVSPost2010Prop56
140
1.0
102
RTVSPost2010PropOp56
 70
     1
102
RTVSPost2010Prop57
140
1.0
102
RTVSPost2010PropOp57
 70
     1
  0
XRECORD
  5
32C
102
{ACAD_REACTORS
330
32B
102
}
330
32B
100
AcDbXrecord
280
     1
102
RTVSPropertyOp0
 70
     1
102
RTVSPropertyOp1
 70
     1
102
RTVSPropertyOp2
 70
     1
102
RTVSPropertyOp3
 70
     1
102
RTVSPropertyOp4
 70
     1
102
RTVSPropertyOp5
 70
     1
102
RTVSPropertyOp6
 70
     1
102
RTVSPropertyOp7
 70
     1
102
RTVSPropertyOp8
 70
     1
102
RTVSPropertyOp9
 70
     1
102
RTVSPropertyOp10
 70
     1
102
RTVSPropertyOp11
 70
     1
102
RTVSPropertyOp12
 70
     1
102
RTVSPropertyOp13
 70
     1
102
RTVSPropertyOp14
 70
     1
102
RTVSPropertyOp15
 70
     1
102
RTVSPropertyOp16
 70
     1
102
RTVSPropertyOp17
 70
     1
102
RTVSPropertyOp18
 70
     1
102
RTVSPropertyOp19
 70
     1
102
RTVSPropertyOp20
 70
     1
102
RTVSPropertyOp21
 70
     1
102
RTVSPropertyOp22
 70
     1
102
RTVSPropertyOp23
 70
     1
102
RTVSPropertyOp24
 70
     1
102
RTVSPropertyOp25
 70
     1
102
RTVSPropertyOp26
 70
     1
102
RTVSPropertyOp27
 70
     1
102
RTVSPropertyOp28
 70
     1
102
RTVSPropertyOp29
 70
     1
102
RTVSPropertyOp30
 70
     1
102
RTVSPropertyOp31
 70
     1
102
RTVSPropertyOp32
 70
     1
102
RTVSPropertyOp33
 70
     1
102
RTVSPropertyOp34
 70
     1
102
RTVSPropertyOp35
 70
     1
102
RTVSPropertyOp36
 70
     1
102
RTVSPropertyOp37
 70
     1
102
RTVSPropertyOp38
 70
     1
102
RTVSPropertyOp39
 70
     1
102
RTVSPropertyOp40
 70
     1
102
RTVSPropertyOp41
 70
     1
102
RTVSPropertyOp42
 70
     1
102
RTVSPropertyOp43
 70
     1
102
RTVSPropertyOp44
 70
     1
102
RTVSPropertyOp45
 70
     1
102
RTVSPropertyOp46
 70
     1
102
RTVSPropertyOp47
 70
     1
102
RTVSPropertyOp48
 70
     1
102
RTVSPropertyOp49
 70
     1
102
RTVSPropertyOp50
 70
     1
102
RTVSPropertyOp51
 70
     0
102
RTVSPropertyOp52
 70
     0
102
RTVSPropertyOp53
 70
     1
102
RTVSPropertyOp54
 70
     1
102
RTVSPropertyOp55
 70
     1
102
RTVSPropertyOp56
 70
     1
102
RTVSPropertyOp57
 70
     1
102
RTVSPost2010Prop28
280
     0
102
RTVSPost2010PropOp28
 70
     1
102
RTVSPost2010Prop29
280
     1
102
RTVSPost2010PropOp29
 70
     1
102
RTVSPost2010Prop30
280
     1
102
RTVSPost2010PropOp30
 70
     1
102
RTVSPost2010Prop31
280
     0
102
RTVSPost2010PropOp31
 70
     1
102
RTVSPost2010Prop32
280
     0
102
RTVSPost2010PropOp32
 70
     1
102
RTVSPost2010Prop33
280
     0
102
RTVSPost2010PropOp33
 70
     1
102
RTVSPost2010Prop34
280
     0
102
RTVSPost2010PropOp34
 70
     1
102
RTVSPost2010Prop35
280
     0
102
RTVSPost2010PropOp35
 70
     1
102
RTVSPost2010Prop36
280
     0
102
RTVSPost2010PropOp36
 70
     1
102
RTVSPost2010Prop37
 90
       50
102
RTVSPost2010PropOp37
 70
     1
102
RTVSPost2010Prop38
140
0.0
102
RTVSPost2010PropOp38
 70
     1
102
RTVSPost2010Prop39
140
1.0
102
RTVSPost2010PropOp39
 70
     1
102
RTVSPost2010Prop40
 90
        0
102
RTVSPost2010PropOp40
 70
     1
102
RTVSPost2010Prop41ColorIndex
 90
       18
102
RTVSPost2010Prop41ColorRGB
 90
        0
102
RTVSPost2010PropOp41
 70
     1
102
RTVSPost2010Prop42
 90
       50
102
RTVSPost2010PropOp42
 70
     1
102
RTVSPost2010Prop43
 90
        3
102
RTVSPost2010PropOp43
 70
     1
102
RTVSPost2010Prop44ColorIndex
 90
        5
102
RTVSPost2010Prop44ColorRGB
 90
      255
102
RTVSPost2010PropOp44
 70
     1
102
RTVSPost2010Prop45
280
     0
102
RTVSPost2010PropOp45
 70
     1
102
RTVSPost2010Prop46
 90
       50
102
RTVSPost2010PropOp46
 70
     1
102
RTVSPost2010Prop47
 90
       50
102
RTVSPost2010PropOp47
 70
     1
102
RTVSPost2010Prop48
 90
       50
102
RTVSPost2010PropOp48
 70
     1
102
RTVSPost2010Prop49
280
     0
102
RTVSPost2010PropOp49
 70
     1
102
RTVSPost2010Prop50
 90
       50
102
RTVSPost2010PropOp50
 70
     1
102
RTVSPost2010Prop51ColorIndex
 90
      256
102
RTVSPost2010Prop51ColorRGB
 90
-16777216
102
RTVSPost2010PropOp51
 70
     0
102
RTVSPost2010Prop52
140
1.0
102
RTVSPost2010PropOp52
 70
     0
102
RTVSPost2010Prop53
 90
        2
102
RTVSPost2010PropOp53
 70
     1
102
RTVSPost2010Prop54
  1
strokes_ogs.tif
102
RTVSPost2010PropOp54
 70
     1
102
RTVSPost2010Prop55
280
     0
102
RTVSPost2010PropOp55
 70
     1
102
RTVSPost2010Prop56
140
1.0
102
RTVSPost2010PropOp56
 70
     1
102
RTVSPost2010Prop57
140
1.0
102
RTVSPost2010PropOp57
 70
     1
  0
XRECORD
  5
32A
102
{ACAD_REACTORS
330
329
102
}
330
329
100
AcDbXrecord
280
     1
102
RTVSPropertyOp0
 70
     1
102
RTVSPropertyOp1
 70
     1
102
RTVSPropertyOp2
 70
     1
102
RTVSPropertyOp3
 70
     1
102
RTVSPropertyOp4
 70
     1
102
RTVSPropertyOp5
 70
     1
102
RTVSPropertyOp6
 70
     1
102
RTVSPropertyOp7
 70
     1
102
RTVSPropertyOp8
 70
     1
102
RTVSPropertyOp9
 70
     1
102
RTVSPropertyOp10
 70
     1
102
RTVSPropertyOp11
 70
     1
102
RTVSPropertyOp12
 70
     1
102
RTVSPropertyOp13
 70
     1
102
RTVSPropertyOp14
 70
     1
102
RTVSPropertyOp15
 70
     1
102
RTVSPropertyOp16
 70
     1
102
RTVSPropertyOp17
 70
     1
102
RTVSPropertyOp18
 70
     1
102
RTVSPropertyOp19
 70
     1
102
RTVSPropertyOp20
 70
     1
102
RTVSPropertyOp21
 70
     1
102
RTVSPropertyOp22
 70
     1
102
RTVSPropertyOp23
 70
     1
102
RTVSPropertyOp24
 70
     1
102
RTVSPropertyOp25
 70
     1
102
RTVSPropertyOp26
 70
     1
102
RTVSPropertyOp27
 70
     1
102
RTVSPropertyOp28
 70
     1
102
RTVSPropertyOp29
 70
     1
102
RTVSPropertyOp30
 70
     1
102
RTVSPropertyOp31
 70
     1
102
RTVSPropertyOp32
 70
     1
102
RTVSPropertyOp33
 70
     1
102
RTVSPropertyOp34
 70
     1
102
RTVSPropertyOp35
 70
     1
102
RTVSPropertyOp36
 70
     1
102
RTVSPropertyOp37
 70
     1
102
RTVSPropertyOp38
 70
     1
102
RTVSPropertyOp39
 70
     1
102
RTVSPropertyOp40
 70
     1
102
RTVSPropertyOp41
 70
     1
102
RTVSPropertyOp42
 70
     1
102
RTVSPropertyOp43
 70
     1
102
RTVSPropertyOp44
 70
     1
102
RTVSPropertyOp45
 70
     1
102
RTVSPropertyOp46
 70
     1
102
RTVSPropertyOp47
 70
     1
102
RTVSPropertyOp48
 70
     1
102
RTVSPropertyOp49
 70
     1
102
RTVSPropertyOp50
 70
     1
102
RTVSPropertyOp51
 70
     0
102
RTVSPropertyOp52
 70
     0
102
RTVSPropertyOp53
 70
     1
102
RTVSPropertyOp54
 70
     1
102
RTVSPropertyOp55
 70
     1
102
RTVSPropertyOp56
 70
     1
102
RTVSPropertyOp57
 70
     1
102
RTVSPost2010Prop28
280
     0
102
RTVSPost2010PropOp28
 70
     1
102
RTVSPost2010Prop29
280
     1
102
RTVSPost2010PropOp29
 70
     1
102
RTVSPost2010Prop30
280
     1
102
RTVSPost2010PropOp30
 70
     1
102
RTVSPost2010Prop31
280
     0
102
RTVSPost2010PropOp31
 70
     1
102
RTVSPost2010Prop32
280
     0
102
RTVSPost2010PropOp32
 70
     1
102
RTVSPost2010Prop33
280
     0
102
RTVSPost2010PropOp33
 70
     1
102
RTVSPost2010Prop34
280
     0
102
RTVSPost2010PropOp34
 70
     1
102
RTVSPost2010Prop35
280
     0
102
RTVSPost2010PropOp35
 70
     1
102
RTVSPost2010Prop36
280
     0
102
RTVSPost2010PropOp36
 70
     1
102
RTVSPost2010Prop37
 90
       50
102
RTVSPost2010PropOp37
 70
     1
102
RTVSPost2010Prop38
140
0.0
102
RTVSPost2010PropOp38
 70
     1
102
RTVSPost2010Prop39
140
1.0
102
RTVSPost2010PropOp39
 70
     1
102
RTVSPost2010Prop40
 90
        0
102
RTVSPost2010PropOp40
 70
     1
102
RTVSPost2010Prop41ColorIndex
 90
       18
102
RTVSPost2010Prop41ColorRGB
 90
        0
102
RTVSPost2010PropOp41
 70
     1
102
RTVSPost2010Prop42
 90
       50
102
RTVSPost2010PropOp42
 70
     1
102
RTVSPost2010Prop43
 90
        3
102
RTVSPost2010PropOp43
 70
     1
102
RTVSPost2010Prop44ColorIndex
 90
        5
102
RTVSPost2010Prop44ColorRGB
 90
      255
102
RTVSPost2010PropOp44
 70
     1
102
RTVSPost2010Prop45
280
     0
102
RTVSPost2010PropOp45
 70
     1
102
RTVSPost2010Prop46
 90
       50
102
RTVSPost2010PropOp46
 70
     1
102
RTVSPost2010Prop47
 90
       50
102
RTVSPost2010PropOp47
 70
     1
102
RTVSPost2010Prop48
 90
       50
102
RTVSPost2010PropOp48
 70
     1
102
RTVSPost2010Prop49
280
     0
102
RTVSPost2010PropOp49
 70
     1
102
RTVSPost2010Prop50
 90
       50
102
RTVSPost2010PropOp50
 70
     1
102
RTVSPost2010Prop51ColorIndex
 90
      256
102
RTVSPost2010Prop51ColorRGB
 90
-16777216
102
RTVSPost2010PropOp51
 70
     0
102
RTVSPost2010Prop52
140
1.0
102
RTVSPost2010PropOp52
 70
     0
102
RTVSPost2010Prop53
 90
        2
102
RTVSPost2010PropOp53
 70
     1
102
RTVSPost2010Prop54
  1
strokes_ogs.tif
102
RTVSPost2010PropOp54
 70
     1
102
RTVSPost2010Prop55
280
     0
102
RTVSPost2010PropOp55
 70
     1
102
RTVSPost2010Prop56
140
1.0
102
RTVSPost2010PropOp56
 70
     1
102
RTVSPost2010Prop57
140
1.0
102
RTVSPost2010PropOp57
 70
     1
  0
XRECORD
  5
324
102
{ACAD_REACTORS
330
323
102
}
330
323
100
AcDbXrecord
280
     1
102
RTVSPropertyOp0
 70
     1
102
RTVSPropertyOp1
 70
     1
102
RTVSPropertyOp2
 70
     1
102
RTVSPropertyOp3
 70
     1
102
RTVSPropertyOp4
 70
     1
102
RTVSPropertyOp5
 70
     1
102
RTVSPropertyOp6
 70
     1
102
RTVSPropertyOp7
 70
     1
102
RTVSPropertyOp8
 70
     1
102
RTVSPropertyOp9
 70
     1
102
RTVSPropertyOp10
 70
     1
102
RTVSPropertyOp11
 70
     1
102
RTVSPropertyOp12
 70
     1
102
RTVSPropertyOp13
 70
     1
102
RTVSPropertyOp14
 70
     1
102
RTVSPropertyOp15
 70
     1
102
RTVSPropertyOp16
 70
     1
102
RTVSPropertyOp17
 70
     1
102
RTVSPropertyOp18
 70
     1
102
RTVSPropertyOp19
 70
     1
102
RTVSPropertyOp20
 70
     1
102
RTVSPropertyOp21
 70
     1
102
RTVSPropertyOp22
 70
     1
102
RTVSPropertyOp23
 70
     1
102
RTVSPropertyOp24
 70
     1
102
RTVSPropertyOp25
 70
     1
102
RTVSPropertyOp26
 70
     1
102
RTVSPropertyOp27
 70
     1
102
RTVSPropertyOp28
 70
     1
102
RTVSPropertyOp29
 70
     1
102
RTVSPropertyOp30
 70
     1
102
RTVSPropertyOp31
 70
     1
102
RTVSPropertyOp32
 70
     1
102
RTVSPropertyOp33
 70
     1
102
RTVSPropertyOp34
 70
     1
102
RTVSPropertyOp35
 70
     1
102
RTVSPropertyOp36
 70
     1
102
RTVSPropertyOp37
 70
     1
102
RTVSPropertyOp38
 70
     1
102
RTVSPropertyOp39
 70
     1
102
RTVSPropertyOp40
 70
     1
102
RTVSPropertyOp41
 70
     1
102
RTVSPropertyOp42
 70
     1
102
RTVSPropertyOp43
 70
     1
102
RTVSPropertyOp44
 70
     1
102
RTVSPropertyOp45
 70
     1
102
RTVSPropertyOp46
 70
     1
102
RTVSPropertyOp47
 70
     1
102
RTVSPropertyOp48
 70
     1
102
RTVSPropertyOp49
 70
     1
102
RTVSPropertyOp50
 70
     1
102
RTVSPropertyOp51
 70
     0
102
RTVSPropertyOp52
 70
     0
102
RTVSPropertyOp53
 70
     1
102
RTVSPropertyOp54
 70
     1
102
RTVSPropertyOp55
 70
     1
102
RTVSPropertyOp56
 70
     1
102
RTVSPropertyOp57
 70
     1
102
RTVSPost2010Prop28
280
     0
102
RTVSPost2010PropOp28
 70
     1
102
RTVSPost2010Prop29
280
     1
102
RTVSPost2010PropOp29
 70
     1
102
RTVSPost2010Prop30
280
     1
102
RTVSPost2010PropOp30
 70
     1
102
RTVSPost2010Prop31
280
     0
102
RTVSPost2010PropOp31
 70
     1
102
RTVSPost2010Prop32
280
     0
102
RTVSPost2010PropOp32
 70
     1
102
RTVSPost2010Prop33
280
     0
102
RTVSPost2010PropOp33
 70
     1
102
RTVSPost2010Prop34
280
     0
102
RTVSPost2010PropOp34
 70
     1
102
RTVSPost2010Prop35
280
     0
102
RTVSPost2010PropOp35
 70
     1
102
RTVSPost2010Prop36
280
     0
102
RTVSPost2010PropOp36
 70
     1
102
RTVSPost2010Prop37
 90
       50
102
RTVSPost2010PropOp37
 70
     1
102
RTVSPost2010Prop38
140
0.0
102
RTVSPost2010PropOp38
 70
     1
102
RTVSPost2010Prop39
140
1.0
102
RTVSPost2010PropOp39
 70
     1
102
RTVSPost2010Prop40
 90
        0
102
RTVSPost2010PropOp40
 70
     1
102
RTVSPost2010Prop41ColorIndex
 90
       18
102
RTVSPost2010Prop41ColorRGB
 90
        0
102
RTVSPost2010PropOp41
 70
     1
102
RTVSPost2010Prop42
 90
       50
102
RTVSPost2010PropOp42
 70
     1
102
RTVSPost2010Prop43
 90
        3
102
RTVSPost2010PropOp43
 70
     1
102
RTVSPost2010Prop44ColorIndex
 90
        5
102
RTVSPost2010Prop44ColorRGB
 90
      255
102
RTVSPost2010PropOp44
 70
     1
102
RTVSPost2010Prop45
280
     0
102
RTVSPost2010PropOp45
 70
     1
102
RTVSPost2010Prop46
 90
       50
102
RTVSPost2010PropOp46
 70
     1
102
RTVSPost2010Prop47
 90
       50
102
RTVSPost2010PropOp47
 70
     1
102
RTVSPost2010Prop48
 90
       50
102
RTVSPost2010PropOp48
 70
     1
102
RTVSPost2010Prop49
280
     0
102
RTVSPost2010PropOp49
 70
     1
102
RTVSPost2010Prop50
 90
       50
102
RTVSPost2010PropOp50
 70
     1
102
RTVSPost2010Prop51ColorIndex
 90
      256
102
RTVSPost2010Prop51ColorRGB
 90
-16777216
102
RTVSPost2010PropOp51
 70
     0
102
RTVSPost2010Prop52
140
1.0
102
RTVSPost2010PropOp52
 70
     0
102
RTVSPost2010Prop53
 90
        2
102
RTVSPost2010PropOp53
 70
     1
102
RTVSPost2010Prop54
  1
strokes_ogs.tif
102
RTVSPost2010PropOp54
 70
     1
102
RTVSPost2010Prop55
280
     0
102
RTVSPost2010PropOp55
 70
     1
102
RTVSPost2010Prop56
140
1.0
102
RTVSPost2010PropOp56
 70
     1
102
RTVSPost2010Prop57
140
1.0
102
RTVSPost2010PropOp57
 70
     1
  0
XRECORD
  5
326
102
{ACAD_REACTORS
330
325
102
}
330
325
100
AcDbXrecord
280
     1
102
RTVSPropertyOp0
 70
     1
102
RTVSPropertyOp1
 70
     1
102
RTVSPropertyOp2
 70
     1
102
RTVSPropertyOp3
 70
     1
102
RTVSPropertyOp4
 70
     1
102
RTVSPropertyOp5
 70
     1
102
RTVSPropertyOp6
 70
     1
102
RTVSPropertyOp7
 70
     1
102
RTVSPropertyOp8
 70
     1
102
RTVSPropertyOp9
 70
     1
102
RTVSPropertyOp10
 70
     1
102
RTVSPropertyOp11
 70
     1
102
RTVSPropertyOp12
 70
     1
102
RTVSPropertyOp13
 70
     1
102
RTVSPropertyOp14
 70
     1
102
RTVSPropertyOp15
 70
     1
102
RTVSPropertyOp16
 70
     1
102
RTVSPropertyOp17
 70
     1
102
RTVSPropertyOp18
 70
     1
102
RTVSPropertyOp19
 70
     1
102
RTVSPropertyOp20
 70
     1
102
RTVSPropertyOp21
 70
     1
102
RTVSPropertyOp22
 70
     1
102
RTVSPropertyOp23
 70
     1
102
RTVSPropertyOp24
 70
     1
102
RTVSPropertyOp25
 70
     1
102
RTVSPropertyOp26
 70
     1
102
RTVSPropertyOp27
 70
     1
102
RTVSPropertyOp28
 70
     1
102
RTVSPropertyOp29
 70
     1
102
RTVSPropertyOp30
 70
     1
102
RTVSPropertyOp31
 70
     1
102
RTVSPropertyOp32
 70
     1
102
RTVSPropertyOp33
 70
     1
102
RTVSPropertyOp34
 70
     1
102
RTVSPropertyOp35
 70
     1
102
RTVSPropertyOp36
 70
     1
102
RTVSPropertyOp37
 70
     1
102
RTVSPropertyOp38
 70
     1
102
RTVSPropertyOp39
 70
     1
102
RTVSPropertyOp40
 70
     1
102
RTVSPropertyOp41
 70
     1
102
RTVSPropertyOp42
 70
     1
102
RTVSPropertyOp43
 70
     1
102
RTVSPropertyOp44
 70
     1
102
RTVSPropertyOp45
 70
     1
102
RTVSPropertyOp46
 70
     1
102
RTVSPropertyOp47
 70
     1
102
RTVSPropertyOp48
 70
     1
102
RTVSPropertyOp49
 70
     1
102
RTVSPropertyOp50
 70
     1
102
RTVSPropertyOp51
 70
     0
102
RTVSPropertyOp52
 70
     0
102
RTVSPropertyOp53
 70
     1
102
RTVSPropertyOp54
 70
     1
102
RTVSPropertyOp55
 70
     1
102
RTVSPropertyOp56
 70
     1
102
RTVSPropertyOp57
 70
     1
102
RTVSPost2010Prop28
280
     0
102
RTVSPost2010PropOp28
 70
     1
102
RTVSPost2010Prop29
280
     1
102
RTVSPost2010PropOp29
 70
     1
102
RTVSPost2010Prop30
280
     1
102
RTVSPost2010PropOp30
 70
     1
102
RTVSPost2010Prop31
280
     0
102
RTVSPost2010PropOp31
 70
     1
102
RTVSPost2010Prop32
280
     0
102
RTVSPost2010PropOp32
 70
     1
102
RTVSPost2010Prop33
280
     0
102
RTVSPost2010PropOp33
 70
     1
102
RTVSPost2010Prop34
280
     0
102
RTVSPost2010PropOp34
 70
     1
102
RTVSPost2010Prop35
280
     0
102
RTVSPost2010PropOp35
 70
     1
102
RTVSPost2010Prop36
280
     0
102
RTVSPost2010PropOp36
 70
     1
102
RTVSPost2010Prop37
 90
       50
102
RTVSPost2010PropOp37
 70
     1
102
RTVSPost2010Prop38
140
0.0
102
RTVSPost2010PropOp38
 70
     1
102
RTVSPost2010Prop39
140
1.0
102
RTVSPost2010PropOp39
 70
     1
102
RTVSPost2010Prop40
 90
        0
102
RTVSPost2010PropOp40
 70
     1
102
RTVSPost2010Prop41ColorIndex
 90
       18
102
RTVSPost2010Prop41ColorRGB
 90
        0
102
RTVSPost2010PropOp41
 70
     1
102
RTVSPost2010Prop42
 90
       50
102
RTVSPost2010PropOp42
 70
     1
102
RTVSPost2010Prop43
 90
        3
102
RTVSPost2010PropOp43
 70
     1
102
RTVSPost2010Prop44ColorIndex
 90
        5
102
RTVSPost2010Prop44ColorRGB
 90
      255
102
RTVSPost2010PropOp44
 70
     1
102
RTVSPost2010Prop45
280
     0
102
RTVSPost2010PropOp45
 70
     1
102
RTVSPost2010Prop46
 90
       50
102
RTVSPost2010PropOp46
 70
     1
102
RTVSPost2010Prop47
 90
       50
102
RTVSPost2010PropOp47
 70
     1
102
RTVSPost2010Prop48
 90
       50
102
RTVSPost2010PropOp48
 70
     1
102
RTVSPost2010Prop49
280
     0
102
RTVSPost2010PropOp49
 70
     1
102
RTVSPost2010Prop50
 90
       50
102
RTVSPost2010PropOp50
 70
     1
102
RTVSPost2010Prop51ColorIndex
 90
      256
102
RTVSPost2010Prop51ColorRGB
 90
-16777216
102
RTVSPost2010PropOp51
 70
     0
102
RTVSPost2010Prop52
140
1.0
102
RTVSPost2010PropOp52
 70
     0
102
RTVSPost2010Prop53
 90
        2
102
RTVSPost2010PropOp53
 70
     1
102
RTVSPost2010Prop54
  1
strokes_ogs.tif
102
RTVSPost2010PropOp54
 70
     1
102
RTVSPost2010Prop55
280
     0
102
RTVSPost2010PropOp55
 70
     1
102
RTVSPost2010Prop56
140
1.0
102
RTVSPost2010PropOp56
 70
     1
102
RTVSPost2010Prop57
140
1.0
102
RTVSPost2010PropOp57
 70
     1
  0
XRECORD
  5
316
102
{ACAD_REACTORS
330
315
102
}
330
315
100
AcDbXrecord
280
     1
102
RTVSPropertyOp0
 70
     1
102
RTVSPropertyOp1
 70
     1
102
RTVSPropertyOp2
 70
     1
102
RTVSPropertyOp3
 70
     1
102
RTVSPropertyOp4
 70
     1
102
RTVSPropertyOp5
 70
     1
102
RTVSPropertyOp6
 70
     1
102
RTVSPropertyOp7
 70
     1
102
RTVSPropertyOp8
 70
     1
102
RTVSPropertyOp9
 70
     1
102
RTVSPropertyOp10
 70
     1
102
RTVSPropertyOp11
 70
     1
102
RTVSPropertyOp12
 70
     1
102
RTVSPropertyOp13
 70
     1
102
RTVSPropertyOp14
 70
     1
102
RTVSPropertyOp15
 70
     1
102
RTVSPropertyOp16
 70
     1
102
RTVSPropertyOp17
 70
     1
102
RTVSPropertyOp18
 70
     1
102
RTVSPropertyOp19
 70
     1
102
RTVSPropertyOp20
 70
     1
102
RTVSPropertyOp21
 70
     1
102
RTVSPropertyOp22
 70
     1
102
RTVSPropertyOp23
 70
     1
102
RTVSPropertyOp24
 70
     1
102
RTVSPropertyOp25
 70
     1
102
RTVSPropertyOp26
 70
     1
102
RTVSPropertyOp27
 70
     1
102
RTVSPropertyOp28
 70
     1
102
RTVSPropertyOp29
 70
     1
102
RTVSPropertyOp30
 70
     1
102
RTVSPropertyOp31
 70
     1
102
RTVSPropertyOp32
 70
     1
102
RTVSPropertyOp33
 70
     1
102
RTVSPropertyOp34
 70
     1
102
RTVSPropertyOp35
 70
     1
102
RTVSPropertyOp36
 70
     1
102
RTVSPropertyOp37
 70
     1
102
RTVSPropertyOp38
 70
     1
102
RTVSPropertyOp39
 70
     1
102
RTVSPropertyOp40
 70
     1
102
RTVSPropertyOp41
 70
     1
102
RTVSPropertyOp42
 70
     1
102
RTVSPropertyOp43
 70
     1
102
RTVSPropertyOp44
 70
     1
102
RTVSPropertyOp45
 70
     1
102
RTVSPropertyOp46
 70
     1
102
RTVSPropertyOp47
 70
     1
102
RTVSPropertyOp48
 70
     1
102
RTVSPropertyOp49
 70
     1
102
RTVSPropertyOp50
 70
     1
102
RTVSPropertyOp51
 70
     0
102
RTVSPropertyOp52
 70
     0
102
RTVSPropertyOp53
 70
     1
102
RTVSPropertyOp54
 70
     1
102
RTVSPropertyOp55
 70
     1
102
RTVSPropertyOp56
 70
     1
102
RTVSPropertyOp57
 70
     1
102
RTVSPost2010Prop28
280
     0
102
RTVSPost2010PropOp28
 70
     1
102
RTVSPost2010Prop29
280
     1
102
RTVSPost2010PropOp29
 70
     1
102
RTVSPost2010Prop30
280
     1
102
RTVSPost2010PropOp30
 70
     1
102
RTVSPost2010Prop31
280
     0
102
RTVSPost2010PropOp31
 70
     1
102
RTVSPost2010Prop32
280
     0
102
RTVSPost2010PropOp32
 70
     1
102
RTVSPost2010Prop33
280
     0
102
RTVSPost2010PropOp33
 70
     1
102
RTVSPost2010Prop34
280
     0
102
RTVSPost2010PropOp34
 70
     1
102
RTVSPost2010Prop35
280
     0
102
RTVSPost2010PropOp35
 70
     1
102
RTVSPost2010Prop36
280
     0
102
RTVSPost2010PropOp36
 70
     1
102
RTVSPost2010Prop37
 90
       50
102
RTVSPost2010PropOp37
 70
     1
102
RTVSPost2010Prop38
140
0.0
102
RTVSPost2010PropOp38
 70
     1
102
RTVSPost2010Prop39
140
1.0
102
RTVSPost2010PropOp39
 70
     1
102
RTVSPost2010Prop40
 90
        0
102
RTVSPost2010PropOp40
 70
     1
102
RTVSPost2010Prop41ColorIndex
 90
       18
102
RTVSPost2010Prop41ColorRGB
 90
        0
102
RTVSPost2010PropOp41
 70
     1
102
RTVSPost2010Prop42
 90
       50
102
RTVSPost2010PropOp42
 70
     1
102
RTVSPost2010Prop43
 90
        3
102
RTVSPost2010PropOp43
 70
     1
102
RTVSPost2010Prop44ColorIndex
 90
        5
102
RTVSPost2010Prop44ColorRGB
 90
      255
102
RTVSPost2010PropOp44
 70
     1
102
RTVSPost2010Prop45
280
     0
102
RTVSPost2010PropOp45
 70
     1
102
RTVSPost2010Prop46
 90
       50
102
RTVSPost2010PropOp46
 70
     1
102
RTVSPost2010Prop47
 90
       50
102
RTVSPost2010PropOp47
 70
     1
102
RTVSPost2010Prop48
 90
       50
102
RTVSPost2010PropOp48
 70
     1
102
RTVSPost2010Prop49
280
     0
102
RTVSPost2010PropOp49
 70
     1
102
RTVSPost2010Prop50
 90
       50
102
RTVSPost2010PropOp50
 70
     1
102
RTVSPost2010Prop51ColorIndex
 90
      256
102
RTVSPost2010Prop51ColorRGB
 90
-16777216
102
RTVSPost2010PropOp51
 70
     0
102
RTVSPost2010Prop52
140
1.0
102
RTVSPost2010PropOp52
 70
     0
102
RTVSPost2010Prop53
 90
        2
102
RTVSPost2010PropOp53
 70
     1
102
RTVSPost2010Prop54
  1
strokes_ogs.tif
102
RTVSPost2010PropOp54
 70
     1
102
RTVSPost2010Prop55
280
     0
102
RTVSPost2010PropOp55
 70
     1
102
RTVSPost2010Prop56
140
1.0
102
RTVSPost2010PropOp56
 70
     1
102
RTVSPost2010Prop57
140
1.0
102
RTVSPost2010PropOp57
 70
     1
  0
XRECORD
  5
308
102
{ACAD_REACTORS
330
307
102
}
330
307
100
AcDbXrecord
280
     1
102
RTVSPropertyOp0
 70
     1
102
RTVSPropertyOp1
 70
     1
102
RTVSPropertyOp2
 70
     1
102
RTVSPropertyOp3
 70
     1
102
RTVSPropertyOp4
 70
     1
102
RTVSPropertyOp5
 70
     1
102
RTVSPropertyOp6
 70
     1
102
RTVSPropertyOp7
 70
     1
102
RTVSPropertyOp8
 70
     1
102
RTVSPropertyOp9
 70
     1
102
RTVSPropertyOp10
 70
     1
102
RTVSPropertyOp11
 70
     1
102
RTVSPropertyOp12
 70
     1
102
RTVSPropertyOp13
 70
     1
102
RTVSPropertyOp14
 70
     1
102
RTVSPropertyOp15
 70
     1
102
RTVSPropertyOp16
 70
     1
102
RTVSPropertyOp17
 70
     1
102
RTVSPropertyOp18
 70
     1
102
RTVSPropertyOp19
 70
     1
102
RTVSPropertyOp20
 70
     1
102
RTVSPropertyOp21
 70
     1
102
RTVSPropertyOp22
 70
     1
102
RTVSPropertyOp23
 70
     1
102
RTVSPropertyOp24
 70
     1
102
RTVSPropertyOp25
 70
     1
102
RTVSPropertyOp26
 70
     1
102
RTVSPropertyOp27
 70
     1
102
RTVSPropertyOp28
 70
     1
102
RTVSPropertyOp29
 70
     1
102
RTVSPropertyOp30
 70
     1
102
RTVSPropertyOp31
 70
     1
102
RTVSPropertyOp32
 70
     1
102
RTVSPropertyOp33
 70
     1
102
RTVSPropertyOp34
 70
     1
102
RTVSPropertyOp35
 70
     1
102
RTVSPropertyOp36
 70
     1
102
RTVSPropertyOp37
 70
     1
102
RTVSPropertyOp38
 70
     1
102
RTVSPropertyOp39
 70
     1
102
RTVSPropertyOp40
 70
     1
102
RTVSPropertyOp41
 70
     1
102
RTVSPropertyOp42
 70
     1
102
RTVSPropertyOp43
 70
     1
102
RTVSPropertyOp44
 70
     1
102
RTVSPropertyOp45
 70
     1
102
RTVSPropertyOp46
 70
     1
102
RTVSPropertyOp47
 70
     1
102
RTVSPropertyOp48
 70
     1
102
RTVSPropertyOp49
 70
     1
102
RTVSPropertyOp50
 70
     1
102
RTVSPropertyOp51
 70
     0
102
RTVSPropertyOp52
 70
     0
102
RTVSPropertyOp53
 70
     1
102
RTVSPropertyOp54
 70
     1
102
RTVSPropertyOp55
 70
     1
102
RTVSPropertyOp56
 70
     1
102
RTVSPropertyOp57
 70
     1
102
RTVSPost2010Prop28
280
     0
102
RTVSPost2010PropOp28
 70
     1
102
RTVSPost2010Prop29
280
     1
102
RTVSPost2010PropOp29
 70
     1
102
RTVSPost2010Prop30
280
     1
102
RTVSPost2010PropOp30
 70
     1
102
RTVSPost2010Prop31
280
     0
102
RTVSPost2010PropOp31
 70
     1
102
RTVSPost2010Prop32
280
     0
102
RTVSPost2010PropOp32
 70
     1
102
RTVSPost2010Prop33
280
     0
102
RTVSPost2010PropOp33
 70
     1
102
RTVSPost2010Prop34
280
     0
102
RTVSPost2010PropOp34
 70
     1
102
RTVSPost2010Prop35
280
     0
102
RTVSPost2010PropOp35
 70
     1
102
RTVSPost2010Prop36
280
     0
102
RTVSPost2010PropOp36
 70
     1
102
RTVSPost2010Prop37
 90
       50
102
RTVSPost2010PropOp37
 70
     1
102
RTVSPost2010Prop38
140
0.0
102
RTVSPost2010PropOp38
 70
     1
102
RTVSPost2010Prop39
140
1.0
102
RTVSPost2010PropOp39
 70
     1
102
RTVSPost2010Prop40
 90
        0
102
RTVSPost2010PropOp40
 70
     1
102
RTVSPost2010Prop41ColorIndex
 90
       18
102
RTVSPost2010Prop41ColorRGB
 90
        0
102
RTVSPost2010PropOp41
 70
     1
102
RTVSPost2010Prop42
 90
       50
102
RTVSPost2010PropOp42
 70
     1
102
RTVSPost2010Prop43
 90
        3
102
RTVSPost2010PropOp43
 70
     1
102
RTVSPost2010Prop44ColorIndex
 90
        5
102
RTVSPost2010Prop44ColorRGB
 90
      255
102
RTVSPost2010PropOp44
 70
     1
102
RTVSPost2010Prop45
280
     0
102
RTVSPost2010PropOp45
 70
     1
102
RTVSPost2010Prop46
 90
       50
102
RTVSPost2010PropOp46
 70
     1
102
RTVSPost2010Prop47
 90
       50
102
RTVSPost2010PropOp47
 70
     1
102
RTVSPost2010Prop48
 90
       50
102
RTVSPost2010PropOp48
 70
     1
102
RTVSPost2010Prop49
280
     0
102
RTVSPost2010PropOp49
 70
     1
102
RTVSPost2010Prop50
 90
       50
102
RTVSPost2010PropOp50
 70
     1
102
RTVSPost2010Prop51ColorIndex
 90
      256
102
RTVSPost2010Prop51ColorRGB
 90
-16777216
102
RTVSPost2010PropOp51
 70
     0
102
RTVSPost2010Prop52
140
1.0
102
RTVSPost2010PropOp52
 70
     0
102
RTVSPost2010Prop53
 90
        2
102
RTVSPost2010PropOp53
 70
     1
102
RTVSPost2010Prop54
  1
strokes_ogs.tif
102
RTVSPost2010PropOp54
 70
     1
102
RTVSPost2010Prop55
280
     0
102
RTVSPost2010PropOp55
 70
     1
102
RTVSPost2010Prop56
140
1.0
102
RTVSPost2010PropOp56
 70
     1
102
RTVSPost2010Prop57
140
1.0
102
RTVSPost2010PropOp57
 70
     1
  0
XRECORD
  5
328
102
{ACAD_REACTORS
330
327
102
}
330
327
100
AcDbXrecord
280
     1
102
RTVSPropertyOp0
 70
     1
102
RTVSPropertyOp1
 70
     1
102
RTVSPropertyOp2
 70
     1
102
RTVSPropertyOp3
 70
     1
102
RTVSPropertyOp4
 70
     1
102
RTVSPropertyOp5
 70
     1
102
RTVSPropertyOp6
 70
     1
102
RTVSPropertyOp7
 70
     1
102
RTVSPropertyOp8
 70
     1
102
RTVSPropertyOp9
 70
     1
102
RTVSPropertyOp10
 70
     1
102
RTVSPropertyOp11
 70
     1
102
RTVSPropertyOp12
 70
     1
102
RTVSPropertyOp13
 70
     1
102
RTVSPropertyOp14
 70
     1
102
RTVSPropertyOp15
 70
     1
102
RTVSPropertyOp16
 70
     1
102
RTVSPropertyOp17
 70
     1
102
RTVSPropertyOp18
 70
     1
102
RTVSPropertyOp19
 70
     1
102
RTVSPropertyOp20
 70
     1
102
RTVSPropertyOp21
 70
     1
102
RTVSPropertyOp22
 70
     1
102
RTVSPropertyOp23
 70
     1
102
RTVSPropertyOp24
 70
     1
102
RTVSPropertyOp25
 70
     1
102
RTVSPropertyOp26
 70
     1
102
RTVSPropertyOp27
 70
     1
102
RTVSPropertyOp28
 70
     1
102
RTVSPropertyOp29
 70
     1
102
RTVSPropertyOp30
 70
     1
102
RTVSPropertyOp31
 70
     1
102
RTVSPropertyOp32
 70
     1
102
RTVSPropertyOp33
 70
     1
102
RTVSPropertyOp34
 70
     1
102
RTVSPropertyOp35
 70
     1
102
RTVSPropertyOp36
 70
     1
102
RTVSPropertyOp37
 70
     1
102
RTVSPropertyOp38
 70
     1
102
RTVSPropertyOp39
 70
     1
102
RTVSPropertyOp40
 70
     1
102
RTVSPropertyOp41
 70
     1
102
RTVSPropertyOp42
 70
     1
102
RTVSPropertyOp43
 70
     1
102
RTVSPropertyOp44
 70
     1
102
RTVSPropertyOp45
 70
     1
102
RTVSPropertyOp46
 70
     1
102
RTVSPropertyOp47
 70
     1
102
RTVSPropertyOp48
 70
     1
102
RTVSPropertyOp49
 70
     1
102
RTVSPropertyOp50
 70
     1
102
RTVSPropertyOp51
 70
     0
102
RTVSPropertyOp52
 70
     0
102
RTVSPropertyOp53
 70
     1
102
RTVSPropertyOp54
 70
     1
102
RTVSPropertyOp55
 70
     1
102
RTVSPropertyOp56
 70
     1
102
RTVSPropertyOp57
 70
     1
102
RTVSPost2010Prop28
280
     0
102
RTVSPost2010PropOp28
 70
     1
102
RTVSPost2010Prop29
280
     1
102
RTVSPost2010PropOp29
 70
     1
102
RTVSPost2010Prop30
280
     1
102
RTVSPost2010PropOp30
 70
     1
102
RTVSPost2010Prop31
280
     0
102
RTVSPost2010PropOp31
 70
     1
102
RTVSPost2010Prop32
280
     0
102
RTVSPost2010PropOp32
 70
     1
102
RTVSPost2010Prop33
280
     0
102
RTVSPost2010PropOp33
 70
     1
102
RTVSPost2010Prop34
280
     0
102
RTVSPost2010PropOp34
 70
     1
102
RTVSPost2010Prop35
280
     0
102
RTVSPost2010PropOp35
 70
     1
102
RTVSPost2010Prop36
280
     0
102
RTVSPost2010PropOp36
 70
     1
102
RTVSPost2010Prop37
 90
       50
102
RTVSPost2010PropOp37
 70
     1
102
RTVSPost2010Prop38
140
0.0
102
RTVSPost2010PropOp38
 70
     1
102
RTVSPost2010Prop39
140
1.0
102
RTVSPost2010PropOp39
 70
     1
102
RTVSPost2010Prop40
 90
        0
102
RTVSPost2010PropOp40
 70
     1
102
RTVSPost2010Prop41ColorIndex
 90
       18
102
RTVSPost2010Prop41ColorRGB
 90
        0
102
RTVSPost2010PropOp41
 70
     1
102
RTVSPost2010Prop42
 90
       50
102
RTVSPost2010PropOp42
 70
     1
102
RTVSPost2010Prop43
 90
        3
102
RTVSPost2010PropOp43
 70
     1
102
RTVSPost2010Prop44ColorIndex
 90
        5
102
RTVSPost2010Prop44ColorRGB
 90
      255
102
RTVSPost2010PropOp44
 70
     1
102
RTVSPost2010Prop45
280
     0
102
RTVSPost2010PropOp45
 70
     1
102
RTVSPost2010Prop46
 90
       50
102
RTVSPost2010PropOp46
 70
     1
102
RTVSPost2010Prop47
 90
       50
102
RTVSPost2010PropOp47
 70
     1
102
RTVSPost2010Prop48
 90
       50
102
RTVSPost2010PropOp48
 70
     1
102
RTVSPost2010Prop49
280
     0
102
RTVSPost2010PropOp49
 70
     1
102
RTVSPost2010Prop50
 90
       50
102
RTVSPost2010PropOp50
 70
     1
102
RTVSPost2010Prop51ColorIndex
 90
      256
102
RTVSPost2010Prop51ColorRGB
 90
-16777216
102
RTVSPost2010PropOp51
 70
     0
102
RTVSPost2010Prop52
140
1.0
102
RTVSPost2010PropOp52
 70
     0
102
RTVSPost2010Prop53
 90
        2
102
RTVSPost2010PropOp53
 70
     1
102
RTVSPost2010Prop54
  1
strokes_ogs.tif
102
RTVSPost2010PropOp54
 70
     1
102
RTVSPost2010Prop55
280
     0
102
RTVSPost2010PropOp55
 70
     1
102
RTVSPost2010Prop56
140
1.0
102
RTVSPost2010PropOp56
 70
     1
102
RTVSPost2010Prop57
140
1.0
102
RTVSPost2010PropOp57
 70
     1
  0
ENDSEC
  0
EOF
